osu file format v10

[General]
AudioFilename: 06 Let There Be Love.mp3
AudioLeadIn: 0
PreviewTime: -1
Countdown: 1
SampleSet: None
StackLeniency: 0.7
Mode: 0
LetterboxInBreaks: 1

[Editor]
Bookmarks: 115881
DistanceSpacing: 1
BeatDivisor: 4
GridSize: 8

[Metadata]
Title:Let There Be Love
TitleUnicode:Let There Be Love
Artist:Christina Aguilera
ArtistUnicode:Christina Aguilera
Creator:Lehon
Version:Easy
Source:
Tags:
BeatmapID:196140
BeatmapSetID:64782

[Difficulty]
HPDrainRate:3
CircleSize:4
OverallDifficulty:3
ApproachRate:4
SliderMultiplier:1.4
SliderTickRate:1

[Events]
//Background and Video events
0,0,"christina aguilera lotus2.jpg"
//Break Periods
2,74831,88780
//Storyboard Layer 0 (Background)
//Storyboard Layer 1 (Fail)
//Storyboard Layer 2 (Pass)
//Storyboard Layer 3 (Foreground)
//Storyboard Sound Samples
//Background Colour Transformations
3,100,163,162,255

[TimingPoints]
15100,468.75,4,1,0,100,1,0
60100,-100,4,1,0,100,0,1
75100,-100,4,1,0,100,0,0
120100,-100,4,1,0,100,0,1
135100,-100,4,1,0,100,0,0
157600,-133.333333333333,4,1,0,100,0,0
163225,-100,4,1,0,100,0,0
168850,-100,4,1,0,100,0,1
183732,-100,4,1,0,100,0,0
183850,-100,4,1,0,100,0,1
198850,-100,4,1,0,100,0,0

[Colours]
Combo1 : 255,255,106
Combo2 : 124,252,124
Combo3 : 121,121,253
Combo4 : 252,105,105

[HitObjects]
192,312,15100,2,0,P|272:336|336:304,1,140
328,176,16037,1,0,0:0:0
184,176,16506,1,0,0:0:0
256,56,16975,1,0,0:0:0
256,192,17443,2,0,P|256:336,2,140
256,192,18615,1,0,0:0:0
440,296,19318,2,0,P|464:248|432:168,2,140
344,192,20725,2,0,P|320:144|352:64,2,140
328,328,22131,2,0,P|232:328,1,70
256,120,23068,1,0,0:0:0
184,240,23537,1,0,0:0:0
328,240,24006,1,0,0:0:0
320,336,24475,2,0,P|256:360|192:336,1,140
256,208,25412,1,0,0:0:0
256,64,25881,2,0,P|256:144,1,70
184,328,26818,2,0,P|344:328,2,140
128,200,28225,1,0,0:0:0
256,248,28693,1,0,0:0:0
384,200,29162,1,0,0:0:0
256,144,29631,1,0,0:0:0
256,192,30100,12,0,31975,0:0:0
256,64,33381,5,0,0:0:0
192,192,33850,2,0,P|256:216|328:184,2,140
128,320,35256,2,0,P|232:368|400:320,1,280
256,272,36662,1,0,0:0:0
256,128,37131,1,0,0:0:0
256,192,37600,12,0,39475,0:0:0
216,56,40881,6,0,P|304:56,2,70
256,192,41818,1,0,0:0:0
176,304,42287,2,0,P|296:352|344:288,1,210
320,168,43459,2,0,P|256:144|176:176,1,140
256,360,44631,1,0,0:0:0
152,264,45100,2,0,P|88:216|104:152,1,140
176,144,45803,2,0,P|136:96|168:56|216:32|256:88|256:88|296:32|352:64|376:104|320:168,1,350
264,264,47443,1,0,0:0:0
408,264,47912,1,0,0:0:0
344,136,48381,2,0,P|384:80|320:40,1,140
200,48,49318,1,0,0:0:0
128,56,49553,2,0,P|48:96|184:232,1,350
256,128,51193,1,0,0:0:0
336,240,51662,1,0,0:0:0
296,376,52131,2,0,P|208:376,2,70
200,272,53068,1,0,0:0:0
320,200,53537,1,0,0:0:0
200,128,54006,1,0,0:0:0
320,56,54475,2,0,P|176:56,1,140
184,200,55412,2,0,P|328:200,1,140
256,192,56350,12,0,58225,0:0:0
256,192,58342,12,0,59631,0:0:0
256,280,60100,5,0,0:0:0
224,144,60568,1,0,0:0:0
176,96,60803,2,0,P|136:48|168:8|216:-16|256:40|256:40|296:-16|352:16|376:56|320:120,1,350
328,240,62443,1,0,0:0:0
184,240,62912,1,0,0:0:0
296,320,63381,2,0,P|224:320,2,70
256,184,64318,1,0,0:0:0
120,144,64787,2,0,P|144:80|208:64,1,140
392,144,65725,2,0,P|368:80|304:64,1,140
256,200,66662,1,0,0:0:0
256,344,67131,1,0,0:0:0
360,256,67600,2,0,P|416:224|400:136,1,140
392,88,68303,2,0,P|248:-8|112:104,1,350
256,120,69943,1,0,0:0:0
392,88,70412,1,0,0:0:0
296,192,70881,2,0,P|208:192,2,70
384,296,71818,1,0,0:0:0
256,344,72287,1,0,0:0:0
128,296,72756,1,0,0:0:0
256,192,73225,12,0,74631,0:0:0
192,48,90100,6,0,P|344:48,1,140
328,192,91037,1,0,0:0:0
184,192,91506,1,0,0:0:0
160,328,91975,2,0,P|256:360|360:328,1,210
448,136,93381,2,0,P|456:56,2,70
312,184,94318,1,0,0:0:0
336,320,94787,2,0,P|240:376|160:296,1,210
184,184,95959,1,0,0:0:0
328,184,96428,1,0,0:0:0
80,320,97365,1,0,0:0:0
64,256,97600,2,0,P|32:200|80:136,1,140
152,248,98537,2,0,P|256:328|368:232,1,280
320,120,99943,2,0,P|256:96|184:120,1,140
224,248,100881,2,0,P|304:248,2,70
256,384,101818,1,0,0:0:0
368,296,102287,1,0,0:0:0
368,152,102756,1,0,0:0:0
256,64,103225,1,0,0:0:0
144,144,103693,1,0,0:0:0
144,288,104162,1,0,0:0:0
216,384,104631,2,0,P|288:384,2,70
256,248,105568,1,0,0:0:0
312,208,105803,2,0,P|256:32|216:216,1,490
184,344,107912,1,0,0:0:0
328,344,108381,1,0,0:0:0
296,208,108850,2,0,P|208:208,2,70
368,208,109553,2,0,P|168:104|152:224,1,420
256,288,111428,1,0,0:0:0
256,80,112131,1,0,0:0:0
360,168,112600,2,0,P|440:168,2,70
360,240,113303,2,0,P|344:304|160:208,1,350
184,96,114943,1,0,0:0:0
328,96,115412,1,0,0:0:0
256,216,115881,1,0,0:0:0
256,192,116350,12,0,118225,0:0:0
256,192,118342,12,0,119631,0:0:0
256,280,120100,5,0,0:0:0
288,144,120568,1,0,0:0:0
336,96,120803,2,0,P|376:48|344:8|296:-16|256:40|256:40|216:-16|160:16|136:56|192:120,1,350
184,240,122443,1,0,0:0:0
328,240,122912,1,0,0:0:0
216,320,123381,2,0,P|288:320,2,70
256,184,124318,1,0,0:0:0
392,144,124787,2,0,P|368:80|304:64,1,140
120,144,125725,2,0,P|144:80|208:64,1,140
256,200,126662,1,0,0:0:0
256,344,127131,1,0,0:0:0
152,256,127600,2,0,P|96:224|112:136,1,140
120,88,128303,2,0,P|264:-8|400:104,1,350
256,120,129943,1,0,0:0:0
120,88,130412,1,0,0:0:0
216,192,130881,2,0,P|304:192,2,70
128,296,131818,1,0,0:0:0
256,344,132287,1,0,0:0:0
384,296,132756,1,0,0:0:0
256,192,133225,12,0,134631,0:0:0
304,64,135100,6,0,P|184:64,4,105
216,176,136975,2,0,P|160:224|208:272,1,140
296,176,137912,2,0,P|352:224|304:272,1,140
200,344,138850,2,0,P|320:344,4,105
208,208,140725,1,0,0:0:0
328,128,141193,1,0,0:0:0
184,128,141662,1,0,0:0:0
304,208,142131,1,0,0:0:0
256,80,142600,2,0,P|256:40|264:80,4,105
256,224,144475,2,0,P|216:184|152:224,1,140
256,312,145412,2,0,P|296:352|360:312,1,140
392,176,146350,2,0,P|256:176,1,105
256,72,147053,2,0,P|144:72,2,105
256,192,148225,12,0,150100,0:0:0
