osu file format v9

[General]
AudioFilename: Christian Walz - Like Suicide (Studioversion i HD).mp3
AudioLeadIn: 0
PreviewTime: 45164
Countdown: 0
SampleSet: Normal
StackLeniency: 1
Mode: 0
LetterboxInBreaks: 1

[Editor]
Bookmarks: 15868,30164,41883,45164,77743,84539,88993,92039,117118
DistanceSpacing: 1.2
BeatDivisor: 1
GridSize: 8

[Metadata]
Title:Like Suicide
Artist:Christian Walz
Creator:Xgor
Version:Hard
Source:Melodifestivalen 2011
Tags:

[Difficulty]
HPDrainRate:6
CircleSize:4
OverallDifficulty:6
ApproachRate:7
SliderMultiplier:1.8
SliderTickRate:2

[Events]
//Background and Video events
0,0,"blueabstract.jpg"
//Break Periods
2,70454,76854
2,117329,123729
//Storyboard Layer 0 (Background)
//Storyboard Layer 1 (Fail)
//Storyboard Layer 2 (Pass)
//Storyboard Layer 3 (Foreground)
//Storyboard Sound Samples
//Background Colour Transformations
3,100,163,162,255

[TimingPoints]
879,468.75,4,2,0,80,1,0
21258,-100,4,2,0,30,0,0
21493,-100,4,2,0,80,0,0
28758,-100,4,2,0,31,0,0
28993,-100,4,2,0,80,0,0
41883,-100,4,1,0,80,0,0
45164,-80,4,1,0,80,0,0
45879,-80,4,1,1,80,0,1
48914,-100,4,1,1,80,0,1
52664,-80,4,1,1,80,0,1
60164,-71.4285714285714,4,1,1,80,0,1
70254,-100,4,2,0,80,0,0
83133,-100,4,2,0,31,0,0
83368,-100,4,2,0,80,0,0
88758,-100,4,1,0,80,0,0
92743,-80,4,1,1,80,0,1
92754,-71.4285714285714,4,1,1,80,0,1
95789,-100,4,1,1,80,0,1
99539,-80,4,1,1,80,0,1
107039,-71.4285714285714,4,1,1,80,0,1
117129,-100,4,2,0,60,0,0
124618,-80,4,2,0,70,0,0
125555,-80,4,2,0,100,0,0
126493,-80,4,2,0,71,0,0
127430,-80,4,2,0,100,0,0
128368,-100,4,2,0,80,0,0
130711,-80,4,2,0,80,0,0
132129,-71.4285714285714,4,1,1,80,0,1
135879,-80,4,1,1,80,0,1
139611,-71.4285714285714,4,1,1,80,0,1
147000,-71.4285714285714,4,1,1,80,0,0
147129,-71.4285714285714,4,1,1,80,0,1
150164,-80,4,1,1,80,0,1
153914,-71.4285714285714,4,1,1,80,0,1
174305,-100,4,1,0,51,0,1
174774,-100,4,1,0,20,0,1
175243,-100,4,1,0,0,0,0

[Colours]
Combo1 : 15,208,219
Combo2 : 5,240,5
Combo3 : 255,128,0
Combo4 : 240,5,5

[HitObjects]
64,336,15879,5,2
64,336,16113,1,0
160,288,16347,1,0
216,192,16582,1,0
208,88,16816,2,0,B|200:32|136:32|136:32|136:120,1,180,8|0
448,336,17754,5,2
448,336,17988,1,0
352,288,18222,1,0
296,192,18457,1,0
304,88,18691,2,0,B|312:32|376:32|376:32|376:120,1,180,8|0
256,384,19629,5,2
256,384,19863,1,0
256,288,20097,1,0
256,192,20332,1,0
328,120,20566,2,0,B|304:72|256:63|208:72|184:120,1,180,8|0
120,168,21269,1,2
256,192,21504,1,2
392,168,21738,2,0,B|400:32|256:-42|112:32|120:168,1,450,0|0
384,360,23379,21,2
384,360,23613,1,0
424,264,23847,1,0
440,160,24082,1,0
424,64,24316,2,0,B|352:72|344:144|344:144|272:144,1,180,8|0
216,352,25254,5,2
24,264,25722,1,0
56,160,25957,1,0
88,64,26191,2,0,B|160:72|168:144|168:144|240:144,1,180,8|0
376,352,27129,5,2
376,352,27363,1,0
307,264,27597,1,0
240,352,27832,1,0
176,264,28066,2,0,B|192:200|256:192|256:192|256:120,1,180,8|0
336,144,28769,1,2
256,32,29004,1,2
176,144,29238,2,0,B|120:184|96:240|104:304,1,180,0|0
472,368,30175,21,0
472,256,30410,1,0
472,152,30644,2,0,B|320:152|432:24|256:24,1,270,2|0
40,368,31816,5,8
40,256,32050,1,0
40,152,32285,1,0
40,48,32519,2,0,B|192:48|80:176|256:176,1,270,2|0
488,360,33691,5,8
488,360,33925,1,0
384,328,34160,1,0
464,256,34394,1,2
296,148,34863,1,0
128,40,35332,1,8
8,192,35800,1,0
136,352,36269,2,0,B|320:352|320:352|480:352|480:184,1,450,2|8
384,256,37675,21,0
416,152,37910,1,0
456,48,38144,2,0,B|312:48|376:96|336:120|296:96|360:48|208:48,1,270,2|0
160,352,39316,5,8
120,256,39550,1,0
88,152,39785,1,0
56,48,40019,2,0,B|200:48|136:96|176:120|216:96|152:48|304:48,1,270,2|0
496,192,41191,5,8
336,344,41660,1,0
336,344,41894,5,0
176,344,42129,1,4
336,40,42832,21,0
176,40,43066,1,4
176,272,43769,21,0
336,272,44004,1,4
336,112,44238,21,0
176,112,44472,1,4
352,336,45175,37,8
440,248,45410,1,0
488,136,45644,2,0,B|416:20|292:58,2,224.999996647239,4|2|0
160,336,47050,5,2
72,248,47285,1,0
24,136,47519,2,0,B|95:20|219:58,2,224.999996647239,4|2|0
384,24,48925,5,2
472,88,49160,1,0
512,192,49394,1,2
464,288,49629,1,4
384,360,49863,2,0,B|280:344|256:248,1,180,2|0
128,24,50800,5,2
40,88,51035,1,0
0,192,51269,1,2
48,288,51504,1,4
128,360,51738,2,0,B|232:344|256:248,1,180,2|0
480,336,52675,5,2
400,240,52910,1,0
320,144,53144,2,0,B|312:48|392:8|480:32,2,224.999996647239,4|2|0
32,336,54550,5,2
112,240,54785,1,0
192,144,55019,2,0,B|200:48|120:8|32:32,2,224.999996647239,4|2|0
416,360,56660,5,0
304,336,56894,1,2
192,288,57129,1,4
120,192,57363,2,0,B|172:80|340:80|392:192,1,337.499994970858,2|8
64,264,58535,1,0
36,160,58769,2,0,B|72:24|256:-40|440:24|476:160,1,562.499991618097,6|8
504,288,60175,21,2
384,224,60410,1,0
256,160,60644,2,0,B|176:216|96:104|8:160,3,251.999993991852,0|2|8|2
176,40,62519,37,0
336,40,62754,1,4
176,344,63457,21,0
336,344,63691,1,4
456,296,63925,37,2
348,240,64160,1,0
256,160,64394,2,0,B|336:216|416:104|504:160,3,251.999993991852,0|2|8|2
336,344,66269,37,0
176,344,66504,1,4
336,40,67207,21,0
176,40,67441,1,4
336,272,68144,21,0
176,272,68379,1,4
176,112,68613,21,0
336,112,68847,1,4
256,192,69082,12,4,70254
408,344,77754,37,2
408,344,77988,1,0
320,280,78222,1,0
256,191,78457,1,0
216,88,78691,2,0,B|280:16|384:16,1,180,8|0
104,344,79629,5,2
104,344,79863,1,0
192,280,80097,1,0
256,191,80332,1,0
296,88,80566,2,0,B|232:16|128:16,1,180,8|0
432,352,81504,5,2
432,352,81738,1,0
352,296,81972,1,0
312,208,82207,1,0
352,120,82441,2,0,B|464:144|488:32,1,180,8|0
392,32,83144,1,2
256,16,83379,1,2
120,32,83613,2,0,B|72:160|184:160|120:296,1,270,0|8
64,368,84550,21,0
32,256,84785,1,0
8,144,85019,2,0,B|64:272|360:32|424:176,1,450,2|8
416,288,86425,5,0
488,192,86660,1,0
448,80,86894,2,0,B|387:-57|91:182|35:54,1,450,2|8
40,344,88535,5,0
40,344,88769,5,0
40,168,89004,1,4
472,168,89707,21,0
472,344,89941,1,4
168,344,90644,21,0
168,168,90879,1,4
344,168,91113,21,0
344,344,91347,1,4
48,368,92050,37,8
0,256,92285,1,0
48,144,92519,1,4
296,264,92988,1,2
216,16,93457,1,2
464,368,93925,5,2
512,256,94160,1,0
464,144,94394,1,4
216,264,94863,1,2
296,16,95332,1,2
112,80,95800,5,2
24,144,96035,1,0
96,224,96269,1,2
32,312,96504,1,4
112,376,96738,2,0,B|176:264|248:304|320:200,1,270,2|8
400,80,97675,5,2
488,144,97910,1,0
416,224,98144,1,2
480,312,98379,1,4
400,376,98613,2,0,B|336:264|264:304|192:200,1,270,2|8
200,344,99550,5,2
80,304,99785,1,0
48,184,100019,1,4
256,304,100488,1,2
256,32,100957,1,2
312,344,101425,5,2
432,304,101660,1,0
464,184,101894,1,4
256,304,102363,1,2
256,16,102832,1,2
368,376,103535,5,0
480,360,103769,1,2
488,248,104004,1,4
376,240,104238,2,0,B|360:344|256:360|152:344|136:240,1,337.499994970858,2|8
368,160,105410,1,0
480,176,105644,2,0,B|424:32|256:-8|88:32|32:176,1,562.499991618097,6|8
88,280,107050,21,2
168,200,107285,1,0
256,120,107519,2,0,B|372:40|496:120,1,251.999993991852,0|2
256,272,108457,2,0,B|140:352|16:272,1,251.999993991852,8|2
40,40,109394,37,0
184,40,109629,1,4
40,344,110332,21,0
184,344,110566,1,4
280,280,110800,37,2
352,192,111035,1,0
416,96,111269,2,0,B|320:0|168:40,1,251.999993991852,0|2
96,288,112207,2,0,B|192:384|344:344,1,251.999993991852,8|2
472,104,113144,37,0
472,280,113379,1,4
40,104,114082,21,0
40,280,114316,1,4
344,104,115019,21,0
344,280,115254,1,4
168,104,115488,21,0
168,280,115722,1,4
256,192,115957,12,4,117129
88,352,124629,38,0,B|-8:192|88:32,1,337.499994970858,2|0
200,32,125566,2,0,B|104:191|200:351,1,337.499994970858,4|0
311,351,126504,6,0,B|407:191|312:32,1,337.499994970858,2|0
424,32,127441,2,0,B|520:192|424:352,1,337.499994970858,4|0
336,368,128379,5,2
336,368,128613,1,0
256,360,128847,1,0
176,336,129082,2,0,B|96:312|72:248,1,135
192,144,129902,2,0,B|256:104|320:144,1,135
480,240,130722,2,2,B|448:376|256:420|64:376|32:240,1,562.499991618097,0|0
40,136,132129,6,0,B|136:200|248:200|312:136|320:24,1,377.999990987778,4|0
184,24,133066,2,0,B|192:135|256:199|368:199|464:135,1,377.999990987778,12|0
464,272,134004,2,0,B|368:208|256:208|192:272|184:383,1,377.999990987778,4|0
320,381,134941,2,0,B|312:270|248:206|136:206|40:270,1,377.999990987778,12|0
0,176,135879,21,4
32,80,136113,1,0
128,40,136347,1,0
224,80,136582,1,0
248,176,136816,2,0,B|248:280|376:280|376:176,1,224.999996647239,8|0
416,272,137519,1,0
504,216,137754,1,4
464,128,137988,2,0,B|464:24|464:24|344:64|232:24,2,337.499994970858,0|8|0
464,248,139629,22,0,B|456:344|336:376|240:352|200:296|200:296|200:248,1,377.999990987778,4|0
312,247,140566,2,0,B|312:296|312:296|272:352|176:376|56:344|48:248,1,377.999990987778,12|0
48,134,141504,2,0,B|56:40|176:8|272:32|312:88|312:88|312:136,1,377.999990987778,4|0
200,136,142441,2,0,B|200:88|200:88|240:32|336:8|456:40|464:136,1,377.999990987778,12|0
464,248,143379,22,0,B|416:344|304:344,2,188.999995493889,4|0|0
472,136,144316,2,0,B|408:24|256:0|96:24|40:144,2,503.999987983704,8|4|8
472,248,146425,38,0,B|448:304|384:336,1,125.999996995926,0|2
272,360,146894,1,0
240,248,147129,1,4
208,136,147363,1,0
176,24,147597,1,2
64,40,147832,2,0,B|0:72|8:144,1,125.999996995926,0|10
40,248,148300,6,0,B|64:304|128:336,1,125.999996995926,0|0
240,360,148769,1,0
272,248,149004,1,4
304,136,149238,1,0
336,24,149472,1,2
448,40,149707,2,0,B|512:72|504:144,1,125.999996995926,0|10
480,240,150175,5,0
384,264,150410,1,2
464,328,150644,1,0
368,352,150879,1,4
272,368,151113,2,0,B|192:288,1,112.499998323619,0|2
272,224,151582,2,0,B|192:144,1,112.499998323619,0|8
32,240,152050,5,0
128,264,152285,1,2
48,328,152519,1,0
144,352,152754,1,4
240,368,152988,2,0,B|320:288,1,112.499998323619,0|2
240,224,153457,2,0,B|320:144,1,112.499998323619,0|8
392,280,153925,6,0,B|472:280|496:216,1,125.999996995926,0|2
472,112,154394,1,0
368,56,154629,1,4
256,32,154863,1,0
144,56,155097,1,2
232,128,155332,2,0,B|272:208|216:248,1,125.999996995926,0|10
120,280,155800,6,0,B|40:280|16:216,1,125.999996995926,0|0
40,112,156269,1,0
144,56,156504,1,4
256,32,156738,1,0
368,56,156972,1,2
280,128,157207,2,0,B|240:208|296:248,1,125.999996995926,0|10
480,352,157910,5,2
368,320,158144,1,0
456,240,158379,1,4
352,192,158613,2,0,B|328:128|256:92|184:128|160:192,2,251.999993991852,2|8|2
256,240,159785,1,0
160,288,160019,2,0,B|184:352|256:388|328:352|352:288,2,251.999993991852,4|2|8
472,136,161425,22,0,B|472:64|392:16,1,125.999996995926,0|2
384,128,161894,1,0
336,40,162129,1,4
300,136,162363,1,0
256,48,162597,1,2
212,136,162832,1,0
176,40,163066,1,10
128,128,163300,1,0
96,28,163535,1,0
44,108,163769,37,0
168,264,164004,1,4
256,32,164707,21,0
384,184,164941,1,4
472,248,165175,38,0,B|472:320|392:368,1,125.999996995926,0|2
384,256,165644,1,0
336,344,165879,1,4
300,248,166113,1,0
256,336,166347,1,2
212,248,166582,1,0
176,344,166816,1,10
128,256,167050,1,0
96,356,167285,1,0
44,276,167519,37,0
168,120,167754,1,4
256,352,168457,21,0
384,200,168691,1,4
480,136,168925,38,0,B|516:192|480:256,1,125.999996995926,0|2
488,368,169394,1,0
408,288,169629,1,4
320,360,169863,1,0
256,272,170097,1,2
184,360,170332,1,0
104,288,170566,1,10
16,360,170800,1,0
72,32,171269,37,0
248,32,171504,1,4
288,352,172207,21,0
464,352,172441,1,4
112,96,173144,21,0
288,96,173379,1,4
248,288,173613,21,0
424,288,173847,1,4
256,192,174082,12,4,175254
