osu file format v14

[General]
AudioFilename: Chris Rice - Lemonade.mp3
AudioLeadIn: 0
PreviewTime: 32809
Countdown: 0
SampleSet: Soft
StackLeniency: 0.7
Mode: 0
LetterboxInBreaks: 0
EpilepsyWarning: 1
WidescreenStoryboard: 1

[Editor]
DistanceSpacing: 1
BeatDivisor: 4
GridSize: 4
TimelineZoom: 1.4

[Metadata]
Title:Lemonade
TitleUnicode:Lemonade
Artist:Chris Rice
ArtistUnicode:Chris Rice
Creator:pandorawindy
Version:Lemons
Source:
Tags:Amusing
BeatmapID:477425
BeatmapSetID:201666

[Difficulty]
HPDrainRate:6
CircleSize:4
OverallDifficulty:6
ApproachRate:7
SliderMultiplier:1.8
SliderTickRate:2

[Events]
//Background and Video events
0,0,"lemon cup.jpg",0,0
//Break Periods
//Storyboard Layer 0 (Background)
//Storyboard Layer 1 (Fail)
//Storyboard Layer 2 (Pass)
//Storyboard Layer 3 (Foreground)
//Storyboard Sound Samples

[TimingPoints]
2130,582.52427184466,4,2,3,60,1,0
6742,582.52427184466,4,2,2,60,1,0
34703,-83.3333333333333,4,2,2,70,0,1
55674,-83.3333333333333,4,2,2,70,0,0
58004,-100,4,2,2,50,0,0
60334,-100,4,2,2,50,0,0
60916,-100,4,2,2,40,0,0
61499,-100,4,2,2,30,0,0
62664,-100,4,2,2,50,0,0
64994,-100,4,2,2,50,0,0
65577,-100,4,2,2,40,0,0
66159,-100,4,2,2,30,0,0
67324,-100,4,2,2,70,0,0
76645,-100,4,2,1,70,0,0
85965,-100,4,2,2,70,0,0
90625,-83.3333333333333,4,2,2,80,0,1
109261,606.060606060606,4,2,2,80,1,1
110473,606.060606060606,4,2,2,80,1,1
110776,689.655172413793,4,2,2,80,1,1
111120,705.882352941176,4,2,2,80,1,1
111472,923.076923076923,4,2,2,80,1,1
111933,-100,4,2,2,80,0,0
115856,-100,4,2,2,20,0,0

[Colours]
Combo1 : 231,231,231
Combo2 : 208,208,19
Combo3 : 255,255,0
Combo4 : 16,175,16
Combo5 : 0,255,0
Combo6 : 92,92,92

[HitObjects]
256,192,2130,5,4,0:0:0:0:
143,28,6742,69,2,0:0:0:0:
51,65,7033,1,0,0:0:0:0:
128,126,7324,2,0,P|174:124|212:101,1,90,8|0,0:0|0:0,0:0:0:0:
369,28,7907,1,2,0:0:0:0:
461,65,8198,1,0,0:0:0:0:
384,126,8489,2,0,P|338:124|300:101,1,90,8|0,0:0|0:0,0:0:0:0:
256,192,9072,70,0,L|256:288,1,90,2|0,0:0|0:0,0:0:0:0:
329,348,9654,1,8,0:0:0:0:
329,348,9945,1,0,0:0:0:0:
349,252,10237,2,0,P|390:271|416:308,2,90,2|0|8,0:0|0:0|0:0,0:0:0:0:
256,282,11110,1,0,0:0:0:0:
183,348,11402,5,2,0:0:0:0:
183,348,11693,2,0,L|92:364,2,90,0|8|0,0:0|0:0|0:0,0:0:0:0:
87,189,12567,2,0,P|95:233|122:269,1,90,2|0,0:0|0:0,0:0:0:0:
186,194,13149,2,0,P|180:149|196:108,1,90,8|0,0:0|0:0,0:0:0:0:
277,164,13732,2,0,P|284:208|311:243,1,90,2|0,0:0|0:0,0:0:0:0:
375,168,14314,1,8,0:0:0:0:
375,168,14606,1,0,0:0:0:0:
265,320,14897,2,0,L|174:335,2,90,2|0|8,0:0|0:0|0:0,0:0:0:0:
362,303,15771,1,0,0:0:0:0:
297,228,16062,70,0,P|280:142|337:76,2,180,2|8|2,0:0|0:0|0:0,0:0:0:0:
297,228,17518,1,0,0:0:0:0:
199,210,17809,2,0,P|154:211|117:234,1,90,8|0,0:0|0:0,0:0:0:0:
148,92,18392,5,4,0:0:0:0:
148,91,20722,6,0,P|190:76|228:53,1,90,2|0,0:0|0:0,0:0:0:0:
60,44,21305,1,8,0:0:0:0:
60,144,21596,1,0,0:0:0:0:
140,200,21887,2,0,P|186:191|234:171,1,90,2|0,0:0|0:0,0:0:0:0:
60,144,22470,1,8,0:0:0:0:
48,240,22761,1,0,0:0:0:0:
116,312,23052,22,0,P|162:312|213:300,1,90,2|0,0:0|0:0,0:0:0:0:
307,303,23635,2,0,P|351:311|396:311,1,90,8|0,0:0|0:0,0:0:0:0:
372,216,24217,1,2,0:0:0:0:
408,124,24508,2,0,P|448:152|468:192,2,90,0|8|0,0:0|0:0|0:0,0:0:0:0:
316,80,25382,54,0,P|224:80|170:157,1,180,2|8,0:0|0:0,0:0:0:0:
317,179,26256,1,2,0:0:0:0:
316,80,26547,2,0,P|236:125|228:219,1,180,2|8,0:0|0:0,0:0:0:0:
368,164,27421,1,2,0:0:0:0:
316,80,27712,22,0,P|269:159|300:236,1,180,2|8,0:0|0:0,0:0:0:0:
299,235,28441,1,2,0:0:0:0:
299,235,28586,1,8,0:0:0:0:
395,258,28877,1,0,0:0:0:0:
326,329,29169,1,8,0:0:0:0:
140,291,29460,2,0,L|229:309,1,90,0|8,0:0|0:0,0:0:0:0:
42,298,30042,54,0,P|58:235|116:195,1,135,2|0,0:0|0:0,1:0:0:0:
162,184,30625,2,0,L|26:155,1,135,8|2,0:0|0:0,0:0:0:0:
16,107,31208,2,0,L|111:128,1,90,2|0,0:0|0:0,0:0:0:0:
222,24,31790,2,0,P|200:62|200:107,1,90,8|0,0:0|0:0,0:0:0:0:
297,87,32373,21,2,0:0:0:0:
351,277,32955,2,0,B|320:259|320:259|326:203,1,90,8|0,0:0|0:0,1:0:0:0:
421,121,33538,2,0,B|452:139|452:139|446:192,1,90,2|0,0:0|0:0,1:0:0:0:
443,228,33975,1,8,0:0:0:0:
440,263,34120,2,0,L|429:365,1,90,8|0,0:0|0:0,0:0:0:0:
256,192,34703,69,4,0:0:0:0:
136,288,34994,1,0,0:0:0:0:
52,140,35285,2,0,B|31:185|51:222|51:222|36:240,1,107.999996704102,8|0,0:0|0:0,0:0:0:0:
140,180,35868,2,0,B|160:134|140:97|140:97|156:80,1,107.999996704102,8|0,0:0|0:0,0:0:0:0:
154,81,36305,1,0,0:0:0:0:
154,81,36450,1,8,0:0:0:0:
44,32,36741,1,0,0:0:0:0:
272,160,37033,22,0,P|316:188|376:180,1,107.999996704102,8|0,0:0|0:0,0:0:0:0:
408,32,37615,2,0,P|361:56|338:112,1,107.999996704102,8|0,0:0|0:0,0:0:0:0:
452,212,38198,2,0,P|454:159|417:111,1,107.999996704102,8|0,0:0|0:0,0:0:0:0:
384,268,38780,1,8,0:0:0:0:
133,99,39363,54,0,P|165:51|213:31,1,107.999996704102,8|0,0:0|0:0,0:0:0:0:
252,154,39945,2,0,P|223:199|175:221,1,107.999996704102,8|0,0:0|0:0,0:0:0:0:
288,68,40528,2,0,L|376:136,1,107.999996704102,8|0,0:0|0:0,0:0:0:0:
373,134,40965,1,0,0:0:0:0:
373,134,41110,1,8,0:0:0:0:
476,76,41402,1,0,0:0:0:0:
316,216,41693,22,0,P|284:264|284:320,1,107.999996704102,8|0,0:0|0:0,0:0:0:0:
172,268,42275,2,0,P|125:242|71:245,1,107.999996704102,8|0,0:0|0:0,0:0:0:0:
144,152,42858,1,8,0:0:0:0:
256,88,43149,1,0,0:0:0:0:
368,152,43441,1,8,0:0:0:0:
316,192,43586,1,2,0:0:0:0:
256,204,43732,1,2,0:0:0:0:
196,192,43877,1,2,0:0:0:0:
144,152,44023,53,4,0:0:0:0:
256,88,44314,1,0,0:0:0:0:
256,88,44606,2,0,L|256:252,1,161.999995056153,8|0,0:0|0:0,1:0:0:0:
256,272,45188,1,0,0:0:0:0:
160,356,45479,1,0,0:0:0:0:
160,356,45771,2,0,P|132:312|132:248,1,107.999996704102,8|0,0:0|0:0,0:0:0:0:
256,192,46353,21,0,0:0:0:0:
382,257,46644,2,0,P|380:310|352:356,2,107.999996704102,0|8|0,0:0|0:0|0:0,0:0:0:0:
428,136,47518,2,0,B|382:114|335:132|335:132|307:68,1,161.999995056153,0|0,0:0|0:0,1:0:0:0:
280,28,48101,2,0,P|280:83|243:132,1,107.999996704102,8|0,0:0|0:0,0:0:0:0:
132,240,48683,53,4,0:0:0:0:
132,240,48975,2,0,P|80:240|36:276,2,107.999996704102,0|8|0,0:0|0:0|0:0,0:0:0:0:
168,276,49703,2,0,P|142:203|164:124,1,161.999995056153,0|0,0:0|0:0,1:0:0:0:
272,196,50431,2,0,P|332:193|373:161,1,107.999996704102,8|0,0:0|0:0,0:0:0:0:
290,88,51013,21,0,0:0:0:0:
188,125,51305,1,0,0:0:0:0:
155,227,51596,1,8,0:0:0:0:
197,326,51887,1,0,0:0:0:0:
188,125,52178,53,0,0:0:0:0:
80,135,52470,1,0,0:0:0:0:
21,224,52761,1,8,0:0:0:0:
36,331,53052,1,0,0:0:0:0:
256,300,53343,21,4,0:0:0:0:
256,300,53635,2,0,L|256:192,2,107.999996704102,0|8|0,0:0|0:0|0:0,0:0:0:0:
384,192,54508,1,2,0:0:0:0:
192,60,54800,1,8,0:0:0:0:
320,60,55091,1,8,0:0:0:0:
256,192,55674,53,4,0:0:0:0:
336,356,58004,5,0,0:0:0:0:
238,355,58295,1,0,0:0:0:0:
238,355,58586,1,0,0:0:0:0:
348,313,58877,1,0,0:0:0:0:
268,256,59169,1,0,0:0:0:0:
268,256,59460,1,0,0:0:0:0:
378,279,59751,1,0,0:0:0:0:
345,186,60043,1,0,0:0:0:0:
345,186,60334,6,0,B|295:145|175:119|264:-10|342:54|342:54|390:-35|521:52|420:120|389:178,1,540,0|0,0:0|0:0,1:0:0:0:
176,356,62664,37,0,0:0:0:0:
274,355,62955,1,0,0:0:0:0:
274,355,63246,1,0,0:0:0:0:
164,313,63538,1,0,0:0:0:0:
244,256,63828,1,0,0:0:0:0:
244,256,64119,1,0,0:0:0:0:
134,279,64411,1,0,0:0:0:0:
167,186,64703,1,0,0:0:0:0:
167,186,64994,6,0,B|216:145|336:119|247:-10|169:54|169:54|121:-35|-9:52|91:120|122:178,1,540,0|0,0:0|0:0,1:0:0:0:
364,352,67324,5,2,0:0:0:0:
308,272,67615,1,0,0:0:0:0:
212,296,67907,2,0,P|232:340|288:368,1,90,8|0,0:0|0:0,0:0:0:0:
364,352,68489,1,2,0:0:0:0:
308,272,68780,1,0,0:0:0:0:
483,223,69072,2,0,P|443:243|395:247,1,90,8|0,0:0|0:0,0:0:0:0:
436,72,69654,54,0,P|473:96|500:136,1,90,2|0,0:0|0:0,0:0:0:0:
328,184,70237,2,0,P|330:139|351:95,1,90,8|0,0:0|0:0,0:0:0:0:
436,72,70819,1,2,0:0:0:0:
436,72,70965,2,0,L|296:88,1,135,2|8,0:0|0:0,1:0:0:0:
188,164,71693,1,0,0:0:0:0:
72,96,71984,21,2,0:0:0:0:
204,116,72275,1,0,0:0:0:0:
328,208,72567,2,0,P|341:165|352:112,1,90,8|0,0:0|0:0,0:0:0:0:
206,246,73149,2,0,P|236:279|277:315,1,90,2|0,0:0|0:0,0:0:0:0:
233,121,73732,2,0,P|190:131|138:148,1,90,8|0,0:0|0:0,2:0:0:0:
256,192,74314,53,4,0:0:0:0:
256,192,76644,22,0,P|247:240|204:288,2,90,2|2|8,0:0|0:0|0:0,0:0:0:0:
236,96,77518,1,2,0:0:0:0:
325,137,77809,2,0,P|341:183|327:246,2,90,2|2|8,0:0|0:0|0:0,0:0:0:0:
260,64,78683,1,2,0:0:0:0:
360,56,78975,54,0,P|396:87|416:149,2,90,2|2|8,0:0|0:0|0:0,0:0:0:0:
267,25,79848,1,2,0:0:0:0:
204,188,80140,1,2,0:0:0:0:
76,140,80431,1,2,0:0:0:0:
96,272,80722,1,8,0:0:0:0:
144,152,81013,1,2,0:0:0:0:
268,248,81305,22,0,P|344:300|425:273,1,180,2|8,0:0|0:0,0:0:0:0:
356,200,82178,1,2,0:0:0:0:
444,152,82470,2,0,P|368:100|287:127,1,180,2|8,0:0|0:0,0:0:0:0:
204,176,83343,1,2,0:0:0:0:
104,268,83635,53,2,0:0:0:0:
220,336,83926,1,2,0:0:0:0:
344,284,84217,1,8,0:0:0:0:
228,212,84508,1,2,0:0:0:0:
108,148,84800,2,0,P|88:107|88:60,2,90,2|2|8,0:0|0:0|0:0,0:0:0:0:
108,148,85528,1,8,0:0:0:0:
108,148,85674,1,10,0:0:0:0:
184,84,85965,22,0,B|220:56|220:56|256:88|304:80,1,135,2|0,0:0|0:0,1:0:0:0:
348,60,86547,2,0,P|312:116|348:164,1,135,8|0,0:0|0:0,1:0:0:0:
396,180,87130,2,0,L|416:272,1,90,2|0,0:0|0:0,0:0:0:0:
408,368,87712,1,8,0:0:0:0:
328,312,88004,1,2,0:0:0:0:
236,349,88295,54,0,B|211:312|211:312|162:332,1,90,2|0,0:0|0:0,1:0:0:0:
68,332,88877,2,0,L|116:204,1,135,8|0,0:0|0:0,1:0:0:0:
115,205,89460,1,8,0:0:0:0:
115,205,89606,1,8,0:0:0:0:
112,60,89897,1,8,0:0:0:0:
112,60,90042,1,8,0:0:0:0:
240,132,90334,1,8,0:0:0:0:
240,132,90479,1,8,0:0:0:0:
280,152,90625,38,0,L|392:140,1,107.999996704102,4|0,0:0|0:0,0:0:0:0:
488,220,91208,2,0,P|452:256|397:266,1,107.999996704102,8|0,0:0|0:0,0:0:0:0:
376,260,91644,1,0,0:0:0:0:
356,252,91790,2,0,P|304:244|248:268,1,107.999996704102,8|0,0:0|0:0,0:0:0:0:
220,292,92227,1,0,0:0:0:0:
220,292,92373,1,8,0:0:0:0:
100,240,92664,1,0,0:0:0:0:
100,113,92955,54,0,B|45:107|4:152,1,107.999996704102,8|0,0:0|0:0,0:0:0:0:
220,80,93538,2,0,B|175:47|117:65,1,107.999996704102,8|0,0:0|0:0,0:0:0:0:
340,112,94120,2,0,B|317:61|258:48,1,107.999996704102,8|0,0:0|0:0,0:0:0:0:
80,32,94703,1,8,0:0:0:0:
292,180,95285,22,0,B|360:196|360:196|388:204|380:236,1,107.999996704102,8|0,0:0|0:0,0:0:0:0:
268,284,95868,2,0,B|200:268|200:268|172:260|180:228,1,107.999996704102,8|0,0:0|0:0,0:0:0:0:
352,300,96450,2,0,P|405:330|420:372,1,107.999996704102,8|0,0:0|0:0,0:0:0:0:
420,372,96887,1,0,0:0:0:0:
420,372,97033,1,8,0:0:0:0:
488,260,97324,1,0,0:0:0:0:
428,100,97615,54,0,L|392:208,1,107.999996704102,8|0,0:0|0:0,0:0:0:0:
296,120,98198,2,0,L|260:232,1,107.999996704102,8|0,0:0|0:0,0:0:0:0:
263,222,98635,1,0,0:0:0:0:
263,222,98780,1,8,0:0:0:0:
168,132,99072,1,0,0:0:0:0:
52,76,99363,1,8,0:0:0:0:
28,132,99508,1,2,0:0:0:0:
52,188,99654,1,2,0:0:0:0:
28,244,99800,1,2,0:0:0:0:
52,300,99945,21,4,0:0:0:0:
176,348,100237,1,0,0:0:0:0:
276,264,100528,2,0,P|340:224|388:281,1,161.999995056153,8|0,0:0|0:0,1:0:0:0:
396,324,101110,1,0,0:0:0:0:
488,236,101402,1,0,0:0:0:0:
356,132,101693,2,0,P|404:152|468:144,1,107.999996704102,8|0,0:0|0:0,0:0:0:0:
268,48,102275,53,0,0:0:0:0:
268,48,102567,2,0,P|220:28|156:36,2,107.999996704102,0|8|0,0:0|0:0|0:0,0:0:0:0:
192,220,103441,2,0,P|115:232|88:162,1,161.999995056153,0|0,0:0|0:0,1:0:0:0:
92,120,104023,2,0,L|20:204,1,107.999996704102,8|0,0:0|0:0,0:0:0:0:
232,356,104606,21,4,0:0:0:0:
392,264,104897,2,0,P|336:260|284:288,2,107.999996704102,0|8|0,0:0|0:0|0:0,0:0:0:0:
436,292,105625,2,0,B|408:248|428:180|428:180|380:164,1,161.999995056153,0|0,0:0|0:0,1:0:0:0:
312,56,106353,2,0,L|415:90,1,107.999996704102,8|0,0:0|0:0,0:0:0:0:
198,56,106936,53,4,0:0:0:0:
251,149,107227,1,0,0:0:0:0:
143,149,107518,1,8,0:0:0:0:
198,241,107809,1,0,0:0:0:0:
87,56,108101,21,0,0:0:0:0:
33,149,108392,1,0,0:0:0:0:
143,149,108683,1,8,0:0:0:0:
88,241,108975,1,0,0:0:0:0:
256,100,109261,53,4,0:0:0:0:
256,100,109564,1,0,0:0:0:0:
256,283,109867,1,8,0:0:0:0:
347,192,110170,1,0,0:0:0:0:
164,192,110473,21,2,0:0:0:0:
100,192,110776,1,2,0:0:0:0:
45,192,111120,1,2,0:0:0:0:
8,192,111472,1,2,0:0:0:0:
256,192,111933,1,4,0:0:0:0:
256,192,112164,12,0,116087,0:0:0:0:
