osu file format v7

[General]
AudioFilename: SMRPG-Forest Maze.mp3
AudioLeadIn: 0
PreviewTime: -1
Countdown: 0
SampleSet: Normal
StackLeniency: 0.7
Mode: 0
LetterboxInBreaks: 1

[Editor]
Bookmarks: 13017
DistanceSpacing: 0.800000011920929
BeatDivisor: 4
GridSize: 8

[Metadata]
Title:Forest Maze Song Rawest
Artist:Chris Nios
Creator:whdenska
Version:Star Pieces
Source:
Tags:

[Difficulty]
HPDrainRate:6
CircleSize:6
OverallDifficulty:6
SliderMultiplier:1.1
SliderTickRate:2

[Events]
//Background and Video events
0,0,"RPG.jpg"
Video,0,"Forest Maze.avi"
//Break Periods
2,25700,36450
2,49699,54450
2,61699,66450
2,85700,85762
2,91700,102450
2,104825,106575
2,115700,126450
2,139700,144450
2,152074,155700
//Storyboard Layer 0 (Background)
//Storyboard Layer 1 (Fail)
//Storyboard Layer 2 (Pass)
//Storyboard Layer 3 (Foreground)
//Storyboard Sound Samples
//Background Colour Transformations
3,100,163,162,255

[TimingPoints]
0,375,4,1,0,100,1,0
79672,-100,4,2,0,100,0,1
83647,-100,4,1,0,100,0,0
152145,-100,4,1,0,0,0,0

[Colours]
Combo1 : 255,128,255
Combo2 : 255,0,0
Combo3 : 242,242,242
Combo4 : 0,128,255
Combo5 : 191,191,0

[HitObjects]
128,112,13500,1,2
88,176,13687,1,2
160,176,13875,1,2
128,232,14062,1,2
176,280,14250,1,2
256,280,14437,1,0
216,232,14625,1,4
224,184,14812,1,2
272,184,15000,1,4
304,144,15187,1,4
320,216,15375,1,4
344,176,15562,1,4
392,176,15750,2,2,B|392:232,2,55
432,112,16500,6,2,B|320:112,1,110
296,112,17062,1,4
288,160,17250,2,2,B|320:216|320:216|344:160,1,110
360,152,17812,1,4
400,176,18000,2,2,B|464:224,4,55
376,224,18937,2,0,B|352:240|288:232|248:224|248:224,1,110
392,128,19500,5,0
392,128,19687,1,0
392,128,19875,1,8
368,200,20062,1,2
432,240,20250,2,4,B|464:304|464:304|368:344,1,165
296,312,21000,1,2
320,224,21187,1,2
320,224,21281,1,2
320,224,21375,1,2
248,256,21562,1,4
184,272,21750,2,2,B|128:296|128:296|120:240,1,110
360,144,22500,6,2,B|288:136,1,55
264,128,22875,1,4
216,152,23062,1,4
192,192,23250,2,2,B|248:208,1,55
288,192,23625,1,0
328,208,23812,1,0
256,280,24000,2,0,B|184:280,1,55
256,280,24375,2,2,B|256:352,1,55
256,280,24750,2,2,B|328:280,3,55
256,280,25500,1,4
72,72,37500,6,2,B|72:200,1,110
104,224,38062,1,4
144,256,38250,2,2,B|224:336,1,110
272,320,38812,1,4
320,296,39000,2,2,B|280:176,1,110
296,152,39562,1,4
344,176,39687,2,2,B|384:232,3,55
440,240,40500,6,0,B|448:232|440:176|424:144|440:120|440:120,1,110
416,80,41062,1,2
336,80,41250,1,2
240,112,41437,1,2
240,112,41531,1,2
240,112,41625,1,2
184,184,41812,1,4
120,128,42000,1,2
64,168,42187,1,2
64,168,42281,1,2
64,168,42375,1,2
80,240,42562,1,0
96,312,42750,2,4,B|112:304|184:312|192:344|232:352|264:328|272:312,1,165
328,304,43500,5,0
384,312,43687,1,0
392,256,43875,1,0
344,248,44062,1,0
272,240,44250,1,2
272,240,44343,1,0
272,240,44437,1,0
272,240,44531,1,0
224,224,44625,2,2,B|176:208,2,27.5
272,184,45000,1,2
272,240,45187,1,2
272,240,45281,1,2
272,240,45375,1,2
272,288,45562,1,0
272,288,45656,1,0
272,288,45750,1,0
224,288,45937,2,2,B|144:288,2,55
88,304,46500,6,0,B|168:304,1,55
192,304,46875,1,2
256,304,47062,1,2
256,248,47250,1,0
256,248,47343,1,0
256,248,47437,1,0
312,240,47625,2,0,B|328:184,1,55
344,128,48000,1,2
304,40,48187,1,2
264,144,48375,1,2
232,80,48562,1,2
176,104,48750,2,4,B|136:120|96:184|96:216|104:264|128:280|152:288,1,220
440,56,55500,5,2
360,56,55687,1,2
360,56,55781,1,2
360,56,55875,1,2
352,120,56062,1,0
408,120,56250,1,2
464,120,56437,1,2
464,120,56531,1,2
464,120,56625,1,2
440,184,56812,1,0
376,184,57000,2,4,B|304:184,2,55
432,232,57562,1,2
376,240,57750,1,2
376,312,57937,1,2
312,312,58125,1,2
312,240,58312,1,2
248,240,58500,1,2
208,184,58687,5,2
208,184,58781,1,2
208,184,58875,1,2
256,112,59062,1,0
320,160,59250,1,0
400,208,59437,1,0
400,208,59531,1,0
400,208,59625,1,0
408,112,59812,1,0
360,64,60000,2,4,B|248:24|256:24|240:24,4,110
360,128,67500,6,2,B|320:120|304:136,1,55
336,176,67875,1,4
336,176,68062,1,4
368,208,68250,2,2,B|352:224|312:216,1,55
272,200,68531,2,0,B|200:208,1,55
192,224,68812,1,2
192,152,69187,1,2
216,120,69281,1,2
256,128,69375,1,2
312,96,69562,1,4
272,48,69750,6,2,B|200:48,1,55
168,72,70031,1,2
112,144,70218,1,2
112,144,70312,1,2
112,144,70406,1,2
112,144,70500,1,4
208,192,70687,5,2
248,256,70875,1,0
288,192,71062,1,0
248,136,71250,2,4,B|256:96|240:64|224:32|248:24,2,110
336,128,72187,1,0
384,160,72375,1,0
320,192,72562,1,0
368,224,72750,1,2
416,280,73125,1,4
352,296,73312,1,4
288,272,73500,1,4
232,232,73875,2,2,B|216:280|128:272|120:272,2,110
64,192,74812,5,4
88,168,74906,1,2
112,144,75000,1,2
136,168,75093,1,2
160,200,75187,1,2
184,184,75281,1,2
208,168,75375,1,2
224,192,75468,1,2
232,216,75562,1,2
232,240,75656,1,2
264,232,75750,1,6
264,192,75937,6,2,B|288:136|272:104,1,82.5
328,136,76500,6,4,B|320:208,1,55
344,280,76875,2,4,B|398:281,2,27.5
344,280,77156,2,0,B|296:280,2,27.5
344,280,77437,2,2,B|376:232,1,55
374,234,77718,2,2,B|336:192,1,55
337,193,78000,2,4,B|288:232,1,55
294,227,78281,2,2,B|240:232,3,27.5
216,216,78750,1,2
216,216,78937,1,2
216,216,79031,2,6,B|224:192|296:176,1,82.5
376,168,79500,5,4
336,208,79593,1,2
296,240,79687,1,2
256,280,79781,1,2
208,256,79875,1,4
192,208,80062,1,2
240,120,80250,2,2,B|312:128,1,55
294,126,80531,2,4,B|224:120,1,55
240,120,80906,1,6
192,128,80999,1,2
160,136,81093,1,2
136,160,81187,1,2
168,208,81375,1,4
168,208,81562,1,4
200,264,81750,2,2,B|232:336,3,55
448,88,82593,5,2
328,136,82781,1,2
328,160,82875,1,2
432,168,83062,1,0
432,192,83156,1,0
416,240,83250,2,4,B|320:320,1,110
400,120,84000,5,4
352,120,84093,5,2
352,136,84187,1,2
328,192,84375,1,2
272,248,84562,1,2
200,232,84750,1,2
144,208,84937,1,2
128,152,85125,1,2
160,104,85312,1,2
192,80,85406,1,2
192,80,85500,1,4
408,96,86812,5,2
408,96,86906,1,2
408,96,87000,1,2
408,96,87093,1,2
408,96,87187,1,2
408,96,87281,1,2
408,96,87375,1,2
408,96,87468,1,2
408,96,87562,1,2
408,96,87656,1,0
408,96,87749,1,0
408,96,87843,1,0
408,96,87937,1,0
408,96,88031,1,0
408,96,88124,1,0
352,168,88312,5,2
288,176,88500,2,4,B|200:176,2,82.5
288,176,89250,2,0,B|384:176,2,82.5
224,248,90000,2,2,B|352:248,1,110
334,248,90562,1,2
334,248,90656,1,2
334,248,90750,2,2,B|208:248,1,110
224,248,91312,1,2
224,248,91406,1,2
224,248,91500,1,4
328,88,103500,5,2
232,88,103687,1,2
280,144,103875,1,2
320,200,104062,1,2
232,200,104250,1,2
176,248,104437,1,2
176,248,104531,1,2
176,248,104625,1,4
352,144,107625,5,2
288,136,107812,1,2
224,144,108000,1,2
288,192,108187,1,2
288,192,108281,1,2
288,192,108375,1,2
288,240,108562,2,0,B|288:304,4,55
400,168,109500,6,2,B|400:296,1,110
400,278,110062,2,2,B|400:160,1,110
400,168,110625,1,4
304,168,110812,1,4
208,160,111000,2,2,B|208:288,1,110
144,280,111562,1,4
144,224,111750,1,4
144,160,111937,2,2,B|208:128,2,55
144,160,112500,1,8
96,200,112687,1,8
128,256,112875,1,8
200,296,113062,1,2
224,272,113156,1,2
256,288,113250,1,4
336,256,113437,5,2
400,256,113625,1,2
368,208,113812,1,2
368,120,114000,1,0
368,120,114093,1,0
368,120,114187,1,0
368,120,114281,1,0
368,120,114375,1,0
368,120,114468,1,0
368,120,114562,1,0
368,120,114656,1,0
368,120,114750,1,0
368,120,114843,1,0
368,120,114937,1,0
368,120,115031,1,0
368,120,115125,1,0
368,120,115218,1,0
368,120,115312,1,0
368,120,115406,1,0
368,120,115500,1,4
256,64,127500,6,2,B|176:64,1,55
152,64,127875,1,0
144,120,128062,1,0
200,120,128250,2,4,B|336:120,1,110
376,112,129000,1,4
376,192,129375,1,4
376,256,129750,2,2,B|352:304|296:328|240:320|224:272|224:280,1,165
240,232,130500,5,0
256,144,130687,1,2
256,144,130781,1,2
256,144,130875,1,2
312,176,131062,1,4
376,192,131250,2,2,B|448:192,1,55
416,240,131625,2,2,B|352:240,1,55
368,288,132000,2,2,B|432:288,2,55
312,288,132562,1,4
256,288,132750,2,2,B|216:224|216:224|168:304|168:304,1,165
56,336,133500,5,2
56,232,133687,1,2
56,232,133781,1,2
56,232,133875,1,2
136,176,134062,1,0
256,104,134250,1,4
256,192,134625,1,2
256,256,134812,1,2
256,320,135000,2,4,B|288:320|320:304|336:272|336:248|336:208|336:176,1,165
328,144,135750,2,4,B|328:88|312:40|288:32|280:32|280:32,1,110
256,88,136500,6,2,B|224:144,1,55
280,144,136875,2,0,B|304:208,1,55
256,192,137250,2,2,B|240:256,1,55
296,248,137625,2,4,B|336:296,1,55
368,192,138000,1,0
360,152,138187,1,0
320,128,138375,1,0
272,128,138562,1,0
232,144,138750,1,0
184,104,138937,1,0
184,104,139031,1,0
184,104,139125,1,0
184,104,139218,1,0
184,104,139312,1,0
184,104,139406,1,0
184,104,139500,1,4
256,48,145500,5,2
192,40,145687,1,2
160,40,145781,1,2
176,64,145875,1,2
144,104,146062,1,4
208,120,146250,1,2
264,184,146437,1,2
240,168,146531,1,2
232,200,146625,1,2
176,200,146812,1,4
224,264,147000,1,2
288,296,147187,1,2
280,256,147281,1,2
312,272,147375,1,2
368,280,147562,1,4
376,336,147750,1,2
432,336,147937,1,2
448,288,148125,1,2
400,240,148312,1,2
376,48,148500,5,2
376,104,148687,1,2
408,136,148781,1,2
384,168,148875,1,2
328,264,149062,1,4
200,320,149250,5,2
120,256,149437,1,2
80,232,149531,1,2
72,192,149625,1,2
96,104,149812,1,4
288,48,150000,5,2
320,128,150187,2,2,B|320:208,1,55
336,232,150562,1,4
288,264,150750,1,4
240,232,150937,1,4
184,264,151125,1,4
136,232,151312,1,4
184,192,151500,2,2,B|200:184|240:176|264:184|288:192|304:208,1,110
256,128,156750,5,2
216,264,156937,1,2
320,192,157125,1,2
200,192,157312,1,2
304,264,157500,1,4
