osu file format v7

[General]
AudioFilename: crossing.mp3
AudioLeadIn: 0
PreviewTime: 61520
Countdown: 0
SampleSet: Soft
StackLeniency: 0.5
Mode: 0
LetterboxInBreaks: 1

[Editor]
DistanceSpacing: 1
BeatDivisor: 4
GridSize: 8

[Metadata]
Title:See You at the Next Crossing
Artist:Chris Lee
Creator:Weiren
Version:Nightmare
Source:
Tags:ChrisLee LiYuchun Xia ge lu kou jian

[Difficulty]
HPDrainRate:7
CircleSize:5
OverallDifficulty:7
SliderMultiplier:2.2
SliderTickRate:2

[Events]
//Background and Video events
Video,-3525,"crossing.avi"
0,0,"Lee.jpg"
//Break Periods
2,81478,90174
2,120662,129357
//Storyboard Layer 0 (Background)
//Storyboard Layer 1 (Fail)
//Storyboard Layer 2 (Pass)
//Storyboard Layer 3 (Foreground)
//Storyboard Sound Samples
//Background Colour Transformations
3,100,243,228,160

[TimingPoints]
462,612.244897959184,4,2,2,40,1,0
39645,-100,4,2,2,40,0,0
41788,-100,4,2,2,40,0,0
59696,-100,4,2,2,40,0,0
61686,-100,4,2,2,40,0,1
78523,-100,4,2,2,40,0,0
100870,-100,4,2,2,20,0,0
110666,-100,4,2,2,40,0,0
138064,-100,4,2,2,40,0,0
140053,-100,4,1,2,25,0,1
141278,-100,4,2,2,40,0,1
141890,-100,4,1,2,25,0,1
143727,-100,4,2,2,40,0,1
144339,-100,4,1,2,25,0,1
150921,-100,4,2,2,40,0,1
151839,-100,4,1,2,25,0,1
153370,-100,4,2,2,40,0,1
154288,-100,4,1,2,25,0,1
156890,-100,4,2,2,40,0,0
159645,-100,4,1,2,40,0,1
160870,-100,4,2,2,70,0,1
161941,-100,4,1,2,40,0,1
163319,-100,4,2,2,70,0,1
164390,-100,4,1,2,40,0,1
170666,-100,4,2,2,70,0,1
171737,-100,4,1,2,40,0,1
173115,-100,4,2,2,70,0,1
173880,-100,4,1,2,40,0,1
176482,-100,4,1,2,40,0,0
176788,-100,4,2,2,45,0,0
178013,-100,4,2,2,0,0,0

[Colours]
Combo1 : 241,180,88
Combo2 : 242,117,220
Combo3 : 117,146,221
Combo4 : 205,205,205

[HitObjects]
40,64,22655,2,0,B|96:64,1,55
152,64,22962,1,0
208,64,23115,2,0,B|264:64,1,55,8|0
320,64,23421,1,0
320,64,23727,1,2
320,176,24033,1,0
400,104,24339,1,8
400,216,24645,1,0
400,216,24798,1,0
344,224,24951,6,0,B|280:264|200:224,1,110,0|0
280,136,25564,1,8
184,184,25870,1,0
280,136,26176,2,0,B|216:96|136:136,1,110,0|0
216,224,26788,1,8
128,160,27094,1,0
120,272,27400,1,2
80,232,27553,6,0,B|120:272,1,55
72,296,27859,1,0
112,328,28013,1,8
200,264,28319,1,0
112,328,28625,2,0,B|168:328,1,55
224,328,28931,1,0
336,328,29237,1,8
224,328,29543,1,0
272,296,29696,1,0
320,264,29849,5,4
288,216,30002,1,0
264,168,30155,1,0
208,168,30308,1,0
152,168,30462,1,8
96,264,30768,1,0
208,264,31074,5,2
152,168,31380,1,0
208,168,31533,1,0
264,168,31686,1,8
288,216,31839,1,0
320,264,31992,1,0
352,216,32145,1,0
376,168,32298,1,0
376,168,32451,6,0,B|426:164|428:103,1,55,0|0
371,115,32757,1,0
320,88,32910,1,8
264,88,33064,1,2
208,88,33217,1,2
152,88,33370,1,2
96,88,33523,1,2
96,144,33676,5,0
40,144,33829,1,0
40,88,33982,2,0,B|40:-8,1,55,0|8
40,33,34288,1,2
94,32,34441,1,2
96,88,34594,1,2
96,88,34747,6,0,B|196:65|232:164,1,165,2|0
228,155,35359,1,8
288,248,35666,1,0
176,248,35972,1,4
328,88,36584,1,8
120,168,37196,6,0,B|256:69,1,165
253,72,37808,1,8
253,72,38115,2,0,B|363:-3|472:99,2,220
256,192,39645,12,8,41482
24,96,42094,5,0
80,96,42247,6,0,B|144:96,1,55
135,41,42553,1,0
135,95,42706,2,0,B|250:95,1,110,8|0
304,96,43166,1,0
304,96,43319,2,0,B|304:211,1,110
208,152,43931,1,8
96,152,44237,2,0,B|168:152,1,55
96,152,44543,5,4
176,232,44849,1,0
256,304,45155,1,8
336,232,45461,1,0
336,120,45768,5,0
336,120,46074,1,0
224,120,46380,1,8
224,232,46686,1,0
336,232,46992,1,4
304,184,47145,5,0
272,136,47298,1,0
240,88,47451,1,0
208,40,47604,2,0,B|96:40,1,110,8|0
98,40,48064,1,0
98,40,48217,1,0
48,136,48523,1,0
96,232,48829,1,8
48,136,49135,2,0,B|104:176|189:112|272:165,1,220
304,256,50053,5,8
344,296,50206,1,0
384,256,50359,1,0
344,152,50666,1,2
232,152,50972,1,0
200,200,51125,1,0
232,248,51278,1,8
288,248,51431,1,0
256,200,51584,1,0
312,200,51737,1,0
312,88,52043,5,0
259,105,52196,1,0
232,152,52349,2,0,B|288:152,1,55,0|8
344,152,52655,2,0,B|392:200,1,55
440,192,52961,2,0,B|392:240,1,55
384,280,53268,6,0,B|328:280,1,55
272,280,53574,1,0
216,280,53727,1,8
160,280,53880,2,0,B|160:208,1,55
160,280,54186,1,0
104,280,54339,5,2
160,120,54798,1,2
328,120,55257,1,2
328,120,55564,1,0
112,120,56176,1,8
328,168,56788,6,0,B|104:168,1,220,0|8
200,224,57706,2,0,B|464:224,1,220
328,280,58625,1,8
328,280,58931,2,0,B|208:280,1,110
328,280,59543,1,0
256,192,59849,12,0,61380
256,192,61686,5,0
368,192,61992,2,0,B|480:192,2,110,0|8|0
256,192,62910,2,0,B|336:192,1,55,2|2
200,192,63370,1,2
200,248,63523,1,8
200,136,63829,1,0
152,104,63982,1,0
112,144,64135,5,0
8,104,64441,1,0
112,64,64747,1,8
224,64,65053,1,0
336,64,65359,2,0,B|264:64,1,55,2|2
392,64,65819,1,2
448,64,65972,1,8
336,64,66278,1,0
360,112,66431,1,0
416,96,66584,6,0,B|424:176|320:176,2,110,0|0|8
304,112,67502,1,0
304,224,67808,1,4
456,168,68268,2,0,B|288:168,1,165
291,168,69033,1,0
192,120,69339,2,0,B|150:166|198:226,1,110,0|8
291,169,69951,2,0,B|347:193|443:137|515:185,1,220,2|2
416,240,70870,1,8
372,273,71023,1,0
319,284,71176,1,0
265,273,71329,1,0
226,233,71482,6,0,B|114:233,3,110,0|0|8|0
226,233,72706,1,2
280,232,72859,1,2
240,128,73166,1,2
288,152,73319,2,0,B|293:83|219:76,1,110,8|0
120,80,73931,5,0
96,184,74237,1,0
192,136,74543,1,8
80,152,74849,1,0
176,200,75155,1,2
224,176,75308,1,2
160,264,75615,1,2
208,240,75768,1,4
208,240,76074,1,0
320,240,76380,5,0
248,160,76686,1,0
360,160,76992,1,8
288,240,77298,1,0
304,128,77604,1,4
304,128,78064,1,0
304,128,78523,1,0
265,25,78829,5,0
367,64,79135,1,0
312,63,79288,1,0
339,110,79441,1,8
229,112,79747,6,0,B|167:74,1,55
176,136,80053,2,0,B|104:134,1,55
148,184,80359,2,0,B|85:218,1,55
150,232,80666,2,0,B|112:293,1,55,8|0
96,328,80972,1,0
152,328,81125,1,0
208,328,81278,1,4
256,48,91074,5,0
344,112,91380,1,0
416,192,91686,1,8
344,272,91992,1,0
256,344,92298,1,2
256,344,92451,1,2
168,272,92757,1,0
168,272,92910,1,8
88,192,93217,1,0
168,112,93523,5,0
256,48,93829,1,0
344,112,94135,1,8
256,184,94441,1,0
168,112,94747,1,2
168,112,94900,1,0
256,48,95206,1,0
256,48,95359,1,8
256,160,95666,1,0
256,160,95972,6,0,B|256:325,2,165
259,50,97196,1,0
204,50,97349,1,0
231,97,97502,1,0
176,96,97655,1,0
205,142,97808,5,4
149,46,98115,1,0
88,136,98421,1,0
144,232,98727,1,0
32,232,99033,2,0,B|104:232,1,55,8|0
115,187,99339,2,0,B|153:247,1,55
115,280,99645,1,4
216,232,99951,2,0,B|272:232,1,55
328,232,100257,2,0,B|400:232,1,55,8|0
440,232,100564,2,0,B|528:232,1,55
496,176,100870,5,4
496,176,101023,2,0,B|408:176,3,55,0|0|0|2
472,280,101788,1,0
376,232,102094,2,0,B|454:215|416:128,1,110
320,176,102706,1,2
208,176,103013,1,0
264,176,103166,1,0
256,192,103319,12,0,105462
112,192,105768,5,0
168,192,105921,2,0,B|232:192,1,55
280,192,106227,2,0,B|344:192,1,55,0|2
448,192,106686,1,0
336,192,106992,1,0
368,88,107298,1,0
256,88,107604,1,2
144,88,107910,1,2
88,88,108064,1,2
88,88,108217,6,0,B|32:32,2,55
120,136,108676,1,0
120,192,108829,1,0
160,232,108982,1,0
216,232,109135,1,0
328,232,109441,1,2
328,232,109747,6,0,B|376:184,1,55
366,193,110053,2,0,B|406:153,1,55
440,112,110359,1,0
392,88,110513,1,0
336,104,110666,5,2
280,104,110819,2,0,B|216:104,1,55
168,104,111125,2,0,B|104:104,1,55,0|8
48,192,111584,1,2
112,280,111890,5,0
168,280,112043,2,0,B|232:280,1,55
280,280,112349,2,0,B|344:280,1,55,0|8
256,208,112808,1,2
328,128,113115,6,0,B|246:69|173:133,1,165
136,168,113727,1,8
200,256,114033,2,0,B|265:296|335:238,1,110
256,40,114951,1,8
176,248,115564,6,0,B|264:200|360:264,2,165
360,128,117094,1,0
144,128,117706,1,0
192,232,118013,5,0
304,232,118319,1,0
304,176,118472,1,0
304,120,118625,1,8
392,192,118931,1,0
488,248,119237,1,0
376,248,119543,1,0
432,248,119696,1,0
432,304,119849,1,8
432,192,120155,1,0
488,192,120308,1,0
488,136,120462,1,0
176,256,130257,5,2
176,200,130410,1,0
176,144,130564,1,0
176,88,130717,2,0,B|240:88,1,55,0|8
256,192,131176,1,0
336,112,131482,5,2
336,168,131635,1,0
336,224,131788,1,0
336,280,131941,2,0,B|272:280,1,55,0|8
168,280,132400,1,0
280,280,132706,5,2
224,128,133166,1,2
56,128,133625,1,2
136,48,133931,2,0,B|46:150|159:270,1,220,0|8
360,248,135155,6,0,B|452:151|363:48,1,220,0|8
304,144,136074,1,2
200,176,136380,2,0,B|203:238|297:252,1,110,0|0
304,144,136992,1,8
416,160,137298,2,0,B|372:231|295:194,1,110,0|2
232,144,137910,1,0
256,192,138217,12,0,139747
208,96,140053,5,0
288,168,140359,1,0
208,248,140666,1,8
288,320,140972,1,0
288,208,141278,2,2,B|280:248|320:256|320:264,1,55
280,152,141737,2,0,B|318:149|343:177,1,55,2|8
368,272,142196,1,0
264,240,142502,5,0
360,192,142808,1,0
304,288,143115,1,8
312,176,143421,1,0
312,64,143727,2,2,B|280:48|243:62,1,55
152,96,144186,2,0,B|176:128|240:104,1,55,2|8
152,200,144645,1,0
72,128,144951,5,0
72,128,145257,2,0,B|72:198,1,55,0|8
72,240,145564,1,0
24,336,145870,1,0
136,336,146176,1,0
72,184,146635,2,0,B|152:160|240:192,1,165
216,296,147400,1,0
320,272,147706,1,0
320,160,148013,1,8
216,120,148319,1,0
104,120,148625,1,0
216,120,148931,1,0
320,160,149237,5,8
288,208,149390,1,0
400,208,149696,1,0
344,208,149849,6,0,B|344:320|344:320,3,110,0|0|8|0
344,208,151074,1,2
344,152,151227,1,2
344,40,151533,1,2
288,40,151686,1,2
288,152,151992,1,8
232,152,152145,1,8
176,152,152298,6,0,B|176:40,3,110,0|0|8|0
64,40,153523,1,2
120,40,153676,1,2
232,40,153982,1,2
176,40,154135,1,2
144,144,154441,1,8
144,88,154594,1,8
192,114,154747,5,0
184,224,155053,1,0
256,304,155359,1,8
256,192,155666,1,0
368,192,155972,1,4
256,72,156431,1,4
144,192,156890,1,4
256,192,157196,12,8,159033
368,248,159645,6,0,B|288:248,3,55,0|0|8|0
256,248,160257,2,0,B|176:248,3,55,0|0|8|0
144,248,160870,1,2
144,192,161023,2,0,B|144:104,1,55,2|0
144,137,161329,1,2
200,136,161482,1,8
200,248,161788,1,0
200,136,162094,6,0,B|312:136,1,110,0|0
200,136,162706,1,8
96,96,163013,1,0
200,48,163319,1,2
152,72,163472,1,2
200,48,163625,1,0
248,24,163778,1,2
304,24,163931,1,8
416,24,164237,1,0
488,104,164543,6,0,B|424:40,1,55
449,65,164849,1,0
472,176,165155,2,0,B|544:248,1,55,8|0
511,215,165461,1,0
400,208,165768,1,4
400,208,166227,2,0,B|304:209|262:113,1,165
160,128,166992,5,0
64,192,167298,1,0
64,304,167604,1,8
160,248,167910,1,0
256,192,168217,1,0
256,304,168523,1,0
160,360,168829,1,8
216,360,168982,1,0
272,360,169135,1,0
328,360,169288,1,0
384,360,169441,5,0
440,360,169594,1,0
440,304,169747,1,0
440,248,169900,1,0
384,248,170053,1,8
384,304,170206,1,0
328,304,170359,1,0
328,248,170513,1,0
328,192,170666,1,2
384,192,170819,2,0,B|472:192,1,55,2|0
440,136,171125,1,2
496,136,171278,1,8
440,40,171584,1,0
384,136,171890,5,0
328,136,172043,1,0
328,80,172196,1,0
384,80,172349,1,0
384,136,172502,1,8
384,192,172655,1,0
328,192,172808,1,0
272,192,172961,1,0
216,192,173115,1,2
216,136,173268,2,0,B|216:64,1,55,2|0
272,80,173574,1,2
216,80,173727,1,8
104,80,174033,5,0
160,80,174186,1,0
136,128,174339,1,0
136,240,174645,1,0
248,240,174951,1,8
248,128,175257,1,0
344,184,175564,2,0,B|168:184|168:184,1,165
128,184,176176,1,0
128,184,176482,1,0
240,184,176788,5,0
256,136,176941,2,0,B|304:176,1,55
352,184,177247,2,0,B|296:232,1,55,0|8
304,272,177553,2,0,B|264:224,1,55
269,229,177859,1,0
256,192,178013,12,4,179237
