osu file format v7

[General]
AudioFilename: crossing.mp3
AudioLeadIn: 0
PreviewTime: 61520
Countdown: 0
SampleSet: Soft
StackLeniency: 0.5
Mode: 0
LetterboxInBreaks: 1

[Editor]
DistanceSpacing: 0.800000011920929
BeatDivisor: 4
GridSize: 8

[Metadata]
Title:See You at the Next Crossing
Artist:Chris Lee
Creator:Weiren
Version:Beginner
Source:
Tags:ChrisLee LiYuchun Xia ge lu kou jian

[Difficulty]
HPDrainRate:2
CircleSize:3
OverallDifficulty:2
SliderMultiplier:1
SliderTickRate:1

[Events]
//Background and Video events
Video,-3525,"crossing.avi"
0,0,"Lee.jpg"
//Break Periods
2,81478,89514
2,120662,128697
//Storyboard Layer 0 (Background)
//Storyboard Layer 1 (Fail)
//Storyboard Layer 2 (Pass)
//Storyboard Layer 3 (Foreground)
//Storyboard Sound Samples
//Background Colour Transformations
3,100,243,228,160

[TimingPoints]
462,612.244897959184,4,2,1,40,1,0
23421,-100,4,2,2,40,0,0
24033,-100,4,2,1,40,0,0
28319,-100,4,2,2,40,0,0
28931,-100,4,2,1,40,0,0
34747,-100,4,2,1,20,0,0
36584,-100,4,2,1,40,0,0
52808,-100,4,2,2,40,0,0
53421,-100,4,2,1,40,0,0
57706,-100,4,2,2,40,0,0
58319,-100,4,2,1,40,0,0
61686,-100,4,1,1,25,0,1
62604,-100,4,2,1,40,0,1
63217,-100,4,1,1,25,0,1
65053,-100,4,2,1,40,0,1
65666,-100,4,1,1,25,0,1
69951,-100,4,2,1,40,0,1
71176,-100,4,1,1,25,0,1
72400,-100,4,1,2,25,0,1
73013,-100,4,1,1,25,0,1
74849,-100,4,1,2,25,0,1
75462,-100,4,1,1,25,0,1
78217,-100,4,2,1,40,0,1
78523,-100,4,2,1,40,0,0
95972,-100,4,2,1,20,0,0
98421,-100,4,2,1,40,0,0
100870,-100,4,2,2,20,0,0
110666,-100,4,2,2,40,0,0
140053,-100,4,1,1,25,0,1
140972,-100,4,2,1,40,0,1
142196,-100,4,1,1,25,0,1
143421,-100,4,1,2,25,0,1
144033,-100,4,1,1,25,0,1
148319,-100,4,2,1,40,0,1
149543,-100,4,1,1,25,0,1
150768,-100,4,2,1,40,0,1
151992,-100,4,1,1,25,0,1
153217,-100,4,2,1,40,0,1
154441,-100,4,1,1,25,0,1
157196,-100,4,2,1,40,0,0
159658,-100,4,1,1,25,0,1
160564,-100,4,2,1,40,0,1
161788,-100,4,1,1,25,0,1
163013,-100,4,2,1,40,0,1
164237,-100,4,1,1,25,0,1
166686,-100,4,2,1,60,0,1
169135,-100,4,1,1,35,0,1
170359,-100,4,2,1,60,0,1
171584,-100,4,1,1,35,0,1
172808,-100,4,2,1,60,0,1
174033,-100,4,1,1,35,0,1
176482,-100,4,1,1,35,0,0
176788,-100,4,2,1,0,0,0

[Colours]
Combo1 : 241,180,88
Combo2 : 242,117,220
Combo3 : 117,146,221
Combo4 : 132,132,132

[HitObjects]
192,24,22502,6,0,B|-14:160|192:357,1,400,0|0
268,354,25564,1,8
267,274,26176,1,0
268,353,26788,1,8
347,348,27400,6,0,B|536:161|338:4,1,400,0|0
280,56,30461,1,8
352,91,31074,1,0
392,160,31686,1,8
392,160,32298,6,0,C|343:160|280:144,1,100,0|8
256,72,33523,2,0,C|207:72|144:88,1,100,0|8
256,192,34747,12,8,36584
208,120,37196,6,0,B|261:96|312:128,2,100,0|8|0
128,120,39033,1,8
48,120,39645,5,0
86,190,40257,1,8
130,256,40870,1,0
172,188,41482,1,8
217,253,42094,1,0
296,257,42706,6,8,B|344:230|395:259,1,100,8|0
344,321,43931,2,0,B|391:348|453:321,2,100,8|0|8
395,259,45768,2,0,B|347:231|299:258,1,100,0|8
348,320,46992,6,0,B|300:352|247:316,2,100,0|8|0
414,275,48829,1,8
454,206,49441,1,0
417,134,50053,1,8
342,105,50666,1,0
342,105,51278,1,8
369,179,51890,6,0,B|249:261|185:133|59:180,1,300,0|8
80,173,54339,6,0,B|33:194|34:261,3,100,0|8|0|8
113,262,56788,6,0,B|133:326|193:377|325:389|385:273|337:158,1,400,0|0
294,111,59849,6,0,B|206:55,2,100,8|0|8
364,149,61686,5,0
439,175,62298,1,8
459,252,62910,1,2
429,326,63523,1,8
349,338,64135,5,0
272,315,64747,1,8
196,340,65359,1,2
196,340,65972,1,8
196,340,66584,6,0,B|204:284|252:260,1,100,0|8
318,303,67808,2,8,B|346:225|305:160|248:135,1,200,0|0
173,110,69645,1,8
94,126,70257,1,2
57,197,70870,1,2
87,271,71482,6,0,C|104:315|122:269|140:315|157:267|173:314|192:271,1,300,0|8
238,192,73931,6,0,C|220:147|202:193|184:147|167:195|151:148|132:191,1,300,0|8
53,177,76380,6,0,B|37:230|85:265,3,100,0|8|0|8
145,316,78829,5,0
223,331,79441,1,8
302,325,80053,1,0
222,331,80666,1,8
144,311,81278,1,4
256,192,91074,5,2
224,264,91686,1,8
144,272,92298,1,2
80,224,92910,1,8
48,152,93523,2,0,B|16:104|56:48,2,100,0|8|2
114,107,95359,1,8
256,192,95972,12,0,98421
256,192,99033,5,8
296,256,99645,1,0
216,256,100257,1,8
256,320,100870,6,0,B|216:216|72:216|64:48,1,300,0|2
144,56,103319,1,4
224,40,103931,1,0
280,96,104543,1,2
336,40,105155,1,0
392,96,105768,6,0,B|352:200|208:200|200:368,1,300,0|2
288,320,108217,1,0
288,240,108829,1,4
358,278,109441,1,0
358,198,110053,1,4
426,240,110666,5,0
427,160,111278,1,8
357,199,111890,1,0
288,240,112502,1,8
210,217,113115,6,0,B|170:169|226:89,2,100,0|8|0
274,169,114951,1,8
327,228,115564,6,0,B|362:274|327:324,2,100,0|8|0
262,275,117400,1,8
182,270,118013,5,0
111,231,118625,1,8
72,160,119237,1,0
77,80,119849,1,8
77,80,120462,1,4
113,135,130257,6,0,B|113:241,1,100,2|8
177,279,131482,2,0,B|177:175,1,100,2|8
256,200,132706,6,0,C|296:160|376:144,2,100,0|8|0
200,248,134543,1,8
120,248,135155,1,0
64,192,135768,1,8
112,128,136380,1,0
192,128,136992,1,8
240,192,137604,1,0
200,264,138217,1,8
120,264,138829,1,2
200,264,139441,1,8
248,200,140053,6,0,B|222:123|279:53,1,100,0|8
328,104,141278,1,2
328,104,141890,1,2
408,120,142502,6,0,C|405:176|376:212|335:226|289:210|261:169|259:115,1,300,0|8
216,48,144951,6,0,C|180:82|160:136,5,100,0|8|0|8|0|8
184,208,148625,1,2
184,208,149237,1,2
264,208,149849,6,0,B|408:208,3,100,0|8|2|2
368,288,152298,6,0,B|512:288,3,100,0|8|2|2
472,208,154747,5,0
414,152,155359,1,8
396,230,155972,1,0
320,254,156584,1,8
256,192,157196,12,8,159033
335,104,159645,6,0,C|239:176,1,100,0|8
176,184,160870,1,2
232,240,161482,1,2
312,240,162094,6,0,B|360:232|384:160,2,100,0|8|2
312,240,163931,1,2
232,240,164543,6,0,B|128:176|168:16,1,200,0|0
78,63,166380,1,8
159,66,166992,1,2
238,68,167604,1,2
275,138,168217,1,2
224,200,168829,1,2
152,240,169441,5,0
120,312,170053,1,8
184,360,170666,2,0,C|236:376|292:357,1,100,2|2
344,312,171890,5,0
400,256,172502,1,8
432,184,173115,2,0,C|436:136|416:86,1,100,2|2
344,48,174339,5,0
352,128,174951,1,8
295,184,175564,2,0,B|263:208|199:194,2,75
256,192,176788,12,4,179237
