osu file format v9

[General]
AudioFilename: Chip Skylark - My Shiny Teeth and Me.mp3
AudioLeadIn: 0
PreviewTime: 27292
Countdown: 0
SampleSet: Soft
StackLeniency: 0.7
Mode: 0
LetterboxInBreaks: 1

[Editor]
Bookmarks: 42134
DistanceSpacing: 0.8
BeatDivisor: 4
GridSize: 8

[Metadata]
Title:My Shiny Teeth and Me
Artist:Chris Kirkpatrick
Creator:Katsuri
Version:Insane
Source:The Fairly OddParents
Tags:Butch Hartman Timmy Turner Chip Skylark Hyguys

[Difficulty]
HPDrainRate:7
CircleSize:4
OverallDifficulty:8
ApproachRate:8
SliderMultiplier:2.1
SliderTickRate:2

[Events]
//Background and Video events
0,0,"my_shiny_teeth_and_me_by_magicdraws-d35d7qg.jpg"
//Break Periods
2,84134,92384
//Storyboard Layer 0 (Background)
//Storyboard Layer 1 (Fail)
//Storyboard Layer 2 (Pass)
//Storyboard Layer 3 (Foreground)
//Storyboard Sound Samples
//Background Colour Transformations
3,100,163,162,255

[TimingPoints]
3292,315.789473684211,4,1,0,60,1,0
8028,-100,4,2,0,100,0,0
28555,-100,4,2,0,100,0,1
37397,-100,4,2,0,100,0,0
38660,-100,4,2,0,100,0,1
46239,-100,4,2,0,100,0,0
60134,-100,4,2,0,100,0,1
68976,-100,4,2,0,100,0,0
70239,-100,4,2,0,100,0,1
77818,-100,4,2,0,100,0,0
94239,-100,4,2,0,100,0,1
103081,-100,4,2,0,100,0,0
104344,-100,4,2,0,100,0,1
111923,-100,4,2,0,100,0,0

[Colours]
Combo1 : 0,155,155
Combo2 : 245,87,69
Combo3 : 239,90,217

[HitObjects]
128,72,3292,2,0,B|192:120|184:192|184:192|256:216|328:192|328:192|320:120|392:56,1,420,0|8
352,320,4397,2,0,B|296:312|256:352|256:352|224:312|152:320,1,210
208,160,5028,2,0,B|256:112|312:168,1,105,0|8
256,320,5502,1,0
88,296,5818,2,0,B|31:239|111:151|47:100,1,210,0|8
464,100,6449,2,0,B|400:151|480:239|424:296,1,210,8|0
424,296,6923,1,0
64,104,8344,6,0,B|112:144|208:136,1,105
224,80,8660,1,2
288,24,8818,1,0
320,104,8976,2,0,B|384:88|440:24,2,105
320,104,9449,2,0,B|408:176|416:320,1,210,0|0
412,286,9923,1,2
336,328,10081,1,0
264,288,10239,2,0,B|216:256|120:280,1,105
80,296,10555,1,2
80,296,10870,5,0
64,216,11028,2,0,B|8:168|72:96,1,105,0|2
128,168,11344,2,0,B|184:216|240:168,2,105
184,104,11818,1,2
264,80,11976,2,0,B|360:136|488:128,1,210
496,208,12449,2,0,B|512:280|432:320,1,105,2|0
384,272,12765,5,0
320,216,12923,1,0
256,272,13081,1,2
192,216,13239,1,0
128,264,13397,1,0
64,112,13713,6,0,B|184:152|288:104,1,210,2|0
216,48,14186,1,0
296,40,14344,1,2
352,96,14502,1,0
448,232,14818,5,0
392,296,14976,1,2
448,352,15134,1,0
448,352,15292,1,4
256,24,15607,1,4
64,352,15923,1,4
256,192,16002,12,2,17028
448,96,18449,6,0,B|408:144|472:216,1,105
448,290,18765,2,0,B|416:240|456:192,1,105,2|0
454,193,19081,2,0,B|352:144|240:184,1,210,0|2
320,232,19555,2,0,B|344:296|400:320,1,105
320,232,19870,2,0,B|240:264|248:344,1,105,0|2
320,232,20186,2,0,B|280:192|200:192,1,105
56,192,20660,1,2
464,192,20976,1,0
400,136,21134,6,0,B|336:136|304:64,1,105,0|2
240,48,21449,1,0
240,48,21607,1,0
168,96,21765,1,0
96,48,21923,1,2
96,48,22081,2,0,B|72:144|128:192|224:168,1,210,0|0
176,248,22555,6,0,B|112:256|48:328,2,105,2|0|0
256,280,23028,1,0
320,224,23186,2,0,B|432:184|480:72,1,210,2|0
256,136,23818,1,2
176,112,23976,2,0,B|192:32|320:32|336:120,1,210
256,136,24449,1,2
176,152,24607,2,0,B|192:240|328:240|344:152,1,210,0|2
256,136,25081,5,0
256,136,25239,2,0,B|248:208|264:272,1,105
480,192,25713,1,2
32,192,26028,1,4
256,192,26107,12,2,27292
80,64,28555,6,0,B|96:128|64:192,1,105
32,240,28870,1,8
80,304,29028,1,0
168,304,29186,2,0,B|248:288|312:336,2,105,0|0|8
168,304,29660,2,0,B|88:224|64:88,1,210,0|2
240,96,30292,6,0,B|352:96,1,105,0|2
328,264,30765,2,4,B|192:232|160:120,1,210
240,96,31239,1,0
320,64,31397,1,8
336,144,31555,1,0
256,168,31713,1,0
256,168,32028,1,2
256,168,32344,1,0
288,248,32502,6,0,B|352:272|432:248,2,105,8|0|0
224,136,32976,2,0,B|160:112|80:136,2,105,8|0|0
256,56,33449,1,8
256,56,33607,2,0,B|312:72|360:136,1,105
256,56,33923,2,0,B|200:72|152:136,1,105,0|0
256,136,34239,2,0,B|256:256,3,105,8|0|8|0
136,168,34870,2,2,B|136:368|384:368|392:136,1,420
256,72,35818,1,8
256,192,35897,12,0,37397
56,160,38660,6,0,B|112:136|160:80,1,105
208,152,38976,1,8
256,80,39134,1,0
304,152,39292,1,0
370,100,39449,2,0,B|400:136|456:160,1,105,0|8
455,159,39765,2,0,B|360:216|312:320,1,210
256,152,40397,2,0,B|256:40,1,105,0|8
256,216,40870,1,0
64,224,41186,6,4,B|256:376|456:216,1,420,4|0
256,152,42134,1,0
447,73,42449,2,4,B|256:-80|64:72,1,420,4|0
128,224,43397,1,0
128,224,43555,2,0,B|176:200|224:248|272:296|328:272,1,210,8|0
360,200,44028,1,8
432,160,44186,1,0
376,96,44344,1,0
440,40,44502,1,2
272,40,44818,2,4,B|184:40|184:160|280:160|280:272|176:272,2,315
64,184,46239,1,4
152,136,47818,5,8
256,48,47976,1,0
360,136,48134,1,4
152,248,48449,5,8
256,336,48607,1,0
360,248,48765,1,4
56,72,50028,6,0,B|104:112|192:96,1,105
224,144,50344,1,2
288,200,50502,1,0
224,256,50660,1,0
288,312,50818,2,0,B|240:360|168:328,2,105,0|2|0
288,312,51292,2,0,B|336:256|424:312,1,105
440,232,51607,6,0,B|448:168|400:136,1,105,2|0
360,208,51923,1,0
352,128,52081,1,0
352,40,52239,2,0,B|304:-8|256:40|256:40|208:-8|160:40,1,210,4|4
256,176,52870,5,2
256,176,53028,1,0
208,248,53186,1,0
208,248,53344,1,0
272,296,53502,1,2
272,296,53660,1,0
408,192,53976,5,0
360,120,54134,2,0,B|304:96|264:40,1,105,0|2
192,48,54449,1,0
112,56,54607,1,0
40,16,54765,1,0
40,16,54923,2,0,B|0:96|96:136|8:240,1,210,2|0
64,288,55397,1,0
128,240,55555,5,0
264,208,55713,1,0
136,152,55870,1,2
200,272,56028,1,0
224,136,56186,1,2
176,64,56344,1,0
176,64,56502,2,0,B|256:56|320:96,1,105,0|2
384,88,56818,2,0,B|304:96|240:56,1,105,0|2
472,192,57292,1,4
48,192,57607,1,4
256,192,57686,12,4,58870
72,120,60134,6,0,B|72:200|160:224,1,105
160,136,60449,2,0,B|216:160|208:248,1,105,8|0
168,296,60765,2,2,B|392:296,1,210,2|0
424,224,61239,1,8
424,224,61555,1,8
328,88,61870,1,0
240,88,62028,2,0,B|128:48,1,105,2|0
152,136,62344,2,0,B|256:176,1,105,2|0
328,192,62660,1,4
256,192,62818,12,0,63923
256,96,64081,5,0
64,192,64239,2,0,B|144:272,2,105,8|0|8
448,192,64713,2,0,B|368:272,2,105,0|0|8
400,120,65186,2,0,B|320:176|296:88|256:88|216:88|192:176|96:112,2,315,8|0|8
352,56,66292,2,0,B|304:16|232:24,1,105,0|8
256,192,66765,2,0,B|256:320,1,105,0|8
96,248,67081,2,0,B|176:328,1,105
341,322,67397,2,0,B|416:248,1,105,2|0
240,280,67713,2,4,B|176:280|176:160|256:160|336:160|336:32|232:32,2,315
376,184,68976,1,4
128,72,70239,6,0,B|264:72,1,105
184,144,70555,2,0,B|72:144,1,105,8|0
120,216,70870,2,0,B|368:216,1,210,2|0
336,304,71344,6,0,B|440:288|440:152|352:136,1,210,0|8
248,48,71976,1,0
160,48,72134,2,0,B|104:8|32:56,1,105,2|0
112,104,72450,2,0,B|64:96|24:176,1,105,2|0
40,248,72765,2,0,B|146:311|245:256|348:186|493:261,1,420,4|0
456,72,73713,1,8
456,72,74028,2,0,B|349:8|250:63|147:133|2:58,1,420,4|0
168,192,74976,5,8
80,192,75134,2,0,B|96:296|224:296|240:216,1,210
240,152,75607,2,8,B|192:88|120:128,1,105
320,112,76081,2,0,B|448:112,1,105
272,40,76555,2,4,B|184:40|184:160|280:160|280:272|176:272,2,315
424,112,77818,1,4
64,192,79397,5,8
144,304,79555,1,0
256,224,79713,1,4
376,104,80028,1,8
240,96,80186,1,0
256,224,80344,1,4
216,72,81923,6,0,B|304:144|416:144,1,210,8|4
144,200,82555,2,0,B|232:272|344:272,1,210,8|4
256,144,93134,5,0
256,152,93292,1,0
256,160,93449,1,0
256,168,93607,1,0
256,176,93765,1,0
256,184,93923,1,0
256,192,94081,1,0
256,200,94239,6,0,B|352:280,1,105
264,304,94555,2,0,B|184:232,1,105,8|0
104,232,94870,2,0,B|64:216|64:216|104:200|104:200|64:192|64:192|104:176|104:176|64:168|64:168|88:144,1,210
112,96,95344,2,0,B|232:152|320:80,1,210,0|8
464,152,95976,5,0
384,184,96134,2,0,B|328:224|360:296,1,105,2|0
432,256,96449,2,0,B|448:328|376:360,1,105,2|0
312,352,96765,2,4,B|72:328|72:80|240:56,1,420,4|0
304,192,97713,1,8
472,192,98028,2,4,B|448:-48|200:-48|176:120,1,420,4|0
304,192,98976,1,8
408,64,99292,6,0,B|176:64,3,210,0|8|0|8
352,136,100555,2,0,B|240:136,4,105,0|8|0|8|0
472,248,101502,2,0,B|456:376|312:376|288:272|256:240|224:272|200:376|56:376|40:208,2,525,8|8|8
96,136,104344,6,0,B|232:112,1,105
280,104,104660,1,8
280,104,104739,1,0
280,104,104818,1,0
360,120,104976,2,0,B|384:224,1,105
400,304,105292,1,8
400,304,105370,1,0
400,304,105449,5,0
256,224,105765,1,8
112,304,106081,1,0
112,304,106239,2,4,B|72:304|72:224|128:224|192:224|192:144|104:144,2,210
256,192,106949,12,4,108134
176,120,108292,5,0
96,136,108449,2,0,B|112:248,1,105,8|0
32,216,108765,2,0,B|80:320,1,105
160,312,109081,2,0,B|256:272|384:312,3,210,8|0|8|0
432,256,110186,2,0,B|472:128,1,105,0|8
256,192,110423,12,4,111923
272,104,113502,6,0,B|208:112|208:112|272:120|272:120|208:136|208:136|272:144|272:144|208:160|208:160|272:168|272:168|224:176,1,420,8|8
248,344,114449,1,4
128,208,116028,5,8
256,152,116186,1,0
376,208,116344,1,4
136,80,116660,1,8
256,152,116818,1,0
376,80,116976,1,4
256,264,118555,5,8
392,232,118713,1,0
440,104,118870,1,4
272,72,119186,5,8
136,96,119343,1,0
48,208,119502,2,0,B|56:184|56:184|64:208|64:208|72:184|72:184|80:208|80:208|88:184|88:184|96:208|96:208|104:184|104:184|112:208|112:208|120:184|120:184|128:208|128:208|136:184|136:184|144:208|144:208|152:184|152:184|160:208|160:208|168:184|168:184|176:208|176:208|184:184|184:184,1,420
