osu file format v9

[General]
AudioFilename: Chip Skylark - My Shiny Teeth and Me.mp3
AudioLeadIn: 0
PreviewTime: 27292
Countdown: 0
SampleSet: Normal
StackLeniency: 0.7
Mode: 0
LetterboxInBreaks: 1

[Editor]
Bookmarks: 42134
DistanceSpacing: 0.8
BeatDivisor: 4
GridSize: 8

[Metadata]
Title:My Shiny Teeth and Me
Artist:Chris Kirkpatrick
Creator:Katsuri
Version:Hard
Source:The Fairly OddParents
Tags:Butch Hartman Timmy Turner Chip Skylark Hyguys

[Difficulty]
HPDrainRate:6
CircleSize:4
OverallDifficulty:6
ApproachRate:7
SliderMultiplier:1.5
SliderTickRate:2

[Events]
//Background and Video events
0,0,"my_shiny_teeth_and_me_by_magicdraws-d35d7qg.jpg"
//Break Periods
2,84134,93339
//Storyboard Layer 0 (Background)
//Storyboard Layer 1 (Fail)
//Storyboard Layer 2 (Pass)
//Storyboard Layer 3 (Foreground)
//Storyboard Sound Samples
//Background Colour Transformations
3,100,163,162,255

[TimingPoints]
3292,315.789473684211,4,1,0,60,1,0
8028,-100,4,2,0,100,0,0
28555,-100,4,2,0,100,0,1
37397,-100,4,2,0,100,0,0
38660,-100,4,2,0,100,0,1
46239,-100,4,2,0,100,0,0
60134,-100,4,2,0,100,0,1
68976,-100,4,2,0,100,0,0
70239,-100,4,2,0,100,0,1
77818,-100,4,2,0,100,0,0
94239,-100,4,2,0,100,0,1
103081,-100,4,2,0,100,0,0
104344,-100,4,2,0,100,0,1
111923,-100,4,2,0,100,0,0

[Colours]
Combo1 : 0,155,155
Combo2 : 245,87,69
Combo3 : 239,90,217

[HitObjects]
168,120,3292,2,0,B|272:168|320:40|256:8|192:40|232:168|360:120,1,300,0|8
176,208,4397,2,0,B|256:216|336:208,1,150
256,304,5028,2,0,B|256:384,1,75,0|8
152,312,5502,2,0,B|72:288|24:184,1,150,0|0
360,312,6134,2,0,B|440:288|488:184,1,150,8|0
256,112,6765,1,0
256,112,6923,1,0
56,96,8344,6,0,B|64:192|168:208,1,150,0|2
24,208,8976,2,0,B|152:112,1,150,0|2
184,232,9607,2,0,B|224:216|256:248|296:288|344:264,3,150,0|2|0|2
216,320,10870,2,0,B|280:384|440:368|440:200,1,300
424,112,11818,1,2
304,104,12134,2,0,B|232:88|144:104,1,150,0|2
248,24,12765,2,0,B|208:96|216:200,1,150
96,184,13397,2,0,B|96:304|256:376|424:304|424:168,1,450,0|2
328,120,14660,2,0,B|256:88|168:120,1,150,0|2
256,208,15292,2,4,B|225:249|257:277|288:304|248:352,2,150
256,192,16002,12,0,17028
112,120,18449,6,0,B|256:72,1,150,0|2
192,176,19081,2,0,B|40:224,1,150,0|2
112,120,19713,2,0,B|216:96|256:136|304:184|432:160,1,300
312,88,20660,1,2
312,88,20976,6,0,B|224:136|296:240,1,150,0|2
192,136,21607,2,0,B|184:232|256:296,1,150,0|2
352,280,22239,2,0,B|440:232|368:128,1,150,0|2
472,232,22870,2,0,B|480:136|408:72,1,150,0|2
312,64,23502,2,0,B|136:40|48:200,1,300
48,240,24292,1,0
72,296,24449,1,2
128,312,24607,2,0,B|192:288|240:336|280:376|344:352,1,225,0|2
456,328,25397,2,0,B|488:240|464:152,1,150
376,104,26028,1,4
256,192,26107,12,0,27292
256,40,28555,6,0,B|280:120|248:200,1,150,0|8
256,336,29186,2,0,B|280:256|248:176,1,150,0|8
192,192,29660,2,0,B|40:192,1,150,0|8
128,104,30292,2,0,B|208:104,1,75,0|2
312,48,30765,1,0
312,48,31081,2,0,B|448:184|304:328,1,300
256,208,32028,1,8
200,312,32344,2,0,B|64:176|208:32,1,300
256,152,33292,1,8
368,96,33607,6,0,B|392:160|344:208|296:256|320:344,2,225,0|8|8
308,84,34713,1,0
292,140,34870,2,0,B|356:236|508:148,2,225,0|8|8
224,40,36134,2,0,B|120:40|16:200|112:360|224:360,1,450,0|8
256,248,37397,1,4
56,224,38660,6,0,B|80:128|192:152,1,150,0|8
52,116,39292,2,0,B|156:236,1,150,0|8
200,256,39765,1,0
200,256,40081,1,0
312,296,40397,1,0
368,312,40555,2,0,B|464:304|488:208,2,150,0|0|4
256,192,41265,12,0,42449
176,88,42765,5,8
80,168,43081,1,0
144,272,43397,1,8
256,224,43713,2,0,B|336:272|424:208,1,150,0|8
328,128,44344,2,0,B|328:40,1,75,0|2
152,104,44818,2,4,B|128:176|168:216|208:256|176:352,2,225
328,152,46239,1,4
256,128,47818,6,0,B|256:32,2,75,8|0|4
256,248,48449,2,0,B|256:336,2,75,8|0|4
72,112,50028,6,0,B|112:208|216:168,1,150,0|2
212,56,50660,2,0,B|236:128|196:168|148:216|172:288,1,225,0|2
344,296,51607,5,0
344,296,51765,2,0,B|416:360|512:288,1,150,2|0
480,248,52239,2,0,B|408:184|312:256,1,150,2|0
224,264,52870,2,0,B|152:200|56:272,1,150,2|0
128,144,53502,1,0
128,144,53660,2,0,B|200:208|296:136,1,150,2|0
312,112,54134,1,0
424,80,54449,6,0,B|448:128|424:152|400:176|432:224,1,150,2|0
488,240,54923,2,0,B|392:200|320:248,1,150,2|0
288,256,55397,1,0
240,288,55555,2,2,B|160:336|88:272,1,150
32,216,56186,2,0,B|104:152|184:232,1,150
167,216,56660,1,2
224,192,56818,1,0
256,144,56976,2,0,B|256:64,1,75,2|0
320,72,57292,2,0,B|320:160,1,75,2|0
320,147,57607,1,4
256,192,57686,12,4,58870
80,216,60134,6,4,B|96:72|256:-24|416:80|432:240,1,525,4|0
336,304,61555,1,8
256,216,61870,1,0
256,216,62028,2,0,B|216:304,1,75,2|0
176,248,62344,2,2,B|216:160,1,75
188,124,62660,2,0,B|220:140|256:104|292:68|332:84,3,150,0|8|0|8
472,208,63923,2,0,B|508:144|456:84|392:96,2,150,0|8|0
352,192,64870,5,8
380,312,65186,1,0
380,312,65502,2,2,B|72:312,1,300
32,272,66292,1,0
80,240,66449,2,2,B|408:240,1,300
472,160,67397,1,8
472,160,67713,2,4,B|288:144|288:144|288:80|224:48|160:64|144:128|144:128|88:136,1,450
216,144,68976,1,4
216,216,70239,6,0,B|216:144|320:144|320:224|320:224|320:296|416:296|416:232,1,300,0|8
424,144,71186,1,0
328,72,71502,2,0,B|248:48|160:64,1,150,0|8
96,152,72134,2,0,B|144:216,1,75,2|0
141,212,72449,2,0,B|248:232,1,75,2|0
224,288,72765,2,4,B|408:360|464:184,1,300,4|8
352,136,73713,1,0
232,120,74028,2,0,B|232:184|144:184|144:112|144:112|144:48|56:48|56:120,1,300,4|8
80,240,74976,5,0
80,240,75134,2,0,B|152:272|240:256,1,150,0|8
288,240,75607,1,8
344,256,75765,1,8
456,224,76081,2,4,B|488:144,1,75,4|0
392,80,76555,2,4,B|272:32|160:48,2,225
288,144,77818,1,4
56,224,79397,5,8
152,248,79555,1,0
240,200,79713,1,4
424,136,80028,5,8
344,80,80186,1,0
248,96,80344,1,4
432,288,81923,6,0,B|344:312|288:248,1,150,8|4
128,152,82555,2,0,B|224:192|272:96,1,150,8|4
104,104,94239,6,0,B|256:48|424:120,1,300,0|8
312,192,95186,1,0
256,168,95344,2,0,B|184:144|104:208,1,150,0|8
200,280,95976,1,0
200,280,96134,2,0,B|272:320|368:288,2,150,8|0|4
152,168,97081,2,0,B|104:160|64:200,2,75,8|0|4
328,128,97870,1,8
328,128,98186,1,8
224,64,98502,2,0,B|136:40,1,75,0|4
64,120,98976,5,8
64,120,99292,2,0,B|64:336|328:336|368:184,1,450,2|8
416,160,100397,1,0
400,104,100555,2,8,B|336:80|296:120|256:160|184:136,2,225,2|8|8
440,216,101818,2,4,B|384:320|256:352|104:312|48:184,1,450
72,88,103081,1,4
256,136,104344,6,0,B|328:184|432:128,1,150,0|8
256,136,104976,2,0,B|184:176|112:136,1,150,0|8
112,136,105449,2,0,B|72:216|96:296,1,150,0|8
208,296,106081,1,0
264,328,106239,2,0,B|360:336,1,75,2|0
360,280,106555,2,0,B|456:272,1,75,2|0
472,224,106870,2,0,B|472:8|304:8|288:96,1,300,4|0
256,176,107818,1,8
160,104,108134,2,0,B|48:120|48:264|144:280,2,225,0|8|8
192,216,109397,6,0,B|256:296,1,75,2|0
288,240,109713,2,0,B|376:272,1,75,2|0
376,208,110028,2,0,B|464:200,1,75,2|0
432,144,110344,2,0,B|496:80,1,75,2|0
440,48,110660,2,0,B|288:-16|128:56,1,300,4|0
96,152,111607,1,8
96,152,111923,1,8
288,232,113502,6,0,B|320:312|440:312,1,150,8|4
408,192,114134,2,0,B|400:104|320:72,1,150,8|4
120,96,116028,6,0,B|120:152|176:176,2,75,8|0|4
304,160,116660,1,8
376,224,116818,1,0
352,320,116976,1,4
128,272,118555,6,0,B|80:216,1,75,8|0
64,120,118870,1,4
256,80,119186,1,8
352,96,119344,1,0
416,168,119502,2,4,B|456:280|320:368|224:272,1,300,4|0
