osu file format v9

[General]
AudioFilename: Chip Skylark - My Shiny Teeth and Me.mp3
AudioLeadIn: 0
PreviewTime: 27292
Countdown: 0
SampleSet: Soft
StackLeniency: 0.7
Mode: 0
LetterboxInBreaks: 1

[Editor]
Bookmarks: 42134
DistanceSpacing: 0.7
BeatDivisor: 4
GridSize: 4

[Metadata]
Title:My Shiny Teeth and Me
Artist:Chris Kirkpatrick
Creator:Katsuri
Version:Easy
Source:The Fairly OddParents
Tags:Butch Hartman Timmy Turner Chip Skylark Hyguys

[Difficulty]
HPDrainRate:2
CircleSize:3
OverallDifficulty:2
ApproachRate:4
SliderMultiplier:0.6
SliderTickRate:1

[Events]
//Background and Video events
0,0,"my_shiny_teeth_and_me_by_magicdraws-d35d7qg.jpg"
//Break Periods
2,84134,92919
//Storyboard Layer 0 (Background)
//Storyboard Layer 1 (Fail)
//Storyboard Layer 2 (Pass)
//Storyboard Layer 3 (Foreground)
//Storyboard Sound Samples
//Background Colour Transformations
3,100,163,162,255

[TimingPoints]
3292,315.789473684211,4,1,0,60,1,0
8028,-100,4,2,0,100,0,0
28555,-100,4,2,0,100,0,1
37397,-100,4,2,0,100,0,0
38660,-100,4,2,0,100,0,1
46239,-100,4,2,0,100,0,0
60134,-100,4,2,0,100,0,1
68976,-100,4,2,0,100,0,0
70239,-100,4,2,0,100,0,1
77818,-100,4,2,0,100,0,0
94239,-100,4,2,0,100,0,1
103081,-100,4,2,0,100,0,0
104344,-100,4,2,0,100,0,1
111923,-100,4,2,0,100,0,0

[Colours]
Combo1 : 0,155,155
Combo2 : 245,87,69
Combo3 : 239,90,217

[HitObjects]
192,104,3292,2,0,B|256:128|320:104,1,120,0|8
256,176,4555,2,0,B|256:240,3,60,0|8|0|8
220,260,5818,2,0,B|220:312|292:312|292:256,1,120
256,204,6923,1,0
88,116,8344,6,0,B|144:84|216:100,1,120,0|2
256,164,9607,2,0,B|256:236,2,60,0|2|0
312,100,10870,2,0,B|373:87|429:119,1,120,0|2
388,192,12134,2,0,B|260:192,1,120,0|2
244,112,13397,2,0,B|140:128|140:256|236:272,1,240,0|2
268,192,15292,2,0,B|340:192,2,60,8|0|4
184,192,16555,1,8
120,192,17028,1,4
308,176,18449,6,0,B|368:216|432:180,1,120,0|2
372,116,19713,2,0,B|316:76|248:100,1,120,0|2
176,120,20976,2,0,B|124:168|164:240,1,120,0|2
240,244,22239,2,0,B|304:252,3,60,0|2|0|2
336,276,23502,2,0,B|468:276,1,120,0|2
432,196,24765,2,0,B|388:148,3,60,0|2|0|2
372,112,26028,2,0,B|256:64|136:112,1,240,4|4
120,280,28555,6,0,B|176:324|244:280,1,120,0|8
184,216,29818,2,0,B|132:176|68:204,1,120,0|8
76,120,31081,2,0,B|264:72|440:120,1,360,0|8
428,200,33607,6,0,B|400:264|328:276,1,120,0|8
276,332,34870,2,0,B|204:332|160:288,1,120,0|8
140,212,36134,2,0,B|36:196|36:68|140:56,1,240,4|8
304,88,38660,6,0,B|428:128,1,120,0|8
400,208,39923,2,0,B|276:248,1,120,0|8
220,296,41186,2,0,B|120:248|112:156,1,180,4|8
116,120,42449,2,0,B|180:68|288:68,1,180,4|8
324,80,43713,2,0,B|444:104,1,120,0|8
392,172,44976,2,0,B|356:232,4,60,0|8|0|8|4
184,164,47818,6,0,B|236:120,1,60,8|4
268,104,48449,2,0,B|252:44,1,60,8|4
332,196,50028,6,0,B|392:236|456:200,1,120,0|2
408,128,51292,2,0,B|352:136|284:112,1,120,0|2
216,156,52555,2,0,B|240:216|204:276,1,120,0|2
292,260,53818,2,0,B|356:268,3,60,0|2|0|2
364,228,55081,2,0,B|496:228,1,120,0|2
432,160,56344,2,0,B|388:112,3,60,0|2|0|2
372,80,57607,2,0,B|256:32|136:80,1,240,4|4
100,244,60134,6,0,B|156:288|224:244,1,120,0|8
160,184,61397,2,0,B|108:144|44:172,1,120,0|8
76,92,62660,2,0,B|256:40|440:92,1,360,0|8
428,172,65186,6,0,B|400:236|328:248,1,120,0|8
296,316,66449,2,0,B|224:316|180:272,1,120,0|8
136,208,67713,2,0,B|32:192|32:64|136:52,1,240,4|8
300,88,70239,6,0,B|424:128,1,120,0|8
400,208,71502,2,0,B|276:248,1,120,0|8
220,296,72765,2,0,B|120:248|112:156,1,180,4|8
116,120,74028,2,0,B|180:68|288:68,1,180,4|8
324,80,75292,2,0,B|444:104,1,120,0|8
392,172,76555,2,0,B|356:232,4,60,0|8|0|8|4
184,164,79397,6,0,B|236:120,1,60,8|4
268,104,80028,2,0,B|252:44,1,60,8|4
448,124,81923,5,8
416,152,82239,1,2
376,168,82555,1,2
336,180,82870,1,2
100,140,94239,6,0,B|156:96|224:140,1,120,0|8
160,200,95502,2,0,B|108:240|44:212,1,120,0|8
76,292,96765,2,0,B|256:344|440:292,1,360,0|8
428,212,99291,6,0,B|400:148|328:136,1,120,0|8
296,68,100554,2,0,B|224:68|180:112,1,120,0|8
136,176,101818,2,0,B|32:192|32:320|136:332,1,240,4|8
300,296,104344,6,0,B|424:256,1,120,0|8
400,176,105607,2,0,B|276:136,1,120,0|8
220,88,106870,2,0,B|120:136|112:228,1,180,4|8
116,264,108133,2,0,B|180:316|288:316,1,180,4|8
324,304,109397,2,0,B|444:280,1,120,0|8
392,212,110660,2,0,B|356:152,4,60,0|8|0|8|4
184,220,113502,6,0,B|236:264,1,60,8|4
268,280,114133,2,0,B|252:340,1,60,8|4
448,260,116028,5,8
416,232,116344,1,2
376,216,116660,1,2
336,204,116975,1,2
132,152,118555,5,0
164,124,118870,2,0,B|224:96,1,60
260,92,119502,2,0,B|312:56|388:80,1,120
