osu file format v14

[General]
AudioFilename: Chip Skylark - My Shiny Teeth and Me.mp3
AudioLeadIn: 0
PreviewTime: 27280
Countdown: 0
SampleSet: Soft
StackLeniency: 0.7
Mode: 0
LetterboxInBreaks: 0
WidescreenStoryboard: 0

[Editor]
DistanceSpacing: 1.2
BeatDivisor: 4
GridSize: 4
TimelineZoom: 1

[Metadata]
Title:MY SHINY TEETH AND ME
TitleUnicode:MY SHINY TEETH AND ME
Artist:Chris Kirkpatrick
ArtistUnicode:Chris Kirkpatrick
Creator:Snaggletooth
Version:Hard
Source:The Fairly OddParents
Tags:Fairy Timmy Turner Cosmo Wanda LuxoDeh Butch Hartman Steve Marmel Guy Moon Chip Skylark
BeatmapID:369474
BeatmapSetID:149528

[Difficulty]
HPDrainRate:5
CircleSize:4
OverallDifficulty:6
ApproachRate:7
SliderMultiplier:1.3
SliderTickRate:1

[Events]
//Background and Video events
0,0,"skylark-alt.jpg",0,0
//Break Periods
2,84134,92964
//Storyboard Layer 0 (Background)
//Storyboard Layer 1 (Fail)
//Storyboard Layer 2 (Pass)
//Storyboard Layer 3 (Foreground)
//Storyboard Sound Samples

[TimingPoints]
3280,315.789473684211,4,2,1,50,1,0
8016,-100,4,2,1,60,0,0
28543,-100,4,2,1,70,0,1
37385,-100,4,2,1,70,0,0
38648,-100,4,2,1,70,0,1
46227,-100,4,2,1,70,0,0
60122,-100,4,2,1,70,0,1
68964,-100,4,2,1,70,0,0
70227,-100,4,2,1,70,0,1
77806,-100,4,2,1,70,0,0
94227,-100,4,2,1,70,0,1
103069,-100,4,2,1,70,0,0
104332,-100,4,2,1,70,0,1
111911,-100,4,2,1,70,0,0

[Colours]
Combo1 : 128,128,255
Combo2 : 254,66,33
Combo3 : 255,0,128
Combo4 : 0,128,255

[HitObjects]
340,220,3280,6,0,P|412:252|468:232,1,130,0|2,0:0|0:0,0:0:0:0:
336,140,3911,2,0,P|284:164|264:248,1,130
180,236,4385,2,0,B|220:312|220:312|240:344|284:332,2,130,2|0|2,0:0|0:0|0:0,0:0:0:0:
104,212,5174,1,0,0:0:0:0:
132,60,5490,1,0,0:0:0:0:
288,80,5806,6,0,P|332:88|352:88,1,65,4|0,0:0|0:0,0:0:0:0:
404,32,6122,2,0,P|376:92|412:160,1,130,2|0,0:0|0:0,0:0:0:0:
464,188,6595,1,0,0:0:0:0:
496,260,6753,1,2,0:0:0:0:
464,332,6911,1,2,0:0:0:0:
168,196,8016,1,0,0:0:0:0:
168,196,8332,6,0,P|204:188|232:168,1,65,4|0,0:0|0:0,0:0:0:0:
200,100,8648,2,0,P|164:108|136:128,1,65,2|0,0:0|0:0,0:0:0:0:
72,84,8964,2,0,B|56:160|56:160|48:200|76:228,1,130,0|2,0:0|0:0,0:0:0:0:
12,276,9437,2,0,P|100:284|136:240,1,130
200,296,9911,2,0,L|256:352,1,65,2|0,0:0|0:0,0:0:0:0:
336,320,10227,2,0,L|276:264,1,65
304,184,10543,2,0,L|408:280,1,130,2|0,0:0|0:0,0:0:0:0:
472,140,11174,6,0,P|444:112|408:108,1,65,2|0,0:0|0:0,0:0:0:0:
392,36,11490,2,0,P|344:56|256:48,1,130,0|2,0:0|0:0,0:0:0:0:
196,20,11964,2,0,B|236:104|236:104|248:136|224:168,1,130
204,212,12437,1,2,0:0:0:0:
128,236,12595,1,0,0:0:0:0:
56,208,12753,2,0,L|-16:160,1,65
44,104,13069,2,0,L|116:152,2,65,2|0|0,0:0|0:0|0:0,0:0:0:0:
200,116,13701,6,0,P|236:124|276:124,1,65,2|0,0:0|0:0,0:0:0:0:
328,76,14016,2,0,P|344:132|296:200,1,130,0|2,0:0|0:0,0:0:0:0:
324,272,14490,2,0,P|320:320|332:340,1,65
396,296,14806,2,0,L|460:248,2,65,0|2|0,0:0|0:0|0:0,0:0:0:0:
392,376,15280,1,2,0:0:0:0:
244,324,15595,1,2,0:0:0:0:
336,196,15911,6,0,B|256:180|256:180|228:176|200:200,1,130,2|0,0:0|0:0,0:0:0:0:
136,60,16543,2,0,P|176:72|220:68,2,65,0|0|0,0:0|0:0|0:0,0:0:0:0:
68,16,17016,1,4,0:0:0:0:
448,128,18437,6,0,P|384:144|296:128,1,130,4|2,0:0|0:0,0:0:0:0:
184,60,19069,2,0,B|152:136|152:136|136:168|100:164,1,130,0|2,0:0|0:0,0:0:0:0:
36,160,19543,2,0,L|156:260,1,130
200,284,20016,1,2,0:0:0:0:
276,268,20174,2,0,P|312:256|340:264,1,65
388,200,20490,2,0,P|412:236|412:280,2,65
316,168,20964,6,0,P|268:112|264:44,1,130,0|2,0:0|0:0,0:0:0:0:
404,8,21595,2,0,P|452:64|456:132,1,130,0|2,0:0|0:0,0:0:0:0:
512,168,22069,2,0,L|488:236,1,65
436,280,22385,2,0,L|408:344,1,65,0|2,0:0|0:0,0:0:0:0:
332,328,22701,2,0,L|359:269,2,65
256,340,23174,1,2,0:0:0:0:
108,288,23490,6,0,P|124:240|92:148,1,130,0|2,0:0|0:0,0:0:0:0:
28,148,23964,2,0,P|64:96|136:92,1,130
200,124,24437,1,2,0:0:0:0:
276,120,24595,2,0,B|356:104|356:104|392:96|400:56,1,130
472,64,25069,2,0,P|452:24|420:0,1,65,2|0,0:0|0:0,0:0:0:0:
356,12,25385,1,0,0:0:0:0:
200,36,25701,1,2,0:0:0:0:
164,188,26016,6,0,P|176:264|152:320,1,130,0|2,0:0|0:0,0:0:0:0:
40,208,26648,2,0,P|28:132|52:76,2,130,2|0|4,0:0|0:0|0:0,0:0:0:0:
496,224,28227,1,0,0:0:0:0:
312,220,28543,6,0,P|280:188|280:152,1,65,4|0,0:0|0:0,0:0:0:0:
316,104,28858,2,0,P|232:152|176:156,2,130,8|0|8,0:0|0:0|0:0,0:0:0:0:
356,36,29648,1,0,0:0:0:0:
200,24,29964,2,0,P|140:28|68:80,1,130
4,60,30437,2,0,B|36:96|84:108|112:164,1,130,0|8,0:0|0:0,0:0:0:0:
152,292,31069,6,0,P|200:292|280:252,1,130,0|8,0:0|0:0,0:0:0:0:
320,192,31543,1,0,0:0:0:0:
384,148,31701,2,0,L|456:120,1,65
424,48,32016,2,0,L|336:84,1,65,8|0,0:0|0:0,0:0:0:0:
288,52,32332,2,0,P|244:40|136:56,1,130,0|8,0:0|0:0,0:0:0:0:
84,64,32806,1,0,0:0:0:0:
32,124,32964,1,0,0:0:0:0:
224,256,33280,1,8,0:0:0:0:
32,352,33595,6,0,P|56:312|64:272,1,65
32,216,33911,2,0,P|92:192|160:212,1,130,8|0,0:0|0:0,0:0:0:0:
324,240,34543,2,0,B|256:204|256:204|224:184|232:136,2,130,8|0|8,0:0|0:0|0:0,0:0:0:0:
356,312,35332,2,0,P|396:280|404:248,1,65
480,268,35648,2,0,P|468:224|444:204,1,65,0|8,0:0|0:0,0:0:0:0:
392,172,35964,1,0,0:0:0:0:
368,96,36122,6,0,B|292:88|256:148|256:148|212:88|144:96,2,260,0|0|4,0:0|0:0|0:0,0:0:0:0:
204,292,38648,6,0,P|224:260|192:152,2,130,4|8|0,0:0|0:0|0:0,0:0:0:0:
128,312,39437,2,0,P|88:280|64:272,1,65,0|8,0:0|0:0,0:0:0:0:
8,236,39753,1,0,0:0:0:0:
132,140,40069,1,0,0:0:0:0:
24,28,40385,1,0,0:0:0:0:
96,56,40543,2,0,P|128:64|160:64,1,65
236,40,40858,2,0,P|268:40|299:48,1,65,8|0,0:0|0:0,0:0:0:0:
376,32,41174,6,0,B|344:64|344:112|304:152,1,130,0|8,0:0|0:0,0:0:0:0:
236,160,41648,1,0,0:0:0:0:
216,236,41806,2,0,P|236:276|260:296,1,65
324,316,42122,2,0,P|356:312|396:288,1,65,8|0,0:0|0:0,0:0:0:0:
412,224,42437,2,0,P|416:184|348:120,1,130,0|8,0:0|0:0,0:0:0:0:
340,196,42911,2,0,L|272:188,1,65
200,212,43227,2,0,L|120:204,1,65,0|8,0:0|0:0,0:0:0:0:
84,144,43543,6,0,P|152:120|216:128,2,130,4|0|0,0:0|0:0|0:0,0:0:0:0:
28,200,44332,1,0,0:0:0:0:
52,276,44490,2,0,L|76:336,1,65,0|8,0:0|0:0,0:0:0:0:
136,284,44806,2,0,P|184:304|276:300,1,130
340,308,45280,1,8,0:0:0:0:
308,236,45437,2,0,B|292:184|260:144|256:96,1,130
300,48,45911,2,0,P|356:36|388:52,2,65,0|0|4,0:0|0:0|0:0,0:0:0:0:
392,116,47806,5,2,0:0:0:0:
356,184,47964,1,0,0:0:0:0:
284,212,48122,1,2,0:0:0:0:
128,228,48437,5,2,0:0:0:0:
164,160,48595,1,0,0:0:0:0:
236,132,48753,1,2,0:0:0:0:
432,336,50016,6,0,L|376:304,1,65,4|0,0:0|0:0,0:0:0:0:
304,332,50332,2,0,B|332:280|372:268|392:216,1,130,2|0,0:0|0:0,0:0:0:0:
484,112,50964,2,0,P|424:64|348:56,1,130,2|0,0:0|0:0,0:0:0:0:
300,76,51437,1,0,0:0:0:0:
236,124,51595,2,0,L|176:168,1,65,2|0,0:0|0:0,0:0:0:0:
120,116,51911,2,0,L|180:72,1,65
144,4,52227,2,0,L|32:88,1,130,2|0,0:0|0:0,0:0:0:0:
64,236,52858,5,2,0:0:0:0:
64,236,53174,2,0,P|116:264|184:256,1,130,0|2,0:0|0:0,0:0:0:0:
240,200,53648,2,0,B|232:256|200:288|212:340,1,130
284,352,54122,2,0,P|320:340|352:344,1,65,2|0,0:0|0:0,0:0:0:0:
384,272,54437,2,0,P|420:312|424:340,2,65,0|0|2,0:0|0:0|0:0,0:0:0:0:
408,196,54911,6,0,P|384:148|396:64,1,130
464,44,55385,2,0,L|320:16,1,130,2|0,0:0|0:0,0:0:0:0:
260,40,55858,1,0,0:0:0:0:
212,104,56016,1,2,0:0:0:0:
236,176,56174,2,0,P|256:224|232:296,1,130
156,316,56648,2,0,L|72:308,1,65,2|0,0:0|0:0,0:0:0:0:
12,308,56964,1,0,0:0:0:0:
36,156,57280,1,2,0:0:0:0:
188,132,57595,5,0,0:0:0:0:
252,176,57753,2,0,P|312:192|400:160,1,130
444,216,58227,2,0,P|448:148|392:100,2,130,0|2|4,0:0|0:0|0:0,0:0:0:0:
44,204,59806,1,0,0:0:0:0:
200,164,60122,6,0,P|232:196|240:232,1,65,4|0,0:0|0:0,0:0:0:0:
196,280,60437,2,0,P|280:232|336:228,2,130,8|0|8,0:0|0:0|0:0,0:0:0:0:
156,348,61227,1,0,0:0:0:0:
312,360,61543,2,0,P|372:356|444:304,1,130
508,324,62016,2,0,B|476:288|428:276|400:220,1,130,0|8,0:0|0:0,0:0:0:0:
352,184,62490,1,0,0:0:0:0:
372,108,62648,6,0,P|364:60|268:32,1,130,0|8,0:0|0:0,0:0:0:0:
220,24,63122,1,0,0:0:0:0:
172,84,63280,2,0,L|132:156,1,65
204,184,63595,2,0,L|256:136,1,65,8|0,0:0|0:0,0:0:0:0:
300,204,63911,2,0,L|272:272,1,65
316,332,64227,2,0,P|272:340|240:336,1,65,8|0,0:0|0:0,0:0:0:0:
184,300,64543,1,0,0:0:0:0:
276,104,64858,1,8,0:0:0:0:
456,208,65174,5,0,0:0:0:0:
456,208,65490,2,0,P|412:248|332:272,1,130,8|0,0:0|0:0,0:0:0:0:
188,144,66122,2,0,B|256:180|256:180|288:200|280:248,2,130,8|0|8,0:0|0:0|0:0,0:0:0:0:
160,72,66911,2,0,P|120:104|112:136,1,65
36,112,67227,2,0,P|48:156|72:180,1,65,0|8,0:0|0:0,0:0:0:0:
120,220,67543,1,0,0:0:0:0:
164,284,67701,6,0,B|288:348|288:240|416:296,2,260,0|0|4,0:0|0:0|0:0,0:0:0:0:
308,92,70227,6,0,P|288:124|320:232,2,130,4|8|0,0:0|0:0|0:0,0:0:0:0:
384,72,71016,2,0,P|424:104|448:112,1,65,0|8,0:0|0:0,0:0:0:0:
504,148,71332,1,0,0:0:0:0:
380,243,71648,2,0,P|442:258|491:300,1,130
416,328,72122,2,0,P|384:320|352:320,1,65
276,344,72437,2,0,P|244:344|213:336,1,65,8|0,0:0|0:0,0:0:0:0:
140,304,72753,6,0,P|96:208|192:256,2,260,4|0|0,0:0|0:0|0:0,0:0:0:0:
260,204,74332,2,0,P|328:180|392:188,1,130,8|0,0:0|0:0,0:0:0:0:
504,284,74964,1,8,0:0:0:0:
504,284,75122,6,0,P|436:308|372:300,2,130,0|0|0,0:0|0:0|0:0,0:0:0:0:
500,208,75911,1,0,0:0:0:0:
492,132,76069,2,0,L|468:72,1,65,0|8,0:0|0:0,0:0:0:0:
392,52,76385,1,0,0:0:0:0:
328,96,76543,2,0,L|264:88,1,65,4|0,0:0|0:0,0:0:0:0:
200,36,76858,2,0,P|184:100|228:164,2,130,8|0|8,0:0|0:0|0:0,0:0:0:0:
200,36,77806,1,4,0:0:0:0:
400,244,79385,5,2,0:0:0:0:
360,312,79543,1,0,0:0:0:0:
284,328,79701,1,2,0:0:0:0:
180,212,80016,5,2,0:0:0:0:
220,144,80174,1,0,0:0:0:0:
296,128,80332,1,2,0:0:0:0:
120,312,81911,6,0,L|132:220,1,65,2|0,0:0|0:0,0:0:0:0:
140,168,82227,1,2,0:0:0:0:
256,64,82543,6,0,L|264:128,1,65,2|0,0:0|0:0,0:0:0:0:
276,204,82858,1,2,0:0:0:0:
432,104,94227,6,0,P|376:68|308:68,1,130,4|8,0:0|0:0,0:0:0:0:
248,112,94701,1,0,0:0:0:0:
248,188,94858,2,0,B|268:264|268:264|276:296|256:332,1,130,0|8,0:0|0:0,0:0:0:0:
196,356,95332,1,0,0:0:0:0:
64,272,95648,1,0,0:0:0:0:
128,128,95964,1,0,0:0:0:0:
88,60,96122,2,0,P|140:88|216:84,1,130,8|0,0:0|0:0,0:0:0:0:
356,32,96753,6,0,B|324:104|324:104|308:136|332:180,1,130,0|8,0:0|0:0,0:0:0:0:
388,196,97227,1,0,0:0:0:0:
464,176,97385,2,0,B|496:104|496:104|512:72|488:28,2,130,0|8|0,0:0|0:0|0:0,0:0:0:0:
440,332,98332,2,0,P|404:296|324:288,1,130,8|0,0:0|0:0,0:0:0:0:
260,244,98806,2,0,P|248:284|256:320,1,65,0|8,0:0|0:0,0:0:0:0:
204,368,99122,1,0,0:0:0:0:
136,328,99280,6,0,P|176:280|172:196,1,130,0|8,0:0|0:0,0:0:0:0:
108,180,99753,2,0,L|236:162,1,130
268,88,100227,2,0,P|300:108|316:148,1,65,8|0,0:0|0:0,0:0:0:0:
392,128,100543,2,0,B|368:196|368:196|352:232|376:264,1,130,0|8,0:0|0:0,0:0:0:0:
440,220,101016,2,0,B|464:176|468:128|492:88,1,130
256,192,101490,12,4,103069,0:0:0:0:
408,56,104332,6,0,P|452:96|460:184,1,130,4|8,0:0|0:0,0:0:0:0:
444,240,104806,1,0,0:0:0:0:
384,292,104964,2,0,B|328:336|328:336|296:360|248:336,1,130,0|8,0:0|0:0,0:0:0:0:
204,308,105437,1,0,0:0:0:0:
328,212,105753,1,0,0:0:0:0:
284,64,106069,1,0,0:0:0:0:
212,36,106227,2,0,P|172:28|72:60,2,130,0|8|4,0:0|0:0|0:0,0:0:0:0:
240,188,107174,6,0,B|168:180|168:180|132:176|100:200,1,130,8|0,0:0|0:0,0:0:0:0:
160,256,107648,2,0,L|272:268,1,65,0|8,0:0|0:0,0:0:0:0:
263,336,107964,1,0,0:0:0:0:
344,324,108122,2,0,P|364:292|360:252,1,65,4|0,0:0|0:0,0:0:0:0:
424,216,108437,2,0,P|380:188|348:192,1,65,8|0,0:0|0:0,0:0:0:0:
400,108,108753,2,0,B|336:152|336:152|304:176|264:152,1,130,0|8,0:0|0:0,0:0:0:0:
220,204,109227,6,0,P|216:128|272:84,2,130
236,280,110016,1,0,0:0:0:0:
184,336,110174,2,0,P|128:356|56:340,1,130
32,268,110648,1,0,0:0:0:0:
256,192,110727,12,4,111911,0:0:0:0:
424,120,113490,5,2,0:0:0:0:
360,76,113648,1,0,0:0:0:0:
280,72,113806,1,2,0:0:0:0:
256,228,114122,5,2,0:0:0:0:
252,304,114280,1,0,0:0:0:0:
188,344,114437,1,2,0:0:0:0:
80,120,116016,5,2,0:0:0:0:
168,80,116174,1,0,0:0:0:0:
260,116,116332,1,2,0:0:0:0:
336,296,116648,5,2,0:0:0:0:
328,204,116806,1,0,0:0:0:0:
372,124,116964,1,2,0:0:0:0:
204,316,118543,5,2,0:0:0:0:
248,208,118701,1,0,0:0:0:0:
228,92,118858,1,2,0:0:0:0:
168,248,119174,5,2,0:0:0:0:
288,296,119332,1,0,0:0:0:0:
404,252,119490,2,0,P|464:168|360:184,1,260,2|4,0:0|0:0,0:0:0:0:
