osu file format v9

[General]
AudioFilename: The Fairly OddParents - Icky Vicky (Lyrics).mp3
AudioLeadIn: 3000
PreviewTime: 31292
Countdown: 0
SampleSet: Soft
StackLeniency: 0.7
Mode: 0
LetterboxInBreaks: 1

[Editor]
DistanceSpacing: 0.8
BeatDivisor: 4
GridSize: 4

[Metadata]
Title:Icky Vicky
Artist:Chris Kirkpatrick
Creator:Katsuri
Version:Insane
Source:The Fairly OddParents
Tags:cosmo wanda timmy turner butch hartman ron jones arien666 arken1015 Chip skylark

[Difficulty]
HPDrainRate:8
CircleSize:4
OverallDifficulty:8
ApproachRate:8
SliderMultiplier:2.1
SliderTickRate:2

[Events]
//Background and Video events
0,0,"3368260372_895b2af8bb_b.jpg"
//Break Periods
//Storyboard Layer 0 (Background)
//Storyboard Layer 1 (Fail)
//Storyboard Layer 2 (Pass)
//Storyboard Layer 3 (Foreground)
//Storyboard Sound Samples
//Background Colour Transformations
3,100,163,162,255

[TimingPoints]
561,365.853658536585,4,2,0,100,1,0
31292,-100,4,2,0,100,0,1
44097,-100,4,2,0,100,0,0
55439,-200,4,2,0,100,0,0
56170,-100,4,2,0,100,0,0
62939,-100,4,2,0,100,0,1
63030,-100,4,2,0,100,0,0

[Colours]
Combo1 : 192,192,192
Combo2 : 15,230,31
Combo3 : 220,107,24
Combo4 : 205,27,31

[HitObjects]
84,152,561,2,0,B|96:96|152:56|216:96|232:160,1,210,2|8
392,104,1292,2,0,B|416:176|384:208|352:240|376:336,1,210,0|8
204,300,2024,1,2
272,248,2207,2,4,B|336:272|376:240|408:208|496:232,1,210
440,152,2756,2,0,B|376:152|304:192,1,105
338,175,3121,1,8
264,136,3304,5,0
208,72,3487,2,0,B|88:96|72:248,1,210,0|8
48,296,4036,1,0
136,296,4219,2,0,B|200:272|240:312|240:312|280:352|360:328,1,210,0|8
372,260,4768,1,0
340,184,4951,1,0
384,112,5134,1,0
312,72,5317,2,4,B|208:56|96:96,1,210,4|4
256,192,6414,12,4,7512
128,104,7878,5,0
184,48,8060,1,0
248,88,8243,1,2
320,128,8426,2,0,B|400:200|440:304,1,210
352,296,8975,1,2
272,312,9158,1,0
184,312,9341,2,0,B|112:328|56:248,2,105,0|0|2
152,232,9890,2,0,B|152:120|88:24,1,210
40,96,10439,5,2
80,168,10621,1,0
160,136,10804,2,0,B|224:144|280:176,1,105
312,104,11170,2,0,B|368:136|344:224,1,105,2|0
320,272,11536,2,0,B|376:296|432:240,2,105,0|0|2
232,272,12085,1,0
152,256,12268,2,0,B|16:216|64:80,2,210
184,176,13182,1,0
256,128,13365,1,2
400,216,13731,6,0,B|376:272|288:288,1,105
320,280,14097,1,2
240,312,14280,1,0
160,280,14463,1,0
104,216,14646,2,0,B|48:184|72:88,2,105,0|2|0
144,144,15195,1,0
112,64,15378,2,0,B|168:40|208:80|208:80|248:120|328:96,1,210
392,128,15926,1,0
440,200,16109,6,0,B|384:288|216:296,1,210
176,288,16658,2,0,B|120:272|96:200,1,105
88,136,17024,1,2
144,72,17207,1,0
216,112,17390,2,0,B|280:96|304:24,1,105
360,104,17756,1,2
424,152,17939,1,0
256,192,18121,12,0,19219
64,320,19585,5,4
256,32,19951,1,4
448,320,20317,1,4
64,152,20865,5,0
144,144,21048,2,0,B|216:88|280:192|344:128,1,210,0|2
344,48,21597,1,0
416,96,21780,1,0
448,176,21963,2,0,B|432:232|448:304,1,105,0|2
368,312,22329,2,0,B|264:272|128:288,1,210
104,224,22878,6,0,B|80:168|96:96,1,105,2|0
160,64,23243,2,0,B|216:80|288:64,1,105
344,40,23609,2,0,B|392:80|416:152,1,105,2|0
456,192,23975,6,0,B|424:240|360:264,1,105
320,200,24341,1,2
280,272,24524,1,0
240,200,24707,1,0
240,200,24890,2,4,B|184:176|144:216|144:216|104:256|32:232,1,210
128,88,25621,5,0
208,88,25804,2,0,B|272:88|320:136,1,105,2|0
384,144,26170,2,0,B|368:208|408:288,1,105
352,320,26536,6,0,B|296:336|216:304,1,105,2|0
168,304,26902,2,0,B|112:272|88:192,1,105
80,144,27268,1,2
152,96,27451,1,0
232,128,27634,2,0,B|264:80|336:56,1,105
400,72,28000,2,0,B|408:136|456:184,1,105,2|0
432,248,28365,2,0,B|392:288|320:312,1,105
344,304,28731,1,2
256,192,28914,12,0,30378
96,80,30743,5,0
32,128,30926,1,8
120,128,31109,1,0
56,184,31292,2,0,B|80:240|144:272,1,105
200,304,31658,2,0,B|256:288|312:312,1,105,8|0
384,280,32024,2,0,B|440:256|472:184,2,105,0|8|0
384,280,32573,2,0,B|392:152|288:64,1,210,4|0
240,56,33121,5,8
160,64,33304,2,0,B|96:96|64:176,1,105,0|0
80,216,33670,2,0,B|88:280|160:328,1,105,0|8
200,264,34036,1,8
256,328,34219,2,0,B|376:312|472:232,1,210,0|8
440,160,34768,1,0
416,80,34951,1,0
336,48,35134,2,4,B|280:48|208:96,2,105,0|8|0
440,104,36597,5,0
360,128,36780,1,8
440,104,36963,1,0
448,184,37146,2,0,B|408:224|344:232,1,105
280,272,37512,2,0,B|216:264|160:328,1,105,8|0
120,248,37878,2,0,B|72:208|64:120,2,105,0|8|0
72,160,38426,2,4,B|131:77|195:213|275:109,1,210,4|0
304,56,38975,6,0,B|344:96|368:152,1,105,8|0
448,144,39341,2,0,B|432:208|456:288,1,105
400,320,39707,2,0,B|344:304|272:320,1,105,8|0
216,296,40073,5,0
136,264,40256,1,0
96,192,40439,2,0,B|96:128|128:72,1,105,8|0
200,80,40804,2,0,B|264:80|328:40,1,105
344,128,41170,1,8
416,168,41353,1,0
416,168,41536,6,2,B|352:256|232:288,1,210,2|8
168,248,42085,1,0
160,240,42176,1,0
152,232,42268,1,0
96,176,42451,1,0
144,104,42634,1,8
256,192,43000,12,8,44097
384,144,44463,6,0,B|432:104|504:88,2,105,0|0|8
416,224,45012,2,0,B|368:336|208:328,1,210
168,304,45561,1,8
104,256,45743,1,0
80,176,45926,2,0,B|56:112|72:40,2,105,0|0|8
80,176,46475,2,0,B|176:112|200:208|296:136,1,210
216,88,47024,6,0,B|192:200|224:304,1,210,8|0
304,312,47573,2,0,B|360:328|416:296,1,105,0|8
448,224,47939,2,0,B|472:176|472:88,2,105
368,192,48487,1,8
328,120,48670,1,0
248,144,48853,2,4,B|192:40|64:112,2,210,4|0|4
232,224,49768,1,0
272,296,49951,1,8
112,248,50317,6,0,B|72:200|80:128,1,105
112,72,50682,1,8
192,88,50865,2,0,B|288:144|400:112,1,210
472,152,51414,2,0,B|448:216|480:296,1,105,8|0
392,224,51780,2,4,B|393:305|347:386,2,157.5,4|0|4
312,248,52512,2,0,B|256:216|176:200,1,105,0|0
168,280,52878,2,0,B|112:272|56:232,1,105,8|0
56,160,53243,6,0,B|16:120|16:48,2,105,0|0|8
136,184,53792,2,0,B|104:248,2,52.5
160,104,54158,2,0,B|224:88|296:96,1,105,0|8
344,56,54524,1,0
408,104,54707,2,4,B|448:160|416:208,1,105,4|0
344,168,55073,2,4,B|312:224|352:272,1,105,4|0
432,288,55439,6,4,B|416:376|264:376|248:264,1,210,4|0
184,280,56353,6,0,B|136:248|120:168,1,105,0|8
88,120,56719,1,0
96,112,56811,1,0
104,104,56902,1,0
184,88,57085,2,0,B|240:88|296:120,1,105,0|8
368,88,57451,1,0
400,168,57634,1,4
168,272,58182,1,4
104,120,58548,6,0,B|128:176|192:176,1,105,0|8
192,88,58914,1,0
272,72,59097,2,0,B|328:56|392:80,1,105
392,160,59463,1,8
464,200,59646,1,0
392,240,59829,1,0
464,280,60012,1,0
392,320,60195,2,0,B|336:328|248:312,1,105,8|0
208,296,60561,6,4,B|104:256|40:144,1,210,4|0
104,96,61109,2,4,B|176:192|296:256,1,210,4|0
336,272,61658,5,8
400,216,61841,1,0
424,296,62024,1,4
488,240,62207,1,0
360,112,62390,5,0
256,256,62573,1,0
152,112,62756,1,0
152,112,62939,1,0
