osu file format v9

[General]
AudioFilename: The Fairly OddParents - Icky Vicky (Lyrics).mp3
AudioLeadIn: 3000
PreviewTime: 31292
Countdown: 0
SampleSet: Soft
StackLeniency: 0.7
Mode: 0
LetterboxInBreaks: 1

[Editor]
DistanceSpacing: 1.1
BeatDivisor: 4
GridSize: 8

[Metadata]
Title:Icky Vicky
Artist:Chris Kirkpatrick
Creator:Katsuri
Version:Hard
Source:The Fairly OddParents
Tags:cosmo wanda timmy turner butch hartman ron jones arien666 arken1015 Chip skylark

[Difficulty]
HPDrainRate:6
CircleSize:4
OverallDifficulty:5
ApproachRate:6
SliderMultiplier:1.2
SliderTickRate:1

[Events]
//Background and Video events
0,0,"3368260372_895b2af8bb_b.jpg"
//Break Periods
//Storyboard Layer 0 (Background)
//Storyboard Layer 1 (Fail)
//Storyboard Layer 2 (Pass)
//Storyboard Layer 3 (Foreground)
//Storyboard Sound Samples
//Background Colour Transformations
3,100,163,162,255

[TimingPoints]
561,365.853658536585,4,2,0,100,1,0
31292,-100,4,2,0,100,0,1
44097,-100,4,2,0,100,0,0
62939,-100,4,2,0,100,0,1
63030,-100,4,2,0,100,0,0

[Colours]
Combo1 : 192,192,192
Combo2 : 15,230,31
Combo3 : 220,107,24
Combo4 : 205,27,31

[HitObjects]
144,152,561,2,0,B|160:40|312:40|328:120,1,240,0|8
248,168,1658,1,0
184,240,2024,1,0
216,272,2207,2,0,B|320:288|360:256,1,120,0|0
368,240,2756,1,0
400,208,2939,1,0
416,160,3122,1,8
440,64,3488,6,0,B|304:32|256:80|208:128|80:96,1,360,0|2
40,96,4768,1,0
24,144,4951,1,0
32,192,5134,1,0
64,232,5317,1,0
128,160,5683,1,8
256,192,6414,12,4,7878
416,192,8244,5,8
368,184,8427,1,0
320,176,8610,1,0
272,168,8792,2,0,B|192:152,1,60,0|8
200,112,9158,1,0
176,64,9341,6,0,B|96:80|72:152,1,120,0|8
80,176,9890,1,0
88,224,10073,1,0
120,264,10256,1,0
168,280,10439,1,8
216,272,10622,1,0
256,248,10805,6,0,B|280:184,1,60
320,208,11171,2,0,B|296:272,1,60,8|0
344,280,11536,2,0,B|368:216,1,60
408,240,11902,2,0,B|384:304,1,60,8|0
424,328,12268,1,0
424,328,12451,1,0
488,256,12817,1,0
440,168,13183,1,0
408,136,13366,5,8
376,96,13549,1,8
344,64,13732,2,0,B|280:24|208:48,1,120
240,88,14280,2,0,B|224:168|152:184,1,120
144,144,14829,6,0,B|64:72,1,60,8|0
56,88,15195,1,0
56,88,15378,1,0
40,184,15744,2,0,B|96:240|192:240,1,120
232,280,16475,5,0
272,256,16658,1,0
272,256,16841,1,0
320,256,17024,1,8
320,256,17207,1,0
368,240,17390,1,0
408,216,17573,1,0
440,184,17756,2,0,B|464:144|464:104,1,60,8|0
432,88,18122,6,0,B|368:64,1,60
336,88,18488,2,0,B|264:96,1,60,8|0
240,64,18853,2,0,B|96:24|48:168,1,240,4|0
104,240,19951,1,2
184,288,20317,1,4
128,152,20866,5,0
128,152,21049,2,0,B|208:168|240:120|272:72|368:88,1,240
352,152,21963,2,0,B|272:165|240:117|208:69|128:85,1,240
72,112,22878,1,8
48,176,23061,1,0
64,240,23244,1,0
104,288,23427,1,0
168,312,23610,1,8
232,304,23792,1,0
256,240,23975,6,0,B|264:168|320:128,1,120,0|8
376,144,24524,1,0
368,80,24707,1,0
368,80,24890,1,0
256,16,25256,6,0,B|200:80|88:104,1,180,4|8
48,64,25988,1,0
40,128,26171,1,0
64,192,26353,1,0
40,256,26536,5,8
48,320,26719,1,0
104,288,26902,2,0,B|176:288,1,60
184,224,27268,2,0,B|248:224,1,60,8|0
272,288,27634,2,0,B|336:288,1,60
360,224,28000,2,0,B|432:224,1,60,8|0
424,160,28366,1,0
392,104,28549,1,0
336,72,28731,1,8
256,176,29097,1,4
256,192,29829,12,0,31292
160,128,31658,5,8
152,192,31841,1,0
192,240,32024,1,0
256,232,32207,1,0
272,168,32390,1,8
264,104,32573,6,0,B|280:80|280:80|296:104|296:104|312:80|312:80|320:104|320:104|336:80|336:80|344:104|344:104|360:80|360:80,1,180,0|8
392,40,33305,1,0
440,88,33488,1,0
456,152,33671,1,0
448,216,33853,1,8
400,256,34036,2,0,B|376:280|336:288,1,60,0|0
216,304,34585,6,0,B|136:304,1,60,8|0
104,264,34951,2,0,B|48:296,2,60,0|0|8
112,200,35500,2,0,B|144:192|144:192|112:184|112:184|144:176|144:176|112:168|112:168|144:160|144:160|112:152|112:152|144:144|144:144|112:136|112:136|144:128|144:128|128:120,1,300
176,72,36597,1,0
232,48,36780,1,8
296,56,36963,1,0
352,88,37146,6,0,B|408:120|432:200,1,120,0|8
424,248,37695,1,0
392,304,37878,1,0
328,328,38061,1,8
264,336,38244,1,0
200,336,38427,6,4,B|192:312|192:312|184:336|184:336|176:312|176:312|168:336|168:336|160:312|160:312|152:336|152:336|144:312|144:312|136:336|136:336,1,180,0|8
80,296,39158,1,0
40,240,39341,1,0
48,176,39524,1,0
104,136,39707,1,8
160,160,39890,1,0
176,224,40073,6,0,B|248:224,1,60
240,160,40439,2,0,B|312:160,1,60,8|0
296,224,40805,2,0,B|368:224,1,60,0|0
360,160,41171,2,0,B|440:160,1,60,8|0
416,96,41536,2,0,B|368:40|296:32,1,120,0|8
256,56,42085,1,0
256,256,42634,1,4
256,192,43000,12,0,44463
176,160,44829,6,0,B|192:56|320:56|336:160,1,240,8|8
256,208,45927,2,0,B|272:264|256:304|240:344|256:392,2,180,0|0|8
184,144,47390,2,0,B|184:72,1,60
232,96,47756,2,0,B|232:32,1,60,8|0
280,32,48122,2,0,B|280:92,1,60
328,84,48488,2,0,B|328:144,1,60,8|0
328,192,48853,5,0
328,192,49036,1,0
256,256,49402,1,0
184,192,49768,1,0
136,184,49951,1,8
104,152,50134,1,2
96,104,50317,6,0,B|152:80,1,60
184,48,50683,1,8
184,48,50866,1,0
224,80,51049,2,0,B|279:103,1,60
312,136,51414,2,0,B|312:208,1,60,8|0
312,248,51780,1,0
312,248,51963,1,0
224,240,52329,2,0,B|96:240,1,120
112,144,53061,5,0
144,104,53244,2,0,B|184:32,1,60
224,56,53610,2,0,B|192:120,1,60,8|0
248,120,53975,2,0,B|272:64,1,60
312,88,54341,2,0,B|288:144,1,60,8|0
328,168,54707,1,2
336,216,54890,1,0
320,264,55073,1,2
280,288,55256,1,0
232,296,55439,2,0,B|96:352|8:240,1,240,4|0
112,160,56536,5,8
112,160,56719,1,0
160,112,56902,1,8
160,112,57085,1,0
216,72,57268,1,0
280,64,57451,1,0
344,72,57634,2,4,B|296:184,1,120,4|0
360,208,58183,2,4,B|408:96,1,120,4|0
472,104,58732,1,8
472,104,58914,1,8
472,168,59097,6,0,B|456:240,1,60
400,264,59463,2,0,B|376:336,1,60,8|0
312,312,59829,2,0,B|232:288,1,60
296,240,60195,2,0,B|232:216,1,60,8|0
192,264,60561,1,4
72,104,61110,1,4
200,72,61475,1,0
256,32,61658,1,8
312,72,61841,1,0
256,112,62024,5,0
184,224,62390,1,0
224,272,62573,1,0
288,272,62756,1,0
328,224,62939,1,4
