osu file format v9

[General]
AudioFilename: The Fairly OddParents - Icky Vicky (Lyrics).mp3
AudioLeadIn: 3000
PreviewTime: 31292
Countdown: 0
SampleSet: Soft
StackLeniency: 0.7
Mode: 0
LetterboxInBreaks: 1

[Editor]
DistanceSpacing: 0.8
BeatDivisor: 4
GridSize: 8

[Metadata]
Title:Icky Vicky
Artist:Chris Kirkpatrick
Creator:Katsuri
Version:Easy
Source:The Fairly OddParents
Tags:cosmo wanda timmy turner butch hartman ron jones arien666 arken1015 Chip skylark

[Difficulty]
HPDrainRate:1
CircleSize:3
OverallDifficulty:2
ApproachRate:2
SliderMultiplier:0.999999999999999
SliderTickRate:1

[Events]
//Background and Video events
0,0,"3368260372_895b2af8bb_b.jpg"
//Break Periods
//Storyboard Layer 0 (Background)
//Storyboard Layer 1 (Fail)
//Storyboard Layer 2 (Pass)
//Storyboard Layer 3 (Foreground)
//Storyboard Sound Samples
//Background Colour Transformations
3,100,163,162,255

[TimingPoints]
561,365.853658536585,4,2,0,100,1,0
31292,-100,4,2,0,100,0,1
44097,-100,4,2,0,100,0,0
62939,-100,4,2,0,100,0,1
63030,-100,4,2,0,100,0,0

[Colours]
Combo1 : 192,192,192
Combo2 : 15,230,31
Combo3 : 220,107,24
Combo4 : 205,27,31

[HitObjects]
264,96,561,2,0,B|288:152|256:192|224:232|248:288,1,200,0|8
400,232,2024,1,2
400,232,2573,1,4
160,256,3488,6,0,B|96:240|96:104|168:88,1,200,0|8
256,192,4951,2,0,B|256:176|304:192|360:208|360:192,2,99.9999999999999,8|0|4
128,96,6414,6,0,B|244:72|284:112|324:152|420:128,1,300
376,280,8244,6,0,B|341:291|325:275|277:291,1,99.9999999999999,0|8
256,136,9341,2,0,B|208:104|152:112,3,99.9999999999999,0|0|8|0
112,48,10805,2,0,B|0:64|-48:192|8:320|128:336,1,400
184,240,12817,1,8
184,240,13183,1,4
248,136,13732,6,0,B|456:136,1,200,0|8
472,296,15195,2,2,B|264:336,1,200,10|2
200,296,16292,1,0
256,240,16658,2,0,B|352:256|352:120|256:136|256:136|168:152|168:16|264:32,1,400,0|8
416,40,18853,1,4
352,184,19585,6,4,B|304:168|256:200|208:232|152:216,1,200
216,64,21049,6,0,B|104:104,1,99.9999999999999,0|8
176,160,21780,2,0,B|288:176,1,99.9999999999999,0|8
320,112,22512,1,0
392,152,22878,1,8
392,232,23244,1,0
328,280,23610,1,8
256,320,23975,6,0,B|176:272|80:320|80:320|80:248,1,250,0|8
104,176,25256,2,4,B|112:80|208:56,1,150,4|8
256,104,26171,1,0
256,184,26536,5,8
184,208,26902,2,0,B|200:288|312:288|328:216,1,200
256,184,28000,1,8
256,104,28366,2,0,B|312:120|336:104|360:88|408:96,2,150,0|8|8
256,104,29829,6,0,B|200:120|176:104|152:88|104:96,2,150,0|8|8
224,176,31292,6,0,B|168:256|184:360|256:373|328:360|344:256|288:176,1,400
256,104,33122,1,8
256,104,33488,1,8
256,104,33853,1,8
256,184,34219,6,0,B|232:256|296:248|248:328,2,150
256,104,35683,1,0
184,72,36049,1,8
256,32,36414,1,8
328,72,36780,1,8
328,152,37146,6,0,B|328:264,1,99.9999999999999,0|8
256,208,37878,2,0,B|256:320,1,99.9999999999999,0|8
184,264,38610,2,0,B|184:144,1,99.9999999999999,0|8
256,128,39341,1,0
256,128,39707,1,8
256,208,40073,6,8,B|272:248|256:288|232:336|248:376,2,150,0|8|8
256,208,41536,2,8,B|240:168|256:128|280:80|264:40,2,150,0|8|8
256,192,43000,12,0,44097
176,136,44829,5,8
160,216,45195,1,0
216,272,45561,1,8
256,344,45927,1,0
296,272,46292,1,8
352,216,46658,1,0
336,136,47024,1,8
256,160,47390,6,0,B|256:48,2,99.9999999999999,0|8|0
256,160,48488,1,8
256,240,48853,2,0,B|256:304,1,50
256,368,49402,1,4
176,184,50317,6,0,B|192:88|320:88|336:160,1,200
264,192,51414,1,8
264,272,51780,2,0,B|312:256|344:280|376:304|424:288,2,150,0|8|0
264,192,53244,5,4
200,144,53610,1,8
120,144,53975,1,4
56,192,54341,1,8
56,272,54707,1,4
128,232,55073,1,8
208,224,55439,2,0,B|200:304|248:368|328:376,1,200
360,304,56536,5,8
392,232,56902,1,0
400,152,57268,1,8
368,80,57634,5,4
256,40,58183,1,4
192,136,58732,1,8
240,200,59097,2,0,B|304:200|336:144,1,99.9999999999999,0|8
400,184,59829,2,0,B|422:225|486:225,1,99.9999999999999,0|8
472,144,60561,2,4,B|472:312,1,150
352,320,61658,1,8
280,288,62024,5,0
264,208,62390,2,4,B|280:160|256:136|232:112|248:48,1,150,8|4
