osu file format v9

[General]
AudioFilename: ChrisBrownForever.mp3
AudioLeadIn: 0
PreviewTime: 63016
Countdown: 0
SampleSet: Soft
StackLeniency: 0.7
Mode: 1
LetterboxInBreaks: 1

[Editor]
Bookmarks: 22685,30766,39016,47516,55266,63516,71266,79016,86766,95266,104016,110766,119266,127516,135766,142766,150266
DistanceSpacing: 1.2
BeatDivisor: 8
GridSize: 8

[Metadata]
Title:Forever
Artist:Chris Brown
Creator:dkun
Version:Taiko
Source:
Tags:mekadon animelover1432

[Difficulty]
HPDrainRate:3
CircleSize:5
OverallDifficulty:2
ApproachRate:5
SliderMultiplier:1.45
SliderTickRate:2

[Events]
//Background and Video events
0,0,"ChrisBrownWallpaper.jpg"
//Break Periods
//Storyboard Layer 0 (Background)
//Storyboard Layer 1 (Fail)
//Storyboard Layer 2 (Pass)
//Storyboard Layer 3 (Foreground)
//Storyboard Sound Samples
//Background Colour Transformations
3,100,163,162,255

[TimingPoints]
7260,500,4,2,0,90,1,0
79017,-100,4,2,0,90,0,1
95260,-100,4,2,0,90,0,0
143010,-100,4,2,0,90,0,1

[HitObjects]
256,192,7265,1,0
256,192,7766,1,0
256,192,8266,1,0
256,192,8766,1,0
256,192,9016,1,8
256,192,9266,1,0
256,192,9766,1,0
256,192,10266,1,0
256,192,10516,1,8
256,192,10766,1,0
256,192,11016,1,8
256,192,11266,1,0
256,192,11766,1,0
256,192,12266,1,0
256,192,12766,1,0
256,192,13016,1,8
256,192,13266,1,0
256,192,13766,1,0
256,192,14266,1,0
256,192,14516,1,8
256,192,14641,1,8
256,192,14766,1,0
256,192,15016,1,8
256,192,15266,1,4
256,192,15766,1,0
256,192,16266,1,0
256,192,16516,1,8
256,192,16766,1,0
256,192,17016,1,8
256,192,17266,1,0
256,192,17766,1,0
256,192,18266,1,0
256,192,18516,1,8
256,192,18766,1,0
256,192,19016,1,8
256,192,19266,1,0
256,192,19766,1,0
256,192,20266,1,0
256,192,20516,1,8
256,192,20766,1,0
256,192,21016,1,8
256,192,21141,1,8
256,192,21266,1,0
256,192,21766,1,0
256,192,22266,1,8
256,192,22391,1,0
256,192,22516,1,8
256,192,22766,1,0
256,192,23016,1,0
256,192,23266,1,4
256,192,23641,1,0
256,192,23766,1,0
256,192,24016,1,0
256,192,24266,1,0
256,192,24391,1,0
256,192,24516,1,8
256,192,24766,1,0
256,192,25016,1,8
256,192,25266,1,0
256,192,25641,1,8
256,192,25766,1,0
256,192,26016,1,0
256,192,26266,1,0
256,192,26391,1,0
256,192,26516,1,8
256,192,26766,1,0
256,192,27016,1,8
256,192,27266,1,0
256,192,27516,1,8
256,192,27766,1,8
256,192,28016,1,8
256,192,28141,1,8
256,192,28266,1,0
256,192,28516,1,8
256,192,28766,1,0
256,192,29016,1,8
256,192,29266,1,0
256,192,29516,1,8
256,192,29766,1,0
256,192,30016,1,8
256,192,30141,1,8
256,192,30266,1,0
256,192,30516,1,8
256,192,30766,1,4
256,192,31016,1,8
256,192,31266,1,4
256,192,31766,1,0
256,192,32141,1,8
256,192,32266,1,0
256,192,32516,1,0
256,192,32766,1,8
256,192,32891,1,8
256,192,33016,1,8
256,192,33266,1,0
256,192,33516,1,8
256,192,33766,1,0
256,192,34141,1,8
256,192,34266,1,0
256,192,34516,1,0
256,192,34766,1,8
256,192,34891,1,8
256,192,35016,1,8
256,192,35266,1,0
256,192,35766,1,0
256,192,36141,1,8
256,192,36266,1,0
256,192,36516,1,0
256,192,36766,1,8
256,192,36891,1,8
256,192,37016,1,8
256,192,37266,1,0
256,192,37516,1,8
256,192,37766,1,0
256,192,38016,1,0
256,192,38141,1,0
256,192,38266,1,0
256,192,38516,1,0
256,192,38641,1,0
256,192,38766,1,0
256,192,39016,1,12
256,192,39516,1,0
256,192,39766,1,0
256,192,40016,1,8
256,192,40266,1,8
256,192,40516,1,0
256,192,40766,1,8
256,192,41016,1,12
256,192,41516,1,0
256,192,41766,1,0
256,192,42016,1,8
256,192,42266,1,0
256,192,42391,1,0
256,192,42516,1,0
256,192,42766,1,0
256,192,43016,1,8
256,192,43516,2,0,B|256:96,3,72.5
256,192,44766,1,0
256,192,44891,1,0
256,192,45016,1,0
256,192,45516,12,0,46266
256,192,46766,5,0
256,192,47141,1,0
256,192,47266,1,0
256,192,47516,1,8
256,192,47766,1,8
256,192,48016,1,0
256,192,48266,1,0
256,192,48391,1,0
256,192,48516,1,0
256,192,48766,1,0
256,192,49016,1,8
256,192,49141,1,8
256,192,49266,1,0
256,192,49516,1,8
256,192,49766,1,0
256,192,50016,1,0
256,192,50141,1,0
256,192,50266,1,8
256,192,50516,1,8
256,192,50766,1,0
256,192,50891,1,0
256,192,51016,1,8
256,192,51266,1,0
256,192,51516,1,8
256,192,51641,1,8
256,192,51766,1,0
256,192,52016,1,8
256,192,52266,1,0
256,192,52516,1,8
256,192,52599,1,0
256,192,52682,1,0
256,192,52766,1,0
256,192,53016,1,8
256,192,53266,1,0
256,192,53516,1,8
256,192,53599,1,8
256,192,53682,1,8
256,192,53766,1,0
256,192,54016,1,0
256,192,54266,1,0
256,192,54391,1,0
256,192,54641,1,0
256,192,54766,1,0
256,192,55016,1,8
256,192,55266,1,4
256,192,55516,1,8
256,192,55766,1,0
256,192,56016,1,8
256,192,56141,1,8
256,192,56266,1,0
256,192,56516,1,8
256,192,56766,1,0
256,192,57016,1,8
256,192,57141,1,8
256,192,57266,1,0
256,192,57516,1,0
256,192,57766,1,0
256,192,57891,1,0
256,192,58016,1,0
256,192,58266,1,0
256,192,58516,1,8
256,192,58641,1,0
256,192,58766,1,0
256,192,59016,1,8
256,192,59266,1,0
256,192,59516,1,0
256,192,59641,1,0
256,192,59766,1,8
256,192,60016,1,8
256,192,60266,1,0
256,192,60391,1,0
256,192,60516,1,8
256,192,60766,1,0
256,192,61016,1,8
256,192,61141,1,8
256,192,61266,1,0
256,192,61516,1,8
256,192,61641,1,0
256,192,61891,1,8
256,192,62016,1,0
256,192,62266,1,0
256,192,62516,1,8
256,192,62641,1,0
256,192,62891,1,0
256,192,63141,1,8
256,192,63266,1,0
256,192,63516,1,8
256,192,63766,1,0
256,192,64016,1,8
256,192,64141,1,8
256,192,64266,1,0
256,192,64516,1,8
256,192,64766,1,0
256,192,64891,1,0
256,192,65016,1,8
256,192,65266,1,0
256,192,65516,1,8
256,192,65641,1,8
256,192,65766,1,0
256,192,66016,1,8
256,192,66266,1,0
256,192,66516,1,8
256,192,66641,1,8
256,192,66766,1,0
256,192,66891,1,8
256,192,67016,1,8
256,192,67266,1,0
256,192,67516,1,8
256,192,67641,1,8
256,192,67766,1,0
256,192,68016,1,8
256,192,68141,1,8
256,192,68266,1,0
256,192,68391,1,8
256,192,68516,1,8
256,192,68766,1,0
256,192,69016,1,8
256,192,69141,1,8
256,192,69266,1,0
256,192,69516,1,8
256,192,69766,1,0
256,192,69891,1,0
256,192,70141,1,0
256,192,70266,1,0
256,192,70516,1,8
256,192,70766,1,0
256,192,71016,1,8
256,192,71266,1,0
256,192,71516,1,8
256,192,71641,1,8
256,192,71766,1,0
256,192,72016,1,8
256,192,72266,1,0
256,192,72391,1,0
256,192,72516,1,8
256,192,72766,1,8
256,192,73016,1,0
256,192,73078,1,0
256,192,73141,1,0
256,192,73203,1,0
256,192,73266,1,8
256,192,73516,1,8
256,192,73766,1,0
256,192,73891,1,0
256,192,74016,1,8
256,192,74266,1,0
256,192,74516,1,0
256,192,74578,1,0
256,192,74641,1,0
256,192,74703,1,0
256,192,74766,1,8
256,192,75016,1,8
256,192,75266,1,0
256,192,75516,1,0
256,192,75578,1,0
256,192,75641,1,0
256,192,75703,1,0
256,192,75766,1,8
256,192,76016,1,8
256,192,76266,1,0
256,192,76516,1,0
256,192,76578,1,0
256,192,76641,1,0
256,192,76703,1,0
256,192,76766,1,8
256,192,77016,1,8
256,192,77266,1,0
256,192,77391,1,0
256,192,77516,1,8
256,192,77766,1,0
256,192,77891,1,0
256,192,78016,1,8
256,192,78266,1,0
256,192,78766,1,0
256,192,79016,1,0
256,192,79266,1,0
256,192,79516,1,8
256,192,79641,1,8
256,192,79766,1,0
256,192,80016,1,8
256,192,80266,1,0
256,192,80516,1,0
256,192,80641,1,0
256,192,80766,1,8
256,192,81016,1,8
256,192,81266,1,0
256,192,81516,1,8
256,192,81641,1,8
256,192,81766,1,0
256,192,82016,1,8
256,192,82141,1,8
256,192,82266,1,0
256,192,82516,1,8
256,192,82641,1,8
256,192,82766,1,0
256,192,82891,1,8
256,192,83016,1,8
256,192,83141,1,8
256,192,83266,1,0
256,192,83516,1,8
256,192,83766,1,0
256,192,84016,1,8
256,192,84141,1,8
256,192,84266,1,0
256,192,84516,1,8
256,192,84641,1,8
256,192,84766,1,0
256,192,85016,1,8
256,192,85141,1,8
256,192,85266,1,0
256,192,85391,1,8
256,192,85516,1,8
256,192,85578,1,8
256,192,85641,1,8
256,192,85703,1,8
256,192,85766,1,0
256,192,86016,1,8
256,192,86266,1,0
256,192,86516,1,8
256,192,86641,1,8
256,192,86766,1,0
256,192,87016,1,8
256,192,87141,1,8
256,192,87266,1,0
256,192,87516,1,8
256,192,87641,1,8
256,192,87766,1,0
256,192,87891,1,8
256,192,87953,1,8
256,192,88016,1,8
256,192,88266,1,8
256,192,88391,1,8
256,192,88516,1,0
256,192,88641,1,8
256,192,88766,1,8
256,192,88891,1,8
256,192,88953,1,8
256,192,89016,1,8
256,192,89266,1,0
256,192,89516,1,8
256,192,89641,1,8
256,192,89766,1,0
256,192,90016,1,8
256,192,90141,1,8
256,192,90266,1,0
256,192,90391,1,8
256,192,90453,1,8
256,192,90516,1,8
256,192,90641,1,8
256,192,90766,1,0
256,192,91016,1,8
256,192,91141,1,8
256,192,91266,1,0
256,192,91516,1,8
256,192,91641,1,8
256,192,91766,1,0
256,192,92016,1,8
256,192,92078,1,8
256,192,92141,1,8
256,192,92203,1,8
256,192,92266,1,0
256,192,92391,1,8
256,192,92516,1,8
256,192,92641,1,8
256,192,92766,1,0
256,192,93016,1,8
256,192,93141,1,8
256,192,93266,1,0
256,192,93516,1,8
256,192,93641,1,8
256,192,93766,1,0
256,192,94016,1,8
256,192,94141,1,8
256,192,94266,1,0
256,192,94328,1,0
256,192,94391,1,0
256,192,94516,1,8
256,192,94641,1,8
256,192,94766,1,0
256,192,94828,1,0
256,192,94891,1,0
256,192,95016,1,8
256,192,95141,1,8
256,192,95266,1,0
256,192,95516,1,8
256,192,95766,1,0
256,192,96016,1,8
256,192,96141,1,8
256,192,96266,1,0
256,192,96516,1,8
256,192,96766,1,0
256,192,97016,1,0
256,192,97141,1,0
256,192,97266,1,8
256,192,97516,1,8
256,192,97766,1,0
256,192,97891,1,0
256,192,98016,1,8
256,192,98266,1,0
256,192,98391,1,0
256,192,98516,1,8
256,192,98766,1,0
256,192,98891,1,0
256,192,99016,1,8
256,192,99141,1,0
256,192,99266,1,8
256,192,99516,1,8
256,192,99766,1,0
256,192,100016,1,8
256,192,100141,1,8
256,192,100266,1,0
256,192,100516,1,8
256,192,100641,1,8
256,192,100766,1,0
256,192,100891,1,8
256,192,101016,1,0
256,192,101266,1,0
256,192,101516,1,8
256,192,101641,1,8
256,192,101766,1,0
256,192,102016,1,0
256,192,102266,1,8
256,192,102391,1,8
256,192,102516,1,0
256,192,102766,1,0
256,192,103016,1,8
256,192,103266,1,0
256,192,103516,1,8
256,192,103641,1,8
256,192,103766,1,0
256,192,104016,1,8
256,192,104266,1,0
256,192,104391,1,0
256,192,104516,1,8
256,192,104766,1,0
256,192,105016,1,8
256,192,105078,1,8
256,192,105141,1,8
256,192,105203,1,8
256,192,105266,1,0
256,192,105516,1,8
256,192,105766,1,0
256,192,106016,1,8
256,192,106266,1,0
256,192,106516,1,8
256,192,106578,1,8
256,192,106641,1,8
256,192,106703,1,8
256,192,106766,1,0
256,192,107016,1,8
256,192,107266,1,0
256,192,107391,1,8
256,192,107641,1,0
256,192,107891,1,8
256,192,108016,1,0
256,192,108266,1,8
256,192,108516,1,8
256,192,108641,1,0
256,192,108891,1,8
256,192,109016,1,0
256,192,109266,1,0
256,192,109516,1,8
256,192,109641,1,0
256,192,109891,1,8
256,192,110016,1,0
256,192,110266,1,0
256,192,110516,1,8
256,192,110766,1,0
256,192,111016,1,8
256,192,111266,1,4
256,192,111516,1,0
256,192,111641,1,0
256,192,111766,1,0
256,192,112016,1,0
256,192,112141,1,8
256,192,112391,1,8
256,192,112641,1,0
256,192,112766,1,8
256,192,113016,1,8
256,192,113266,1,4
256,192,113516,1,8
256,192,113641,1,8
256,192,113766,1,0
256,192,114016,1,8
256,192,114141,1,0
256,192,114391,1,0
256,192,114641,1,8
256,192,114766,1,0
256,192,115016,12,0,115516
256,192,116266,5,0
256,192,116516,1,8
256,192,116766,1,0
256,192,117016,1,8
256,192,117141,1,8
256,192,117266,1,0
256,192,117516,1,8
256,192,117766,1,0
256,192,118016,1,8
256,192,118141,1,8
256,192,118266,1,0
256,192,118516,1,8
256,192,118766,1,0
256,192,119016,1,0
256,192,119266,1,0
256,192,119328,1,0
256,192,119391,1,0
256,192,119516,1,8
256,192,119641,1,8
256,192,119766,1,0
256,192,119828,1,0
256,192,119891,1,0
256,192,120016,1,8
256,192,120141,1,0
256,192,120266,1,0
256,192,120391,1,8
256,192,120516,1,8
256,192,120641,1,0
256,192,120766,1,0
256,192,120891,1,8
256,192,121016,1,8
256,192,121266,1,0
256,192,121328,1,0
256,192,121391,1,0
256,192,121516,1,0
256,192,121641,1,0
256,192,121766,1,0
256,192,121828,1,0
256,192,121891,1,0
256,192,122016,1,0
256,192,122141,1,0
256,192,122266,1,8
256,192,122391,1,8
256,192,122516,1,0
256,192,122641,1,8
256,192,122766,1,8
256,192,122891,1,8
256,192,123016,1,8
256,192,123141,1,8
256,192,123266,1,0
256,192,123641,1,0
256,192,123766,1,0
256,192,124141,1,0
256,192,124266,1,0
256,192,124641,1,0
256,192,124703,1,0
256,192,124766,1,0
256,192,125141,1,0
256,192,125266,1,0
256,192,125641,1,0
256,192,125766,1,0
256,192,126141,1,0
256,192,126203,1,0
256,192,126266,1,0
256,192,126641,1,8
256,192,126766,1,0
256,192,127016,1,0
256,192,127266,1,4
256,192,127516,1,8
256,192,127641,1,8
256,192,127766,1,0
256,192,128016,1,8
256,192,128266,1,0
256,192,128516,1,8
256,192,128641,1,8
256,192,128766,1,0
256,192,129016,1,8
256,192,129266,1,0
256,192,129391,1,0
256,192,129516,1,8
256,192,129766,1,0
256,192,130016,1,8
256,192,130141,1,8
256,192,130266,1,0
256,192,130516,1,8
256,192,130766,1,0
256,192,131016,1,0
256,192,131141,1,0
256,192,131266,1,8
256,192,131516,1,8
256,192,131766,1,0
256,192,131891,1,8
256,192,132016,1,0
256,192,132141,1,0
256,192,132266,1,8
256,192,132516,1,8
256,192,132766,1,0
256,192,133016,1,8
256,192,133141,1,8
256,192,133266,1,0
256,192,133516,1,0
256,192,133766,1,8
256,192,133891,1,8
256,192,134016,1,0
256,192,134266,1,4
256,192,134641,1,0
256,192,134766,1,0
256,192,135016,1,12
256,192,135266,1,4
256,192,135516,1,8
256,192,135641,1,8
256,192,135766,1,0
256,192,136016,1,8
256,192,136266,1,0
256,192,136516,1,8
256,192,136641,1,8
256,192,136766,1,0
256,192,137016,1,8
256,192,137266,1,0
256,192,137391,1,8
256,192,137516,1,8
256,192,137766,1,0
256,192,138016,1,8
256,192,138141,1,0
256,192,138266,1,8
256,192,138516,1,0
256,192,138766,1,0
256,192,138891,1,8
256,192,139016,1,8
256,192,139141,1,8
256,192,139266,1,8
256,192,139516,1,0
256,192,139766,1,8
256,192,139891,1,8
256,192,140016,1,0
256,192,140266,1,0
256,192,140516,1,8
256,192,140641,1,8
256,192,140766,1,0
256,192,141016,1,8
256,192,141266,1,0
256,192,141516,1,0
256,192,141641,1,0
256,192,141766,1,8
256,192,142016,1,8
256,192,142266,1,0
256,192,142391,1,0
256,192,142516,1,8
256,192,142766,1,0
256,192,143016,1,8
256,192,143266,1,0
256,192,143391,1,0
256,192,143516,1,8
256,192,143641,1,8
256,192,143766,1,0
256,192,143891,1,0
256,192,144016,1,8
256,192,144141,1,8
256,192,144266,1,0
256,192,144328,1,0
256,192,144391,1,0
256,192,144516,1,8
256,192,144641,1,8
256,192,144766,1,0
256,192,145016,1,8
256,192,145141,1,8
256,192,145266,1,0
256,192,145328,1,0
256,192,145391,1,0
256,192,145516,1,8
256,192,145641,1,8
256,192,145766,1,0
256,192,145828,1,0
256,192,145891,1,0
256,192,146016,1,8
256,192,146141,1,8
256,192,146203,1,8
256,192,146266,1,0
256,192,146516,1,0
256,192,146641,1,0
256,192,146766,1,0
256,192,146891,1,8
256,192,146953,1,8
256,192,147016,1,0
256,192,147141,1,8
256,192,147266,1,8
256,192,147391,1,0
256,192,147453,1,0
256,192,147516,1,8
256,192,147641,1,0
256,192,147703,1,0
256,192,147766,1,8
256,192,147891,1,8
256,192,148016,1,0
256,192,148141,1,0
256,192,148266,1,0
256,192,148516,1,0
256,192,148578,1,0
256,192,148641,1,0
256,192,148766,1,0
256,192,148828,1,0
256,192,148891,1,0
256,192,149016,1,0
256,192,149266,1,8
256,192,149328,1,8
256,192,149391,1,0
256,192,149516,1,8
256,192,149641,1,0
256,192,149703,1,0
256,192,149766,1,8
256,192,149891,1,8
256,192,150016,1,0
256,192,150266,1,0
256,192,150328,1,0
256,192,150391,1,8
256,192,150516,1,8
256,192,150641,1,0
256,192,150703,1,0
256,192,150766,1,8
256,192,150891,1,8
256,192,151016,1,0
256,192,151266,1,0
256,192,151328,1,0
256,192,151391,1,8
256,192,151516,1,0
256,192,151578,1,0
256,192,151641,1,8
256,192,151703,1,8
256,192,151766,1,0
256,192,151891,1,8
256,192,152016,1,0
256,192,152266,1,0
256,192,152328,1,0
256,192,152391,1,8
256,192,152516,1,0
256,192,152578,1,0
256,192,152641,1,8
256,192,152703,1,0
256,192,152766,1,8
256,192,152891,1,8
256,192,153016,1,0
256,192,153266,1,0
256,192,153391,1,8
256,192,153453,1,8
256,192,153516,1,0
256,192,153641,1,8
256,192,153703,1,8
256,192,153766,1,0
256,192,153828,1,8
256,192,153891,1,8
256,192,154016,1,8
256,192,154141,1,8
256,192,154266,1,0
256,192,154391,1,8
256,192,154516,1,0
256,192,154766,1,0
256,192,154891,1,8
256,192,155016,1,0
256,192,155141,1,8
256,192,155203,1,0
256,192,155266,1,0
256,192,155391,1,8
256,192,155453,1,8
256,192,155516,1,0
256,192,155641,1,8
256,192,155766,1,0
256,192,156016,1,0
256,192,156141,1,0
256,192,156266,1,8
256,192,156391,1,0
256,192,156516,1,0
256,192,156766,1,0
256,192,156891,1,8
256,192,157016,1,0
256,192,157078,1,0
256,192,157141,1,8
256,192,157266,1,0
256,192,157328,1,0
256,192,157391,1,8
256,192,157516,1,0
256,192,157578,1,0
256,192,157641,1,8
256,192,157766,1,8
256,192,158016,1,8
256,192,158266,1,8
256,192,158766,1,0
