osu file format v12

[General]
AudioFilename: Asthmatic Balls.mp3
AudioLeadIn: 0
PreviewTime: 10143
Countdown: 3
SampleSet: None
StackLeniency: 0.7
Mode: 0
LetterboxInBreaks: 1
WidescreenStoryboard: 0

[Editor]
Bookmarks: 5839,36882
DistanceSpacing: 1
BeatDivisor: 4
GridSize: 8

[Metadata]
Title:Asthmatic Balls
TitleUnicode:Asthmatic Balls
Artist:Chriddof
ArtistUnicode:Chriddof
Creator:Royston
Version:Balls
Source:
Tags:Chriddof you beautiful son of a bitch better singing than aha
BeatmapID:308159
BeatmapSetID:120168

[Difficulty]
HPDrainRate:8
CircleSize:3
OverallDifficulty:7
ApproachRate:7
SliderMultiplier:2.4
SliderTickRate:2

[Events]
//Background and Video events
0,0,"ss (2013-10-03 at 02.46.11).jpg",0,0
//Break Periods
2,26908,32069
//Storyboard Layer 0 (Background)
//Storyboard Layer 1 (Fail)
//Storyboard Layer 2 (Pass)
//Storyboard Layer 3 (Foreground)
//Storyboard Sound Samples
//Background Colour Transformations
3,100,255,255,255

[TimingPoints]
6100,521.739130434783,4,3,0,30,1,0
32969,521.739130434783,4,3,0,30,1,0
38577,-66.6666666666667,4,3,0,45,0,1
39099,-100,4,3,0,30,0,0
40403,-66.6666666666667,4,3,0,45,0,1
41186,-100,4,3,0,30,0,0
42490,-66.6666666666667,4,3,0,45,0,1
43403,-100,4,3,0,30,0,0
44577,-66.6666666666667,4,3,0,45,0,1
45360,-100,4,3,0,30,0,0

[Colours]
Combo1 : 128,128,128
Combo2 : 0,0,0

[HitObjects]
96,296,6100,2,0,L|216:296,1,120,0|2,0:0|0:0,0:0:0:0:
136,208,6621,2,0,L|256:208,1,120,0|2,0:0|0:0,0:0:0:0:
416,296,7143,2,0,L|296:296,1,120,0|2,0:0|0:0,0:0:0:0:
376,208,7664,2,0,L|256:208,1,120,0|2,0:0|0:0,0:0:0:0:
64,40,8186,6,0,L|64:160,1,120,0|2,0:0|0:0,0:0:0:0:
448,344,8708,2,0,L|448:224,1,120,0|2,0:0|0:0,0:0:0:0:
280,40,9230,2,0,L|160:40,1,120,0|2,0:0|0:0,0:0:0:0:
232,344,9752,2,0,L|352:344,1,120,0|2,0:0|0:0,0:0:0:0:
48,344,10273,6,0,P|112:336|112:280,1,120,8|2,0:0|0:0,0:0:0:0:
40,264,10665,1,0,0:0:0:0:
56,88,11056,2,0,B|192:144|464:144|464:288,1,480,6|2,0:0|0:0,0:0:0:0:
464,40,12360,6,0,P|400:48|400:104,1,120,8|2,0:0|0:0,0:0:0:0:
472,120,12752,1,0,0:0:0:0:
456,296,13143,2,0,B|320:240|48:240|48:96,1,480,6|2,0:0|0:0,0:0:0:0:
160,56,14447,6,0,P|232:48|344:48,2,180,0|0|2,0:0|0:0|0:0,0:0:0:0:
80,144,15491,1,0,0:0:0:0:
200,168,15752,1,2,0:0:0:0:
120,256,16013,1,0,0:0:0:0:
312,136,16273,1,2,0:0:0:0:
272,256,16534,1,0,0:0:0:0:
488,48,16795,2,0,B|472:184|488:344|488:344|456:336|64:344,1,720,2|2,0:1|0:0,0:0:0:0:
48,40,18621,6,0,P|112:48|112:104,1,120,8|2,0:0|0:0,0:0:0:0:
40,120,19013,1,0,0:0:0:0:
56,296,19404,2,0,B|192:240|464:240|464:96,1,480,6|2,0:0|0:0,0:0:0:0:
464,344,20708,6,0,P|400:336|400:280,1,120,8|2,0:0|0:0,0:0:0:0:
472,264,21100,1,0,0:0:0:0:
456,88,21491,2,0,B|320:144|48:144|48:288,1,480,6|2,0:0|0:0,0:0:0:0:
160,328,22795,6,0,P|232:336|344:336,2,180,0|0|2,0:0|0:0|0:0,0:0:0:0:
80,240,23839,1,0,0:0:0:0:
200,216,24100,1,2,0:0:0:0:
120,128,24361,1,0,0:0:0:0:
312,248,24621,1,2,0:0:0:0:
272,128,24882,1,0,0:0:0:0:
488,336,25143,2,0,B|472:200|488:40|488:40|456:48|64:40,1,720,2|2,0:1|0:0,0:0:0:0:
16,336,32969,6,0,L|104:240,1,120,0|2,0:0|0:0,0:0:0:0:
496,336,33490,2,0,L|408:240,1,120,0|2,0:0|0:0,0:0:0:0:
168,32,34012,2,0,L|168:152,1,120,0|2,0:0|0:0,0:0:0:0:
344,32,34534,2,0,L|344:152,1,120,0|2,0:0|0:0,0:0:0:0:
256,344,35055,6,0,L|256:224,1,120,0|2,0:0|0:0,0:0:0:0:
16,32,35577,2,0,L|144:32,1,120,0|2,0:0|0:0,0:0:0:0:
496,352,36099,2,0,L|368:352,1,120,0|2,0:0|0:0,0:0:0:0:
256,40,36621,2,0,L|256:160,1,120,0|2,0:0|0:0,0:0:0:0:
32,256,37142,6,0,P|72:312|120:304,1,120,8|2,0:0|0:0,0:0:0:0:
176,272,37534,1,0,0:0:0:0:
200,208,37664,2,0,B|176:192|176:192|176:176|176:176|200:192|200:192|192:184|192:184|232:136,1,120,0|2,0:0|0:0,0:0:0:0:
384,112,38186,6,0,P|432:176|400:200,1,120,4|2,0:0|0:0,0:0:0:0:
384,256,38577,1,0,0:0:0:0:
312,304,38708,2,0,L|312:120,1,180.000006866455,2|4,0:1|0:1,0:0:0:0:
88,48,39229,6,0,L|16:128,1,80,8|0,0:0|0:0,0:0:0:0:
48,224,39664,1,0,0:0:0:0:
136,312,39925,1,0,0:0:0:0:
136,312,40012,2,0,P|192:272|192:224,1,120,2|0,0:0|0:0,0:0:0:0:
272,32,40534,2,0,L|456:64,2,180.000006866455,8|2|4,0:0|0:1|0:1,0:0:0:0:
8,96,41316,5,0,0:0:0:0:
320,152,41577,1,2,0:0:0:0:
360,152,41708,1,0,0:0:0:0:
192,232,41969,1,0,0:0:0:0:
152,232,42099,1,2,0:0:0:0:
256,336,42360,1,0,0:0:0:0:
128,40,42621,1,2,0:0:0:0:
128,40,42751,1,0,0:0:0:0:
128,40,42882,2,0,P|216:80|160:112,2,180.000006866455,2|4|0,0:1|0:1|0:1,0:0:0:0:
40,104,43664,5,2,0:0:0:0:
64,176,43795,2,0,P|64:296|112:344,1,180,0|2,0:0|0:0,0:0:0:0:
200,264,44447,1,6,0:0:0:0:
376,280,44708,1,0,0:0:0:0:
376,280,44838,1,0,0:0:0:0:
376,280,44969,2,0,L|448:104,1,180,2|4,0:1|0:1,0:0:0:0:
200,56,45490,5,0,0:0:0:0:
288,136,45751,2,0,P|240:160|232:192,1,60,2|0,0:0|0:0,0:0:0:0:
88,216,46273,2,0,B|128:264|184:208|136:112|136:112|24:128|24:128|0:288|32:328,1,480,2|2,0:0|0:0,0:0:0:0:
312,328,47577,5,0,0:0:0:0:
224,248,47838,2,0,P|272:224|280:192,1,60,2|0,0:0|0:0,0:0:0:0:
424,168,48360,2,0,B|384:120|328:176|376:272|376:272|488:256|488:256|512:96|480:56,1,480,2|2,0:0|0:0,0:0:0:0:
256,32,49664,5,0,0:0:0:0:
256,104,49925,2,0,L|256:168,1,60,2|0,0:0|0:0,0:0:0:0:
120,112,50186,1,0,0:0:0:0:
120,112,50447,1,2,0:0:0:0:
56,216,50708,1,0,0:0:0:0:
56,216,50969,1,2,0:0:0:0:
24,64,51229,1,0,0:0:0:0:
24,64,51490,1,2,0:0:0:0:
232,320,51751,1,0,0:0:0:0:
88,336,52012,2,0,B|160:256|152:200|168:128|168:128|272:208|216:112|312:160|391:115|408:104|472:48|491:112|424:360,1,720,2|2,0:1|0:0,0:0:0:0:
96,80,53838,5,0,0:0:0:0:
136,160,54099,2,0,L|200:120,1,60,2|0,0:0|0:0,0:0:0:0:
176,48,54621,2,0,P|344:56|288:320,1,480,2|2,0:0|0:0,0:0:0:0:
96,304,55925,5,0,0:0:0:0:
136,224,56186,2,0,L|200:264,1,60,2|0,0:0|0:0,0:0:0:0:
176,336,56708,2,0,P|344:328|288:64,1,480,2|2,0:0|0:0,0:0:0:0:
32,48,58012,5,0,0:0:0:0:
32,136,58273,2,0,L|32:200,1,60,2|0,0:0|0:0,0:0:0:0:
128,344,58534,1,0,0:0:0:0:
224,40,58795,1,2,0:0:0:0:
72,344,59055,1,0,0:0:0:0:
272,40,59316,1,2,0:0:0:0:
16,344,59577,1,0,0:0:0:0:
328,40,59838,1,2,0:0:0:0:
488,344,60099,1,0,0:0:0:0:
256,192,60360,12,14,64403,0:0:0:0:
