osu file format v14

[General]
AudioFilename: White Prism.mp3
AudioLeadIn: 0
PreviewTime: 67068
Countdown: 0
SampleSet: Normal
StackLeniency: 0.7
Mode: 1
LetterboxInBreaks: 0
WidescreenStoryboard: 0

[Editor]
DistanceSpacing: 1.7
BeatDivisor: 4
GridSize: 4
TimelineZoom: 1.8

[Metadata]
Title:White Prism
TitleUnicode:White Prism
Artist:ChouchouP feat. Hatsune Miku
ArtistUnicode:蝶々P feat. 初音ミク
Creator:- Love1yV1ruS -
Version:Futsuu
Source:
Tags:Vocaloid Fictional worlds Taiko Virus papiyon yaoyujie0332 [I]MMoRTal[S]
BeatmapID:547304
BeatmapSetID:236254

[Difficulty]
HPDrainRate:4
CircleSize:5
OverallDifficulty:4
ApproachRate:5
SliderMultiplier:1.2
SliderTickRate:1

[Events]
//Background and Video events
0,0,"DfT1w0A.jpg",0,0
//Break Periods
//Storyboard Layer 0 (Background)
//Storyboard Layer 1 (Fail)
//Storyboard Layer 2 (Pass)
//Storyboard Layer 3 (Foreground)
//Storyboard Sound Samples

[TimingPoints]
528,348.837209302326,4,1,0,85,1,0
11690,-100,4,1,0,85,0,1
22853,-100,4,1,0,85,0,0
34016,-100,4,1,0,85,0,1
45179,-100,4,1,0,85,0,0
56167,-100,4,1,0,85,0,0
66807,-100,4,1,0,85,0,0
67504,-100,4,1,0,85,0,1
78667,-100,4,1,0,85,0,1
89830,-100,4,1,0,85,0,0
117737,-100,4,1,0,85,0,1
128900,-100,4,1,0,85,0,0
156458,-100,4,1,0,60,0,0
169365,-100,4,1,0,85,0,1
202853,-100,4,1,0,85,0,0
205644,-100,4,1,0,85,0,0

[Colours]
Combo1 : 18,124,255
Combo2 : 255,0,0

[HitObjects]
256,192,528,5,0,0:0:0:0:
256,192,1225,5,8,0:0:0:0:
191,273,1574,1,0,0:0:0:0:
256,192,1923,5,0,0:0:0:0:
256,192,2621,5,8,0:0:0:0:
256,192,3318,5,0,0:0:0:0:
256,192,4016,5,8,0:0:0:0:
319,304,4365,1,0,0:0:0:0:
256,192,4714,5,0,0:0:0:0:
256,192,5411,5,8,0:0:0:0:
256,188,6109,5,0,0:0:0:0:
252,184,6807,5,8,0:0:0:0:
298,282,7155,1,0,0:0:0:0:
264,192,7504,5,0,0:0:0:0:
248,188,7853,5,0,0:0:0:0:
256,192,8202,5,8,0:0:0:0:
248,188,8900,5,0,0:0:0:0:
260,188,9597,5,8,0:0:0:0:
264,184,10295,5,0,0:0:0:0:
268,196,10993,5,8,0:0:0:0:
264,196,11342,5,0,0:0:0:0:
264,196,11690,5,4,0:0:0:0:
272,196,12388,5,8,0:0:0:0:
264,196,13086,5,0,0:0:0:0:
237,285,13260,1,0,0:0:0:0:
260,196,13434,5,0,0:0:0:0:
264,196,13783,5,8,0:0:0:0:
256,200,14132,5,8,0:0:0:0:
264,196,14481,5,0,0:0:0:0:
260,208,15179,5,8,0:0:0:0:
256,196,15876,5,8,0:0:0:0:
466,295,16051,1,8,0:0:0:0:
264,196,16225,5,0,0:0:0:0:
264,184,16574,5,8,0:0:0:0:
264,196,16923,5,8,0:0:0:0:
448,264,17097,1,0,0:0:0:0:
260,200,17272,5,0,0:0:0:0:
256,192,17969,5,8,0:0:0:0:
248,196,18667,5,0,0:0:0:0:
408,320,18841,1,0,0:0:0:0:
248,196,19016,5,0,0:0:0:0:
256,192,19365,5,8,0:0:0:0:
248,192,19714,5,8,0:0:0:0:
248,184,20062,5,0,0:0:0:0:
248,192,20760,5,8,0:0:0:0:
252,192,21458,6,0,L|376:216,3,120,0|0|0|0,0:0|0:0|0:0|0:0,0:0:0:0:
260,196,22853,5,0,0:0:0:0:
252,188,23202,5,8,0:0:0:0:
256,200,23900,5,8,0:0:0:0:
256,192,24248,5,0,0:0:0:0:
328,287,24423,1,0,0:0:0:0:
248,188,24597,5,8,0:0:0:0:
248,180,24946,5,0,0:0:0:0:
256,192,25295,1,8,0:0:0:0:
264,192,25644,5,0,0:0:0:0:
240,196,25993,5,8,0:0:0:0:
256,192,26690,5,8,0:0:0:0:
248,196,27039,5,0,0:0:0:0:
419,315,27214,1,0,0:0:0:0:
240,192,27388,5,8,0:0:0:0:
252,200,27737,5,8,0:0:0:0:
360,208,28086,1,8,0:0:0:0:
248,196,28434,5,0,0:0:0:0:
240,200,28783,5,8,0:0:0:0:
424,212,29481,1,8,0:0:0:0:
244,200,29830,5,0,0:0:0:0:
446,250,30004,1,8,0:0:0:0:
240,200,30179,5,8,0:0:0:0:
240,200,30528,5,0,0:0:0:0:
248,196,30876,5,8,0:0:0:0:
240,196,31225,5,0,0:0:0:0:
240,200,31574,5,8,0:0:0:0:
328,192,32272,1,8,0:0:0:0:
244,208,32621,5,0,0:0:0:0:
228,200,32969,5,8,0:0:0:0:
236,200,33144,5,0,0:0:0:0:
128,236,33493,1,0,0:0:0:0:
232,200,33667,5,8,0:0:0:0:
264,196,34016,5,4,0:0:0:0:
264,204,34714,5,8,0:0:0:0:
264,196,35411,5,0,0:0:0:0:
396,285,35586,1,0,0:0:0:0:
260,196,35760,5,0,0:0:0:0:
272,200,36109,5,8,0:0:0:0:
264,204,36458,5,8,0:0:0:0:
264,196,36807,5,0,0:0:0:0:
264,196,37504,5,8,0:0:0:0:
264,200,38202,5,0,0:0:0:0:
264,196,38551,5,8,0:0:0:0:
260,192,38900,5,0,0:0:0:0:
405,294,39074,1,0,0:0:0:0:
260,192,39248,5,8,0:0:0:0:
256,192,39597,5,0,0:0:0:0:
256,192,40295,5,8,0:0:0:0:
248,196,40993,5,0,0:0:0:0:
276,259,41167,1,0,0:0:0:0:
248,196,41341,5,8,0:0:0:0:
248,196,41690,5,0,0:0:0:0:
252,188,42039,5,8,0:0:0:0:
244,192,42388,5,0,0:0:0:0:
248,192,43086,5,8,0:0:0:0:
232,192,43783,6,0,L|356:208,3,120,0|0|0|0,0:0|0:0|0:0|0:0,0:0:0:0:
260,196,45179,5,0,0:0:0:0:
260,196,45702,5,8,0:0:0:0:
260,196,46574,5,0,0:0:0:0:
264,192,46923,5,0,0:0:0:0:
433,257,47097,1,0,0:0:0:0:
256,192,47272,5,8,0:0:0:0:
264,196,47621,5,8,0:0:0:0:
260,196,47969,5,0,0:0:0:0:
272,200,48493,1,8,0:0:0:0:
260,196,49365,5,8,0:0:0:0:
410,253,49539,1,0,0:0:0:0:
264,192,49714,5,0,0:0:0:0:
256,192,50062,5,8,0:0:0:0:
248,184,50411,5,8,0:0:0:0:
260,196,50760,5,0,0:0:0:0:
296,184,51283,1,8,0:0:0:0:
260,196,52155,5,0,0:0:0:0:
446,294,52330,1,0,0:0:0:0:
264,192,52504,5,8,0:0:0:0:
264,196,52853,5,0,0:0:0:0:
260,196,53202,5,8,0:0:0:0:
448,312,53376,1,0,0:0:0:0:
260,196,53551,5,0,0:0:0:0:
260,196,54074,5,8,0:0:0:0:
260,196,54946,5,0,0:0:0:0:
256,192,55295,5,8,0:0:0:0:
264,192,55469,5,0,0:0:0:0:
296,244,55818,1,8,0:0:0:0:
248,184,55993,5,0,0:0:0:0:
228,184,56341,5,4,0:0:0:0:
240,188,57039,5,8,0:0:0:0:
236,184,57388,5,0,0:0:0:0:
401,282,57562,1,0,0:0:0:0:
240,188,57737,5,8,0:0:0:0:
390,326,58086,1,0,0:0:0:0:
244,188,58434,5,8,0:0:0:0:
252,196,59132,5,8,0:0:0:0:
339,301,59307,1,0,0:0:0:0:
252,196,59481,5,0,0:0:0:0:
244,196,59830,5,8,0:0:0:0:
248,200,60179,5,0,0:0:0:0:
248,196,60528,5,8,0:0:0:0:
446,271,61051,1,8,0:0:0:0:
248,200,61225,5,0,0:0:0:0:
248,188,61923,5,0,0:0:0:0:
244,196,62621,5,0,0:0:0:0:
248,192,62969,5,8,0:0:0:0:
236,184,63318,5,0,0:0:0:0:
236,188,63667,5,0,0:0:0:0:
432,286,63841,1,8,0:0:0:0:
228,196,64016,5,8,0:0:0:0:
240,196,64365,5,8,0:0:0:0:
244,196,64714,5,12,0:0:0:0:
256,200,65411,5,8,0:0:0:0:
256,200,66109,5,8,0:0:0:0:
441,262,66283,1,0,0:0:0:0:
268,204,66458,5,8,0:0:0:0:
397,344,66632,1,0,0:0:0:0:
256,212,66807,5,8,0:0:0:0:
256,208,67155,5,0,0:0:0:0:
268,208,67504,5,4,0:0:0:0:
260,208,68202,5,8,0:0:0:0:
248,212,68900,5,0,0:0:0:0:
252,208,69248,5,0,0:0:0:0:
283,319,69423,1,0,0:0:0:0:
260,208,69597,5,8,0:0:0:0:
248,216,69946,5,0,0:0:0:0:
260,212,70295,5,4,0:0:0:0:
264,212,70993,5,8,0:0:0:0:
256,216,71690,5,0,0:0:0:0:
248,212,72039,5,8,0:0:0:0:
246,313,72214,1,0,0:0:0:0:
256,212,72388,5,0,0:0:0:0:
252,212,72737,5,0,0:0:0:0:
256,216,73086,5,4,0:0:0:0:
256,212,73783,5,8,0:0:0:0:
252,212,74481,5,8,0:0:0:0:
475,266,74655,1,8,0:0:0:0:
256,216,74830,5,0,0:0:0:0:
248,216,75179,5,8,0:0:0:0:
268,216,75528,5,8,0:0:0:0:
256,212,75876,5,4,0:0:0:0:
272,216,76574,5,12,0:0:0:0:
260,220,77272,5,4,0:0:0:0:
264,216,77621,5,4,0:0:0:0:
264,224,77969,5,4,0:0:0:0:
264,196,78667,5,0,0:0:0:0:
264,204,79365,5,8,0:0:0:0:
264,196,80062,5,0,0:0:0:0:
355,208,80237,1,0,0:0:0:0:
260,196,80411,5,0,0:0:0:0:
272,200,80760,5,8,0:0:0:0:
264,204,81109,5,8,0:0:0:0:
264,196,81458,5,0,0:0:0:0:
264,196,82155,5,8,0:0:0:0:
264,200,82853,5,0,0:0:0:0:
384,307,83028,1,0,0:0:0:0:
264,196,83202,5,8,0:0:0:0:
260,192,83551,5,0,0:0:0:0:
260,192,83900,5,8,0:0:0:0:
339,328,84074,1,0,0:0:0:0:
256,192,84248,5,0,0:0:0:0:
256,192,84946,5,8,0:0:0:0:
248,196,85644,5,0,0:0:0:0:
368,346,85818,1,0,0:0:0:0:
248,196,85993,5,8,0:0:0:0:
248,196,86341,5,0,0:0:0:0:
252,188,86690,5,8,0:0:0:0:
244,192,87039,5,0,0:0:0:0:
248,192,87737,5,8,0:0:0:0:
232,192,88434,6,0,L|356:208,3,120,0|0|0|0,0:0|0:0|0:0|0:0,0:0:0:0:
260,196,89830,5,0,0:0:0:0:
260,196,90179,5,8,0:0:0:0:
120,160,90876,1,8,0:0:0:0:
260,196,91225,5,8,0:0:0:0:
264,192,91574,5,0,0:0:0:0:
319,288,91748,1,0,0:0:0:0:
393,293,91923,1,8,0:0:0:0:
264,196,92272,5,0,0:0:0:0:
260,196,92621,5,0,0:0:0:0:
260,196,92969,5,8,0:0:0:0:
352,320,93667,1,8,0:0:0:0:
260,196,94016,5,0,0:0:0:0:
256,192,94365,5,8,0:0:0:0:
264,192,94539,5,0,0:0:0:0:
296,252,94888,1,0,0:0:0:0:
248,184,95062,5,8,0:0:0:0:
260,196,95411,5,0,0:0:0:0:
260,196,95760,5,8,0:0:0:0:
400,200,96458,1,8,0:0:0:0:
260,196,96807,5,0,0:0:0:0:
260,196,97155,5,0,0:0:0:0:
368,291,97330,1,0,0:0:0:0:
450,296,97504,1,8,0:0:0:0:
264,196,97853,5,0,0:0:0:0:
260,196,98202,5,0,0:0:0:0:
260,196,98551,5,8,0:0:0:0:
420,212,99248,1,8,0:0:0:0:
260,196,99597,5,0,0:0:0:0:
264,192,99946,5,0,0:0:0:0:
256,192,100121,5,0,0:0:0:0:
48,260,100469,1,0,0:0:0:0:
248,184,100644,5,8,0:0:0:0:
260,196,100993,5,0,0:0:0:0:
260,196,101690,5,8,0:0:0:0:
260,196,102388,5,0,0:0:0:0:
256,192,102737,5,8,0:0:0:0:
409,278,102911,1,0,0:0:0:0:
264,196,103086,5,0,0:0:0:0:
260,196,103434,5,0,0:0:0:0:
260,196,103783,5,0,0:0:0:0:
260,196,104481,5,8,0:0:0:0:
260,196,105179,5,0,0:0:0:0:
264,192,105528,5,0,0:0:0:0:
256,192,105702,5,0,0:0:0:0:
360,284,106051,1,0,0:0:0:0:
248,184,106225,5,8,0:0:0:0:
260,196,106574,5,0,0:0:0:0:
260,196,107272,5,8,0:0:0:0:
260,196,107969,5,8,0:0:0:0:
447,324,108144,1,0,0:0:0:0:
264,192,108318,5,0,0:0:0:0:
256,192,108667,5,0,0:0:0:0:
264,196,109016,5,8,0:0:0:0:
350,302,109190,1,0,0:0:0:0:
260,196,109365,5,0,0:0:0:0:
260,196,110062,5,8,0:0:0:0:
260,196,110760,5,0,0:0:0:0:
260,196,111109,5,8,0:0:0:0:
256,192,111283,5,0,0:0:0:0:
144,224,111632,1,0,0:0:0:0:
248,184,111807,5,8,0:0:0:0:
228,184,112155,5,4,0:0:0:0:
240,188,112853,5,0,0:0:0:0:
252,196,113551,5,0,0:0:0:0:
363,323,113725,1,0,0:0:0:0:
244,196,113900,5,8,0:0:0:0:
248,196,114248,5,0,0:0:0:0:
240,196,114946,5,8,0:0:0:0:
248,192,115644,5,0,0:0:0:0:
236,188,116341,5,8,0:0:0:0:
386,299,116516,1,0,0:0:0:0:
512,263,116690,1,8,0:0:0:0:
232,200,117039,5,8,0:0:0:0:
268,208,117737,5,4,0:0:0:0:
260,208,118086,5,8,0:0:0:0:
260,212,118434,5,0,0:0:0:0:
256,212,118783,5,8,0:0:0:0:
248,212,119132,5,0,0:0:0:0:
252,208,119481,5,0,0:0:0:0:
436,283,119655,1,0,0:0:0:0:
256,216,119830,5,8,0:0:0:0:
260,212,120528,5,4,0:0:0:0:
240,212,120876,5,8,0:0:0:0:
260,208,121225,5,0,0:0:0:0:
248,216,121574,5,8,0:0:0:0:
256,216,121923,5,0,0:0:0:0:
248,212,122272,5,8,0:0:0:0:
472,266,122446,1,8,0:0:0:0:
256,212,122621,5,0,0:0:0:0:
256,216,123318,5,4,0:0:0:0:
256,216,123667,5,8,0:0:0:0:
256,212,124016,5,0,0:0:0:0:
366,308,124190,1,0,0:0:0:0:
244,216,124365,5,8,0:0:0:0:
252,212,124714,5,8,0:0:0:0:
453,275,124888,1,0,0:0:0:0:
256,216,125062,5,8,0:0:0:0:
332,207,125237,1,0,0:0:0:0:
248,216,125411,5,8,0:0:0:0:
256,212,126109,5,0,0:0:0:0:
256,216,126458,5,0,0:0:0:0:
272,216,126807,5,8,0:0:0:0:
260,216,127155,5,0,0:0:0:0:
260,220,127504,5,12,0:0:0:0:
260,220,127853,5,12,0:0:0:0:
264,224,128202,5,12,0:0:0:0:
252,192,128900,5,8,0:0:0:0:
252,196,129248,5,0,0:0:0:0:
252,200,129946,5,0,0:0:0:0:
256,200,130295,5,8,0:0:0:0:
252,200,130644,5,8,0:0:0:0:
318,268,130818,1,8,0:0:0:0:
260,204,130993,5,0,0:0:0:0:
252,200,131690,5,8,0:0:0:0:
248,200,132039,5,0,0:0:0:0:
248,200,132737,5,0,0:0:0:0:
244,200,133086,5,8,0:0:0:0:
248,196,133434,5,0,0:0:0:0:
353,309,133609,1,0,0:0:0:0:
252,200,133783,5,8,0:0:0:0:
244,200,134481,5,0,0:0:0:0:
264,192,134830,5,8,0:0:0:0:
260,200,135528,5,8,0:0:0:0:
332,180,135876,1,0,0:0:0:0:
424,196,136225,1,0,0:0:0:0:
337,283,136400,1,0,0:0:0:0:
252,200,136574,5,8,0:0:0:0:
369,323,136748,1,0,0:0:0:0:
430,329,136923,1,0,0:0:0:0:
252,200,137272,5,8,0:0:0:0:
252,208,137969,5,8,0:0:0:0:
252,208,138667,5,8,0:0:0:0:
240,208,139016,5,0,0:0:0:0:
388,321,139190,1,0,0:0:0:0:
224,212,139365,5,0,0:0:0:0:
252,196,140062,5,0,0:0:0:0:
264,196,140411,5,8,0:0:0:0:
240,200,141109,5,0,0:0:0:0:
252,200,141458,5,8,0:0:0:0:
260,204,141807,5,8,0:0:0:0:
444,338,141981,1,0,0:0:0:0:
252,200,142155,5,8,0:0:0:0:
248,200,142853,5,8,0:0:0:0:
244,200,143202,5,0,0:0:0:0:
244,200,143900,5,8,0:0:0:0:
248,196,144248,5,0,0:0:0:0:
368,293,144597,1,0,0:0:0:0:
498,269,144772,1,8,0:0:0:0:
66,278,144946,1,8,0:0:0:0:
256,204,145644,5,0,0:0:0:0:
256,204,145993,5,0,0:0:0:0:
355,289,146167,1,0,0:0:0:0:
252,200,146341,5,0,0:0:0:0:
252,200,147039,5,8,0:0:0:0:
252,200,147388,5,0,0:0:0:0:
359,348,147562,1,0,0:0:0:0:
244,288,147737,5,8,0:0:0:0:
404,297,148434,1,0,0:0:0:0:
248,208,148783,5,8,0:0:0:0:
473,330,148958,1,0,0:0:0:0:
240,212,149132,5,0,0:0:0:0:
264,208,149481,5,8,0:0:0:0:
256,192,149830,12,0,150876,0:0:0:0:
228,184,151225,5,0,0:0:0:0:
240,188,151923,5,8,0:0:0:0:
252,196,152621,5,0,0:0:0:0:
347,338,152795,1,0,0:0:0:0:
244,196,152969,5,8,0:0:0:0:
248,196,153318,5,0,0:0:0:0:
240,196,154016,5,8,0:0:0:0:
248,192,154714,5,0,0:0:0:0:
236,188,155411,5,8,0:0:0:0:
415,323,155586,1,0,0:0:0:0:
232,208,155760,5,8,0:0:0:0:
345,326,155934,1,0,0:0:0:0:
224,200,156109,5,8,0:0:0:0:
244,204,156807,5,0,0:0:0:0:
248,192,157155,5,0,0:0:0:0:
232,208,157504,1,8,0:0:0:0:
236,196,158028,5,0,0:0:0:0:
212,212,158551,1,8,0:0:0:0:
244,200,158900,5,0,0:0:0:0:
264,216,159597,1,0,0:0:0:0:
232,216,159946,1,0,0:0:0:0:
264,200,160295,5,8,0:0:0:0:
256,196,160818,5,8,0:0:0:0:
276,184,161341,5,0,0:0:0:0:
280,192,161690,5,8,0:0:0:0:
264,192,162388,5,0,0:0:0:0:
296,184,162737,1,8,0:0:0:0:
264,200,163086,5,8,0:0:0:0:
272,200,163609,5,0,0:0:0:0:
264,192,164132,5,8,0:0:0:0:
264,188,164481,5,8,0:0:0:0:
268,188,164830,5,0,0:0:0:0:
260,192,165004,5,0,0:0:0:0:
196,216,165179,1,0,0:0:0:0:
264,192,165876,5,8,0:0:0:0:
256,192,166574,12,0,168667,0:0:0:0:
268,208,169365,5,4,0:0:0:0:
260,208,169714,5,8,0:0:0:0:
260,208,170062,5,0,0:0:0:0:
256,212,170411,5,8,0:0:0:0:
248,212,170760,5,0,0:0:0:0:
152,216,170934,1,0,0:0:0:0:
252,208,171109,5,0,0:0:0:0:
260,208,171458,5,8,0:0:0:0:
260,212,172155,5,12,0:0:0:0:
240,212,172504,5,0,0:0:0:0:
260,208,172853,5,8,0:0:0:0:
248,216,173202,5,0,0:0:0:0:
256,216,173551,5,8,0:0:0:0:
408,220,173725,1,0,0:0:0:0:
248,212,173900,5,8,0:0:0:0:
256,212,174248,5,0,0:0:0:0:
256,216,174946,5,4,0:0:0:0:
256,216,175295,5,8,0:0:0:0:
256,212,175644,5,0,0:0:0:0:
244,216,175993,5,8,0:0:0:0:
252,212,176341,5,8,0:0:0:0:
256,216,176690,5,0,0:0:0:0:
352,204,176865,1,0,0:0:0:0:
248,216,177039,5,8,0:0:0:0:
256,212,177737,5,4,0:0:0:0:
272,216,178434,5,4,0:0:0:0:
260,220,179132,5,12,0:0:0:0:
264,216,179481,5,4,0:0:0:0:
264,224,179830,5,12,0:0:0:0:
264,196,180528,5,0,0:0:0:0:
264,204,180876,5,0,0:0:0:0:
272,196,181225,5,8,0:0:0:0:
264,196,181923,5,0,0:0:0:0:
264,196,182097,5,0,0:0:0:0:
260,196,182272,5,0,0:0:0:0:
264,196,182621,5,8,0:0:0:0:
256,200,182969,5,0,0:0:0:0:
264,196,183318,5,0,0:0:0:0:
96,252,183667,1,0,0:0:0:0:
356,323,183841,1,0,0:0:0:0:
220,188,184016,1,8,0:0:0:0:
264,200,184714,5,8,0:0:0:0:
264,200,184888,5,8,0:0:0:0:
256,196,185062,5,8,0:0:0:0:
264,196,185411,5,8,0:0:0:0:
264,196,185760,5,0,0:0:0:0:
260,200,186109,5,0,0:0:0:0:
440,297,186458,1,8,0:0:0:0:
456,357,186632,1,0,0:0:0:0:
364,220,186807,1,8,0:0:0:0:
248,196,187504,5,0,0:0:0:0:
248,196,187679,5,0,0:0:0:0:
256,192,187853,5,0,0:0:0:0:
248,196,188202,5,0,0:0:0:0:
248,192,188551,5,8,0:0:0:0:
248,184,188900,5,0,0:0:0:0:
320,276,189248,1,0,0:0:0:0:
415,330,189423,1,0,0:0:0:0:
396,224,189597,1,8,0:0:0:0:
252,192,190295,6,0,L|392:192,3,120,0|0|0|0,0:0|0:0|0:0|0:0,0:0:0:0:
260,196,191690,5,0,0:0:0:0:
406,304,192039,1,0,0:0:0:0:
409,248,192388,1,8,0:0:0:0:
256,200,193086,5,0,0:0:0:0:
256,192,193260,5,0,0:0:0:0:
256,192,193434,5,0,0:0:0:0:
256,192,193783,5,8,0:0:0:0:
260,192,194132,5,8,0:0:0:0:
264,192,194481,5,0,0:0:0:0:
436,282,194655,1,0,0:0:0:0:
336,280,194830,1,0,0:0:0:0:
312,180,195179,1,8,0:0:0:0:
248,196,195876,5,8,0:0:0:0:
256,196,196051,5,8,0:0:0:0:
240,192,196225,5,8,0:0:0:0:
252,200,196574,5,0,0:0:0:0:
240,196,196923,5,8,0:0:0:0:
248,196,197272,5,8,0:0:0:0:
485,337,197446,1,0,0:0:0:0:
380,312,197621,1,0,0:0:0:0:
400,232,197969,1,8,0:0:0:0:
244,200,198667,5,0,0:0:0:0:
248,196,198841,5,0,0:0:0:0:
244,196,199016,5,8,0:0:0:0:
240,200,199365,5,8,0:0:0:0:
248,196,199714,5,8,0:0:0:0:
240,196,200062,5,0,0:0:0:0:
508,264,200237,1,8,0:0:0:0:
304,296,200411,1,0,0:0:0:0:
376,216,200760,1,8,0:0:0:0:
244,208,201458,5,0,0:0:0:0:
240,200,201632,5,0,0:0:0:0:
228,200,201807,5,0,0:0:0:0:
236,200,202155,5,8,0:0:0:0:
452,298,202330,1,8,0:0:0:0:
232,200,202504,5,8,0:0:0:0:
256,192,202853,12,0,205644,0:0:0:0:
