osu file format v12

[General]
AudioFilename: .mp3
AudioLeadIn: 0
PreviewTime: 128576
Countdown: 0
SampleSet: Soft
StackLeniency: 0.7
Mode: 0
LetterboxInBreaks: 0
EpilepsyWarning: 1
WidescreenStoryboard: 1

[Editor]
Bookmarks: 67160,86576
DistanceSpacing: 0.8
BeatDivisor: 3
GridSize: 4
TimelineZoom: 1.799999

[Metadata]
Title:Tsukimiyo Rabbit
TitleUnicode:月見夜ラビット
Artist:ChouchouP
ArtistUnicode:蝶々P
Creator:Zero__wind
Version:Tsuki
Source:
Tags:Fictional World Hatsune Miku Append Dark EXIT TUNE 2nd album papiyon vocaloid pianythm cyoucyoup Firce777 OniJAM DJNightmare
BeatmapID:312959
BeatmapSetID:122342

[Difficulty]
HPDrainRate:6
CircleSize:4
OverallDifficulty:8
ApproachRate:9
SliderMultiplier:1.3
SliderTickRate:1

[Events]
//Background and Video events
0,0,"30075535.jpg",0,0
//Break Periods
2,88860,95560
//Storyboard Layer 0 (Background)
//Storyboard Layer 1 (Fail)
//Storyboard Layer 2 (Pass)
//Storyboard Layer 3 (Foreground)
//Storyboard Sound Samples
//Background Colour Transformations
3,100,163,162,255

[TimingPoints]
660.179487179487,250,4,1,1,50,1,0
16160,-100,4,1,1,60,0,0
16660,-83.3333333333333,4,2,1,80,0,0
16826,-83.3333333333333,4,2,1,70,0,0
17660,-83.3333333333333,4,2,2,70,0,0
17826,-83.3333333333333,4,2,1,70,0,0
19660,-83.3333333333333,4,2,2,70,0,0
19826,-83.3333333333333,4,2,1,70,0,0
20451,-83.3333333333333,4,2,2,60,0,0
20660,-83.3333333333333,4,2,1,70,0,0
21660,-83.3333333333333,4,2,2,70,0,0
21826,-83.3333333333333,4,2,1,70,0,0
23743,-83.3333333333333,4,2,2,60,0,0
23826,-83.3333333333333,4,2,1,70,0,0
23993,-83.3333333333333,4,2,2,60,0,0
24160,-83.3333333333333,4,2,1,70,0,0
24243,-83.3333333333333,4,2,2,60,0,0
24410,-83.3333333333333,4,2,1,70,0,0
24493,-83.3333333333333,4,2,2,60,0,0
24576,-83.3333333333333,4,2,1,70,0,0
25660,-83.3333333333333,4,2,2,70,0,0
25826,-83.3333333333333,4,2,1,70,0,0
27660,-83.3333333333333,4,2,2,70,0,0
27826,-83.3333333333333,4,2,1,70,0,0
28451,-83.3333333333333,4,2,2,60,0,0
28660,-83.3333333333333,4,2,1,70,0,0
29660,-83.3333333333333,4,2,2,70,0,0
29826,-83.3333333333333,4,2,1,70,0,0
31743,-83.3333333333333,4,2,2,60,0,0
31826,-83.3333333333333,4,2,1,70,0,0
31993,-83.3333333333333,4,2,2,60,0,0
32160,-83.3333333333333,4,2,1,70,0,0
32243,-83.3333333333333,4,2,2,60,0,0
32410,-83.3333333333333,4,2,1,70,0,0
32493,-83.3333333333333,4,2,2,70,0,0
32660,-100,4,2,1,80,0,0
32826,-100,4,2,1,50,0,0
35993,-100,4,2,2,40,0,0
36160,-100,4,2,1,50,0,0
36576,-100,4,2,1,40,0,0
36910,-100,4,2,1,50,0,0
38660,-100,4,2,1,40,0,0
38910,-100,4,2,1,50,0,0
39910,-90.9090909090909,4,2,1,50,0,0
40076,-90.9090909090909,4,2,1,40,0,0
40160,-83.3333333333333,4,2,1,50,0,0
40326,-83.3333333333333,4,2,1,40,0,0
40410,-76.9230769230769,4,2,1,50,0,0
40576,-76.9230769230769,4,2,1,40,0,0
40660,-100,4,2,1,60,0,0
40910,-100,4,2,1,50,0,0
44576,-100,4,2,1,40,0,0
44910,-100,4,2,1,50,0,0
46660,-100,4,2,1,40,0,0
46910,-100,4,2,1,50,0,0
47910,-90.9090909090909,4,2,1,50,0,0
48160,-83.3333333333333,4,2,1,50,0,0
48410,-76.9230769230769,4,2,1,50,0,0
48660,-100,4,2,1,70,0,0
48826,-100,4,2,1,60,0,0
49576,-100,4,2,2,50,0,0
49826,-100,4,2,1,60,0,0
49910,-100,4,2,2,50,0,0
50076,-100,4,2,1,60,0,0
50326,-100,4,2,2,50,0,0
50410,-100,4,2,1,60,0,0
51160,-100,4,2,2,50,0,0
51410,-100,4,2,1,60,0,0
51451,-100,4,2,2,50,0,0
51576,-100,4,2,1,60,0,0
51660,-100,4,2,2,50,0,0
51826,-100,4,2,1,60,0,0
51910,-100,4,2,2,50,0,0
52076,-100,4,2,1,60,0,0
52410,-100,4,2,2,50,0,0
52660,-100,4,2,1,60,0,0
52826,-100,4,2,2,50,0,0
52910,-100,4,2,1,60,0,0
53576,-100,4,2,2,50,0,0
53826,-100,4,2,1,60,0,0
53910,-100,4,2,2,50,0,0
54076,-100,4,2,1,60,0,0
54660,-100,4,2,1,50,0,0
54826,-100,4,2,1,60,0,0
54910,-100,4,2,2,50,0,0
55076,-100,4,2,1,60,0,0
55160,-100,4,2,1,40,0,0
55326,-100,4,2,2,50,0,0
55410,-100,4,2,1,60,0,0
55451,-100,4,2,2,50,0,0
55576,-100,4,2,1,60,0,0
55660,-100,4,2,2,50,0,0
55826,-100,4,2,1,60,0,0
56076,-100,4,2,1,50,0,0
56160,-100,4,2,1,60,0,0
56243,-100,4,2,1,50,0,0
56660,-83.3333333333333,4,2,1,70,0,0
58160,-83.3333333333333,4,2,2,60,0,0
58326,-83.3333333333333,4,2,1,70,0,0
59451,-83.3333333333333,4,2,2,60,0,0
59576,-83.3333333333333,4,2,1,70,0,0
60576,-83.3333333333333,4,2,1,50,0,0
60660,-83.3333333333333,4,2,1,70,0,0
62160,-83.3333333333333,4,2,2,60,0,0
62326,-83.3333333333333,4,2,1,70,0,0
63160,-83.3333333333333,4,2,2,60,0,0
63326,-83.3333333333333,4,2,1,70,0,0
64076,-75.7575757575758,4,2,1,55,0,0
64160,-75.7575757575758,4,2,1,75,0,0
64326,-69.4444444444444,4,2,1,60,0,0
64410,-69.4444444444444,4,2,1,80,0,0
64576,-69.4444444444444,4,2,1,65,0,0
64660,-83.3333333333333,4,2,1,85,0,0
64826,-83.3333333333333,4,2,1,70,0,0
66160,-83.3333333333333,4,2,2,60,0,0
66326,-83.3333333333333,4,2,1,70,0,0
66576,-83.3333333333333,4,2,2,60,0,0
66660,-83.3333333333333,4,2,1,70,0,0
67160,-83.3333333333333,4,2,2,60,0,0
67410,-83.3333333333333,4,2,1,70,0,0
68160,-83.3333333333333,4,2,2,60,0,0
68326,-83.3333333333333,4,2,1,70,0,0
68576,-83.3333333333333,4,2,2,60,0,0
68660,-83.3333333333333,4,2,1,70,0,0
70660,-83.3333333333333,4,2,2,60,0,0
71076,-83.3333333333333,4,2,1,70,0,0
72076,-83.3333333333333,4,2,1,60,0,0
72160,-83.3333333333333,4,2,1,70,0,0
72243,-83.3333333333333,4,2,2,60,0,0
72660,-74.0740740740741,4,2,1,80,0,1
72826,-74.0740740740741,4,2,1,70,0,1
74576,-74.0740740740741,4,2,1,50,0,1
74660,-74.0740740740741,4,2,1,70,0,1
76576,-74.0740740740741,4,2,1,50,0,1
76660,-74.0740740740741,4,2,1,70,0,1
78660,-100,4,2,1,70,0,1
78910,-100,4,2,2,60,0,1
79076,-100,4,2,1,70,0,1
79410,-100,4,2,2,60,0,1
79576,-100,4,2,1,70,0,1
80326,-100,4,2,1,50,0,1
80410,-100,4,2,1,70,0,1
80576,-100,4,2,1,50,0,1
80660,-133.333333333333,4,2,1,40,0,0
80910,-74.0740740740741,4,2,1,80,0,1
81076,-74.0740740740741,4,2,1,70,0,1
82576,-74.0740740740741,4,2,1,50,0,1
82660,-74.0740740740741,4,2,1,70,0,1
84410,-74.0740740740741,4,2,2,70,0,1
84576,-74.0740740740741,4,2,1,50,0,1
84660,-74.0740740740741,4,2,1,70,0,1
86660,-100,4,2,1,70,0,1
86910,-100,4,2,2,70,0,1
87076,-100,4,2,1,70,0,1
88243,-100,4,2,1,50,0,1
88410,-100,4,2,1,70,0,1
88493,-100,4,2,1,50,0,1
88660,-100,4,2,1,80,0,0
96160,-100,4,1,1,60,0,0
96660,-83.3333333333333,4,2,1,80,0,0
96826,-83.3333333333333,4,2,1,70,0,0
97660,-83.3333333333333,4,2,2,60,0,0
97826,-83.3333333333333,4,2,1,70,0,0
99660,-83.3333333333333,4,2,2,60,0,0
99826,-83.3333333333333,4,2,1,70,0,0
100451,-83.3333333333333,4,2,2,60,0,0
100660,-83.3333333333333,4,2,1,70,0,0
101660,-83.3333333333333,4,2,2,60,0,0
101826,-83.3333333333333,4,2,1,70,0,0
103743,-83.3333333333333,4,2,2,60,0,0
103826,-83.3333333333333,4,2,1,70,0,0
103993,-83.3333333333333,4,2,2,60,0,0
104160,-83.3333333333333,4,2,1,70,0,0
104243,-83.3333333333333,4,2,2,60,0,0
104410,-83.3333333333333,4,2,1,70,0,0
104493,-83.3333333333333,4,2,2,70,0,0
104660,-100,4,2,1,80,0,0
104910,-100,4,2,1,50,0,0
105826,-100,4,2,2,50,0,0
106660,-100,4,2,1,50,0,0
107826,-100,4,2,2,50,0,0
108660,-100,4,2,1,50,0,0
109743,-100,4,2,2,50,0,0
110660,-100,4,2,1,50,0,0
112660,-100,4,2,1,70,0,0
112910,-100,4,2,1,50,0,0
113826,-100,4,2,2,50,0,0
114660,-100,4,2,1,50,0,0
115826,-100,4,2,2,35,0,0
115910,-100,4,2,2,50,0,0
116076,-100,4,2,2,35,0,0
116160,-100,4,2,2,50,0,0
116326,-100,4,2,2,35,0,0
116410,-100,4,2,2,50,0,0
116660,-100,4,2,1,50,0,0
117743,-100,4,2,2,50,0,0
118660,-100,4,2,1,50,0,0
119910,-100,4,2,1,55,0,0
120076,-100,4,2,1,45,0,0
120160,-100,4,2,1,50,0,0
120410,-100,4,2,1,65,0,0
120576,-100,4,2,1,55,0,0
120660,-133.333333333333,4,2,2,70,0,0
120910,-133.333333333333,4,2,2,60,0,0
124576,-133.333333333333,4,2,2,40,0,0
124660,-133.333333333333,4,2,2,60,0,0
128160,-200,4,2,2,60,0,0
128576,-200,4,2,2,30,0,0
128660,-74.074074074074,4,2,1,80,0,1
128826,-74.074074074074,4,2,1,70,0,1
130576,-74.074074074074,4,2,1,50,0,1
130660,-74.074074074074,4,2,1,70,0,1
132576,-74.074074074074,4,2,1,50,0,1
132660,-74.074074074074,4,2,1,70,0,1
134660,-100,4,2,1,70,0,1
134910,-100,4,2,2,60,0,1
135076,-100,4,2,1,70,0,1
135410,-100,4,2,2,60,0,1
135576,-100,4,2,1,70,0,1
136243,-100,4,2,2,60,0,1
136326,-100,4,2,1,50,0,1
136410,-100,4,2,1,70,0,1
136576,-100,4,2,1,50,0,1
136660,-133.333333333333,4,2,1,40,0,0
136910,-74.0740740740741,4,2,1,80,0,1
137076,-74.0740740740741,4,2,1,70,0,1
138576,-74.0740740740741,4,2,1,50,0,1
138660,-74.0740740740741,4,2,1,70,0,1
140410,-74.0740740740741,4,2,2,70,0,1
140576,-74.0740740740741,4,2,1,50,0,1
140660,-74.0740740740741,4,2,1,70,0,1
142660,-100,4,2,1,70,0,1
142910,-100,4,2,2,70,0,1
143076,-100,4,2,1,70,0,1
144160,-100,4,2,1,70,0,0
144243,-100,4,2,1,50,0,0
144410,-100,4,2,1,70,0,0
144493,-100,4,2,1,50,0,0
144660,-83.3333333333333,4,2,1,80,0,1
144826,-83.3333333333333,4,2,2,70,0,0
145660,-83.3333333333333,4,2,1,70,0,0
145701,-83.3333333333333,4,2,2,70,0,0
146326,-100,4,2,2,60,0,0
146660,-100,4,2,1,70,0,0
146826,-100,4,2,2,60,0,0
147660,-100,4,2,1,70,0,0
147826,-100,4,2,2,60,0,0
148326,-83.3333333333333,4,2,2,60,0,0
148660,-83.3333333333333,4,2,2,70,0,0
149160,-83.3333333333333,4,2,2,60,0,0
149243,-83.3333333333333,4,2,2,70,0,0
151076,-83.3333333333333,4,2,2,60,0,0
151410,-83.3333333333333,4,2,2,70,0,0
151660,-74.0740740740741,4,2,2,70,0,0
152326,-74.0740740740741,4,2,2,60,0,0
152410,-74.0740740740741,4,2,2,70,0,0
152576,-74.0740740740741,4,2,2,60,0,0
152660,-66.6666666666667,4,2,2,70,0,1
152826,-66.6666666666667,4,2,2,70,0,0
153326,-66.6666666666667,4,2,2,50,0,0
153410,-66.6666666666667,4,2,2,70,0,0
153493,-66.6666666666667,4,2,2,60,0,0
153576,-66.6666666666667,4,2,2,70,0,0
153660,-66.6666666666667,4,2,1,70,0,0
153743,-66.6666666666667,4,2,2,70,0,0
153826,-66.6666666666667,4,2,2,50,0,0
153910,-66.6666666666667,4,2,2,70,0,0
154243,-66.6666666666667,4,2,2,50,0,0
154326,-66.6666666666667,4,2,2,70,0,0
154660,-66.6666666666667,4,2,1,70,0,0
154743,-66.6666666666667,4,2,2,50,0,0
154826,-66.6666666666667,4,2,2,70,0,0
155243,-66.6666666666667,4,2,2,60,0,0
155326,-66.6666666666667,4,2,2,70,0,0
155660,-100,4,2,2,70,0,0
156660,-83.3333333333333,4,2,2,70,0,0
157243,-83.3333333333333,4,2,2,30,0,0
157326,-83.3333333333333,4,2,2,70,0,0
157493,-83.3333333333333,4,2,2,50,0,0
157576,-83.3333333333333,4,2,2,70,0,0
157660,-74.0740740740741,4,2,2,70,0,0
158243,-74.0740740740741,4,2,2,30,0,0
158326,-74.0740740740741,4,2,2,70,0,0
158493,-74.0740740740741,4,2,2,50,0,0
158576,-74.0740740740741,4,2,2,70,0,0
158660,-66.6666666666667,4,2,2,70,0,0
158826,-66.6666666666667,4,2,2,60,0,0
158910,-66.6666666666667,4,2,2,70,0,0
159076,-66.6666666666667,4,2,2,60,0,0
159160,-66.6666666666667,4,2,2,70,0,0
159326,-66.6666666666667,4,2,2,60,0,0
159410,-66.6666666666667,4,2,2,70,0,0
159493,-66.6666666666667,4,2,2,60,0,0
159576,-66.6666666666667,4,2,2,70,0,0
159743,-66.6666666666667,4,2,2,60,0,0
159826,-66.6666666666667,4,2,1,60,0,0
159910,-66.6666666666667,4,2,2,60,0,0
159993,-66.6666666666667,4,2,2,70,0,0
160160,-66.6666666666667,4,2,2,80,0,0
160243,-66.6666666666667,4,2,2,70,0,0
160410,-66.6666666666667,4,2,2,80,0,0
160660,-100,4,2,2,80,0,0
160910,-100,4,2,1,60,0,0
164576,-100,4,2,1,50,0,0
164660,-100,4,2,1,60,0,0
168326,-100,4,2,1,50,0,0
168410,-100,4,2,1,60,0,0
168576,-100,4,2,1,50,0,0
168660,-83.3333333333333,4,2,1,80,0,0
168826,-83.3333333333333,4,2,2,60,0,0
168910,-83.3333333333333,4,2,1,50,0,0
169076,-83.3333333333333,4,2,2,60,0,0
169326,-83.3333333333333,4,2,2,50,0,0
169410,-83.3333333333333,4,2,2,60,0,0
170076,-83.3333333333333,4,2,1,50,0,0
170160,-83.3333333333333,4,2,2,60,0,0
171576,-83.3333333333333,4,2,1,50,0,0
171826,-83.3333333333333,4,2,2,60,0,0
172326,-83.3333333333333,4,2,1,50,0,0
172410,-83.3333333333333,4,2,2,60,0,0
172910,-83.3333333333333,4,2,1,50,0,0
173076,-83.3333333333333,4,2,2,60,0,0
173326,-83.3333333333333,4,2,2,50,0,0
173410,-83.3333333333333,4,2,2,60,0,0
174076,-83.3333333333333,4,2,1,50,0,0
174160,-83.3333333333333,4,2,2,60,0,0
175160,-83.3333333333333,4,2,1,50,0,0
175410,-83.3333333333333,4,2,2,60,0,0
175576,-83.3333333333333,4,2,1,50,0,0
175826,-83.3333333333333,4,2,2,60,0,0
175910,-83.3333333333333,4,2,2,60,0,0
175993,-83.3333333333333,4,2,2,50,0,0
176160,-83.3333333333333,4,2,2,60,0,0
176243,-83.3333333333333,4,2,2,50,0,0
176410,-83.3333333333333,4,2,2,60,0,0
176493,-83.3333333333333,4,2,2,50,0,0
176660,-83.3333333333333,4,2,1,80,0,0
176826,-83.3333333333333,4,2,1,60,0,0
177160,-100,4,2,1,60,0,0
177410,-100,4,2,2,60,0,0
177576,-100,4,2,1,60,0,0
177660,-74.0740740740741,4,2,1,80,0,0
177743,-74.0740740740741,4,2,2,60,0,0
177826,-74.0740740740741,4,2,2,50,0,0
177910,-74.0740740740741,4,2,2,70,0,0
177993,-74.0740740740741,4,2,2,60,0,0
178160,-74.0740740740741,4,2,2,70,0,0
178243,-74.0740740740741,4,2,2,60,0,0
178285,-74.0740740740741,4,2,2,50,0,0
178410,-74.0740740740741,4,2,2,60,0,0
178451,-74.0740740740741,4,2,2,50,0,0
178660,-200,4,2,1,80,0,0
178910,-200,4,2,1,50,0,0
186660,-133.333333333333,4,2,1,50,0,0
187826,-133.333333333333,4,2,1,40,0,0
187910,-133.333333333333,4,2,1,50,0,0
189826,-133.333333333333,4,2,1,40,0,0
189910,-133.333333333333,4,2,1,50,0,0
190660,-100,4,2,1,50,0,0
191576,-100,4,2,1,40,0,0
191660,-100,4,2,1,50,0,0
191826,-100,4,2,1,40,0,0
191910,-100,4,2,1,50,0,0
193576,-100,4,2,1,40,0,0
193660,-83.3333333333333,4,2,1,60,0,0
193743,-83.3333333333333,4,2,1,50,0,0
194160,-83.3333333333333,4,2,1,70,0,0
194243,-83.3333333333333,4,2,2,60,0,0
194410,-83.3333333333333,4,2,2,70,0,0
194493,-83.3333333333333,4,2,2,60,0,0
194660,-74.0740740740741,4,2,1,80,0,1
194826,-74.0740740740741,4,2,1,70,0,1
196576,-74.0740740740741,4,2,1,50,0,1
196660,-74.0740740740741,4,2,1,70,0,1
198576,-74.0740740740741,4,2,1,50,0,1
198660,-74.0740740740741,4,2,1,70,0,1
200660,-100,4,2,1,70,0,1
200910,-100,4,2,2,60,0,1
201076,-100,4,2,1,70,0,1
201410,-100,4,2,2,60,0,1
201576,-100,4,2,1,70,0,1
201743,-100,4,2,1,50,0,1
201910,-100,4,2,2,60,0,1
201993,-100,4,2,2,50,0,1
202160,-100,4,2,2,60,0,1
202660,-133.333333333333,4,2,1,40,0,0
202910,-74.0740740740741,4,2,1,80,0,1
203076,-74.0740740740741,4,2,1,70,0,1
204576,-74.0740740740741,4,2,1,50,0,1
204660,-74.0740740740741,4,2,1,70,0,1
206410,-74.0740740740741,4,2,2,70,0,1
206576,-74.0740740740741,4,2,1,50,0,1
206660,-74.0740740740741,4,2,1,70,0,1
208660,-100,4,2,1,70,0,1
208910,-100,4,2,2,70,0,1
209076,-100,4,2,1,70,0,1
210660,-83.3333333333333,4,2,1,80,0,0
210826,-83.3333333333333,4,2,1,70,0,0
211660,-83.3333333333333,4,2,2,70,0,0
211826,-83.3333333333333,4,2,1,70,0,0
213660,-83.3333333333333,4,2,2,70,0,0
213826,-83.3333333333333,4,2,1,70,0,0
214451,-83.3333333333333,4,2,2,60,0,0
214660,-83.3333333333333,4,2,1,70,0,0
215660,-83.3333333333333,4,2,2,70,0,0
215826,-83.3333333333333,4,2,1,70,0,0
217743,-83.3333333333333,4,2,2,60,0,0
217826,-83.3333333333333,4,2,1,70,0,0
217993,-83.3333333333333,4,2,2,60,0,0
218160,-83.3333333333333,4,2,1,70,0,0
218243,-83.3333333333333,4,2,2,60,0,0
218410,-83.3333333333333,4,2,1,70,0,0
218493,-83.3333333333333,4,2,2,60,0,0
218576,-83.3333333333333,4,2,1,70,0,0
219660,-83.3333333333333,4,2,2,70,0,0
219826,-83.3333333333333,4,2,1,70,0,0
221660,-83.3333333333333,4,2,2,70,0,0
221826,-83.3333333333333,4,2,1,70,0,0
222451,-83.3333333333333,4,2,2,60,0,0
222660,-83.3333333333333,4,2,1,70,0,0
223660,-83.3333333333333,4,2,2,60,0,0
223826,-83.3333333333333,4,2,1,70,0,0
225743,-83.3333333333333,4,2,2,60,0,0
225826,-83.3333333333333,4,2,1,70,0,0
225993,-83.3333333333333,4,2,2,60,0,0
226160,-83.3333333333333,4,2,1,70,0,0
226243,-83.3333333333333,4,2,2,60,0,0
226410,-83.3333333333333,4,2,1,70,0,0
226493,-83.3333333333333,4,2,2,70,0,0
226660,-83.3333333333333,4,2,1,80,0,0
226826,-83.3333333333333,4,2,1,70,0,0
228493,-83.3333333333333,4,2,1,60,0,0
228660,-83.3333333333333,4,2,1,80,0,0
228910,-83.3333333333333,4,2,1,70,0,0
229160,-83.3333333333333,4,2,2,60,0,0
229243,-83.3333333333333,4,2,2,70,0,0
229326,-83.3333333333333,4,2,1,70,0,0
229576,-83.3333333333333,4,2,1,60,0,0
229660,-83.3333333333333,4,2,1,70,0,0

[Colours]
Combo1 : 128,128,128
Combo2 : 113,180,189
Combo3 : 254,231,125
Combo4 : 124,118,146
Combo5 : 220,167,78
Combo6 : 78,171,152
Combo7 : 244,125,86
Combo8 : 218,218,218

[HitObjects]
220,44,15660,102,0,L|176:44,2,43.3333333333333,4|8|0,0:0|0:2|0:0,0:0:0:0:
372,156,15910,2,0,L|416:156,2,43.3333333333333,8|0|8,0:2|0:0|0:2,0:0:0:0:
308,88,16160,1,0,0:0:0:0:
285,114,16243,1,0,0:0:0:0:
280,148,16326,1,0,0:0:0:0:
282,183,16410,1,0,0:0:0:0:
296,215,16493,1,0,0:0:0:0:
304,248,16576,1,0,0:0:0:0:
298,289,16660,22,0,P|258:326|208:332,1,103.999996826172,4|2,0:0|0:0,0:0:0:0:
108,352,16910,2,0,L|12:299,1,103.999996826172,8|2,0:0|0:0,0:0:0:0:
210,332,17326,1,2,0:0:0:0:
240,361,17410,2,0,P|291:378|349:360,1,103.999996826172,8|0,0:0|0:0,0:0:0:0:
440,244,17660,6,0,P|439:184|471:147,1,103.999996826172,2|2,0:0|0:0,0:0:0:0:
388,88,17910,2,0,P|339:63|316:20,1,103.999996826172,8|2,0:0|0:0,0:0:0:0:
508,212,18326,1,2,0:0:0:0:
440,244,18410,2,0,L|334:244,1,103.999996826172,8|2,0:0|0:0,0:0:0:0:
200,164,18660,6,0,P|186:115|202:65,1,103.999996826172,4|2,0:0|0:0,0:0:0:0:
263,114,18910,1,8,0:0:0:0:
120,228,19076,1,2,0:0:0:0:
131,239,19326,5,2,0:0:0:0:
101,268,19410,2,0,L|11:217,1,103.999996826172,8|0,0:0|0:0,0:0:0:0:
261,212,19660,2,0,P|276:163|263:114,1,103.999996826172,2|2,0:0|0:0,0:0:0:0:
52,82,19910,2,0,B|74:122|74:122|126:152,1,103.999996826172,8|2,0:0|0:0,0:0:0:0:
200,296,20160,2,0,P|176:343|132:368,1,103.999996826172,2|2,0:0|0:0,0:0:0:0:
261,212,20410,2,0,L|288:212,4,25.999999206543,8|2|0|0|2,0:0|0:0|0:0|0:0|0:0,0:0:0:0:
376,268,20660,70,0,P|434:257|464:224,1,103.999996826172,4|2,0:0|0:0,0:0:0:0:
324,168,20910,2,0,L|220:188,1,103.999996826172,8|2,0:0|0:0,0:0:0:0:
463,225,21326,1,2,0:0:0:0:
492,195,21410,2,0,P|488:136|512:92,1,103.999996826172,8|2,0:0|0:0,0:0:0:0:
352,136,21660,6,0,P|288:112|264:84,1,103.999996826172,2|2,0:0|0:0,0:0:0:0:
144,268,21910,2,0,L|248:249,1,103.999996826172,8|2,0:0|0:0,0:0:0:0:
265,86,22326,1,2,0:0:0:0:
235,56,22410,2,0,P|184:38|135:49,1,103.999996826172,8|2,0:0|0:0,0:0:0:0:
92,260,22660,6,0,L|194:241,1,103.999996826172,4|2,0:0|0:0,0:0:0:0:
180,123,22910,1,8,0:0:0:0:
54,12,23076,1,2,0:0:0:0:
39,26,23326,5,2,0:0:0:0:
34,67,23410,2,0,P|57:115|99:142,1,103.999996826172,8|2,0:0|0:0,0:0:0:0:
336,152,23660,69,4,0:0:0:0:
372,132,23743,2,0,P|394:115|408:92,1,51.999998413086,2|2,0:0|0:0,0:0:0:0:
318,255,23910,5,8,0:0:0:0:
348,283,23993,2,0,P|371:299|398:305,1,51.999998413086,2|0,0:0|1:0,0:0:0:0:
214,271,24160,5,8,0:0:0:0:
197,308,24243,2,0,P|189:335|191:362,1,51.999998413086,2|0,0:0|1:0,0:0:0:0:
167,177,24410,5,8,0:0:0:0:
126,172,24493,2,0,P|99:173|74:183,1,51.999998413086,2|2,0:0|0:0,0:0:0:0:
244,104,24660,70,0,P|269:59|256:11,1,103.999996826172,4|0,0:0|0:0,0:0:0:0:
140,64,24910,2,0,L|40:20,1,103.999996826172,8|2,0:0|0:0,0:0:0:0:
244,104,25326,1,2,0:0:0:0:
284,94,25410,2,0,B|334:79|334:79|348:56|373:45,1,103.999996826172,8|0,0:0|0:0,0:0:0:0:
450,210,25660,6,0,B|424:188|424:156|424:156|404:120,1,103.999996826172,2|2,0:0|0:0,0:0:0:0:
332,188,25910,2,0,B|292:200|292:200|268:200|268:200|230:207,1,103.999996826172,8|2,0:0|0:0,0:0:0:0:
450,210,26326,1,2,0:0:0:0:
488,192,26409,2,0,B|508:155|485:118|485:118|472:92,1,103.999996826172,8|2,0:0|0:0,0:0:0:0:
340,320,26660,6,0,P|394:333|440:312,1,103.999996826172,4|2,0:0|0:0,0:0:0:0:
450,210,26910,1,8,0:0:0:0:
206,320,27076,1,2,0:0:0:0:
192,312,27327,5,2,0:0:0:0:
167,278,27410,2,0,P|139:235|140:184,1,103.999996826172,8|2,0:0|0:0,0:0:0:0:
240,100,27660,2,0,P|244:152|241:204,1,103.999996826172,2|2,0:0|0:0,0:0:0:0:
16,64,27910,2,0,P|67:60|119:63,1,103.999996826172,8|2,0:0|0:0,0:0:0:0:
120,352,28160,2,0,P|68:355|16:351,1,103.999996826172,2|2,0:0|0:0,0:0:0:0:
24,207,28410,2,0,L|52:207,4,25.999999206543,8|2|0|0|2,0:0|0:0|0:0|0:0|0:0,0:0:0:0:
172,168,28660,70,0,P|225:185|272:172,1,103.999996826172,4|2,0:0|0:0,0:0:0:0:
356,260,28910,2,0,P|368:316|348:364,1,103.999996826172,8|2,0:0|0:0,0:0:0:0:
116,213,29326,1,2,0:0:0:0:
172,168,29410,2,0,P|211:134|224:84,1,103.999996826172,8|2,0:0|0:0,0:0:0:0:
88,324,29660,6,0,P|65:277|20:252,1,103.999996826172,2|2,0:0|0:0,0:0:0:0:
176,268,29910,2,0,L|276:308,1,103.999996826172,8|2,0:0|0:0,0:0:0:0:
11,328,30326,1,2,0:0:0:0:
21,252,30410,2,0,P|23:195|53:162,1,103.999996826172,8|2,0:0|0:0,0:0:0:0:
4,12,30660,6,0,L|104:40,1,103.999996826172,4|2,0:0|0:0,0:0:0:0:
125,116,30910,1,8,0:0:0:0:
300,160,31076,2,0,P|328:82|292:22,1,155.999995239258,2|2,0:0|0:0,0:0:0:0:
238,95,31410,1,8,0:0:0:0:
136,264,31576,5,2,0:0:0:0:
184,320,31660,2,0,P|213:330|239:332,1,51.999998413086,4|2,0:0|0:0,0:0:0:0:
387,167,31826,69,2,0:0:0:0:
459,179,31910,2,0,P|482:198|498:218,1,51.999998413086,8|2,0:0|0:0,0:0:0:0:
323,262,32076,5,0,1:0:0:0:
255,233,32160,2,0,P|232:210|219:187,1,51.999998413086,8|2,0:0|0:0,0:0:0:0:
344,356,32326,5,0,1:0:0:0:
403,312,32410,2,0,P|412:287|416:261,1,51.999998413086,8|2,0:0|0:0,0:0:0:0:
492,92,32576,53,2,0:0:0:0:
428,55,32660,2,0,P|380:50|349:26,1,86.6666666666667,4|0,0:0|0:0,0:0:0:0:
298,78,32910,2,0,L|215:48,1,86.6666666666667,8|2,0:0|0:0,0:0:0:0:
44,140,33326,1,2,0:0:0:0:
68,164,33410,2,0,P|116:180|160:172,1,86.6666666666667,8|0,0:0|0:0,0:0:0:0:
228,96,33660,6,0,B|272:98|272:98|310:120,1,86.6666666666667,2|2,0:0|0:0,0:0:0:0:
332,208,33910,2,0,B|287:205|287:205|249:183,1,86.6666666666667,8|2,0:0|0:0,0:0:0:0:
300,328,34160,2,0,B|320:291|320:291|276:288,1,86.6666666666667,0|2,0:0|0:0,0:0:0:0:
180,324,34410,2,0,B|159:360|159:360|203:363,1,86.6666666666667,8|0,0:0|0:0,0:0:0:0:
38,267,34660,102,0,P|29:312|46:351,1,86.6666666666667,2|0,0:0|0:0,0:0:0:0:
100,304,34910,2,0,L|146:224,1,86.6666666666667,8|2,0:0|0:0,0:0:0:0:
304,96,35326,1,2,0:0:0:0:
329,121,35410,2,0,L|285:196,1,86.6666666666667,8|0,0:0|0:0,0:0:0:0:
368,272,35660,6,0,P|376:326|400:354,1,86.6666666666667,2|2,0:0|0:0,0:0:0:0:
448,288,35910,2,0,L|492:292,2,43.3333333333333,8|2|2,0:0|0:0|0:0,0:0:0:0:
292,296,36160,2,0,P|244:313|220:348,1,86.6666666666667,2|2,0:0|0:0,0:0:0:0:
232,201,36410,2,0,P|221:160|236:120,1,86.6666666666667,8|0,0:0|1:0,0:0:0:0:
404,152,36660,1,4,0:0:0:0:
413,142,36910,101,8,0:0:0:0:
372,8,37076,2,0,P|306:2|248:24,1,130,2|2,0:0|0:0,0:0:0:0:
162,71,37410,2,0,L|78:51,1,86.6666666666667,8|0,0:0|0:0,0:0:0:0:
236,120,37660,6,0,P|278:113|316:92,1,86.6666666666667,2|2,0:0|0:0,0:0:0:0:
219,215,37910,2,0,P|179:198|148:167,1,86.6666666666667,8|2,0:0|0:0,0:0:0:0:
256,305,38160,2,0,P|290:279|312:242,1,86.6666666666667,0|2,0:0|0:0,0:0:0:0:
197,381,38410,2,0,P|171:346|159:305,1,86.6666666666667,8|0,0:0|0:0,0:0:0:0:
312,242,38660,1,4,0:0:0:0:
321,251,38910,101,8,0:0:0:0:
404,352,39076,2,0,P|466:346|508:296,1,130,2|2,0:0|0:0,0:0:0:0:
472,200,39410,2,0,P|480:144|500:116,1,86.6666666666667,8|0,0:0|0:0,0:0:0:0:
472,200,39660,6,0,L|384:208,1,86.6666666666667,2|2,0:0|0:0,0:0:0:0:
111,183,39910,2,0,L|206:175,1,95.3333362426759,8|0,0:0|1:0,0:0:0:0:
376,100,40160,2,0,L|270:109,1,103.999996826172,8|0,0:0|1:0,0:0:0:0:
93,53,40410,2,0,L|206:43,1,112.666661509196,8|0,0:0|1:0,0:0:0:0:
267,236,40660,102,0,P|256:312|220:348,1,130,4|8,0:0|0:0,0:0:0:0:
111,183,41076,1,2,0:0:0:0:
101,192,41326,5,2,0:0:0:0:
104,227,41410,2,0,L|182:269,1,86.6666666666667,8|0,0:0|0:0,0:0:0:0:
64,300,41660,2,0,P|32:264|24:228,1,86.6666666666667,2|2,0:0|0:0,0:0:0:0:
144,156,41910,2,0,P|176:192|184:228,1,86.6666666666667,8|2,0:0|0:0,0:0:0:0:
4,90,42160,2,0,P|19:44|46:19,1,86.6666666666667,2|2,0:0|0:0,0:0:0:0:
172,80,42410,2,0,L|86:91,1,86.6666666666667,8|0,0:0|0:0,0:0:0:0:
248,140,42660,102,0,P|266:64|246:19,1,130,2|8,0:0|0:0,0:0:0:0:
400,52,43076,1,2,0:0:0:0:
409,61,43326,5,2,0:0:0:0:
432,88,43410,2,0,B|432:136|432:136|436:148|436:148|436:180,1,86.6666666666667,8|0,0:0|0:0,0:0:0:0:
364,260,43660,2,0,P|324:281|284:280,1,86.6666666666667,2|2,0:0|0:0,0:0:0:0:
154,226,43910,2,0,P|118:248|97:285,1,86.6666666666667,8|0,0:0|0:0,0:0:0:0:
252,374,44160,2,0,P|215:353|191:318,1,86.6666666666667,0|2,0:0|0:0,0:0:0:0:
215,146,44410,2,0,P|174:128|133:129,1,86.6666666666667,8|0,0:0|1:0,0:0:0:0:
302,182,44660,101,4,0:0:0:0:
191,318,44910,2,0,L|109:342,1,86.6666666666667,8|2,0:0|0:0,0:0:0:0:
302,182,45326,1,2,0:0:0:0:
324,155,45410,2,0,P|338:110|328:71,1,86.6666666666667,8|0,0:0|0:0,0:0:0:0:
224,116,45660,6,0,L|136:104,1,86.6666666666667,2|2,0:0|0:0,0:0:0:0:
8,192,45910,2,0,P|22:228|63:256,1,86.6666666666667,8|2,0:0|0:0,0:0:0:0:
235,102,46160,2,0,L|150:91,1,86.6666666666667,0|2,0:0|0:0,0:0:0:0:
4,56,46410,2,0,P|43:28|84:24,1,86.6666666666667,8|0,0:0|0:0,0:0:0:0:
91,167,46660,101,4,0:0:0:0:
84,336,46910,2,0,L|4:368,1,86.6666666666667,8|2,0:0|0:0,0:0:0:0:
91,167,47326,1,2,0:0:0:0:
122,183,47410,2,0,P|166:183|204:164,1,86.6666666666667,8|0,0:0|0:0,0:0:0:0:
284,244,47660,6,0,L|196:272,1,86.6666666666667,2|2,0:0|0:0,0:0:0:0:
357,332,47910,2,0,P|405:342|448:328,1,95.3333362426759,8|0,0:0|1:0,0:0:0:0:
324,124,48160,2,0,L|218:157,1,103.999996826172,8|0,0:0|1:0,0:0:0:0:
396,248,48410,2,0,P|420:202|410:145,1,112.666661509196,8|0,0:0|1:0,0:0:0:0:
364,4,48660,102,0,L|281:30,1,86.6666666666667,4|2,0:0|0:0,0:0:0:0:
208,112,48910,1,2,0:0:0:0:
128,308,49076,2,0,P|101:250|124:192,1,130,8|2,0:0|0:0,0:0:0:0:
216,192,49410,2,0,P|260:172|284:142,1,86.6666666666667,2|2,0:0|0:0,0:0:0:0:
208,36,49660,5,2,0:0:0:0:
84,72,49826,1,2,0:0:0:0:
60,60,49910,1,2,0:0:0:0:
28,192,50076,1,2,0:0:0:0:
52,182,50160,1,8,0:0:0:0:
24,316,50326,1,2,0:0:0:0:
4,300,50410,2,0,L|96:292,1,86.6666666666667,2|0,0:0|0:0,0:0:0:0:
208,352,50660,102,0,P|254:368|296:360,1,86.6666666666667,2|0,0:0|0:0,0:0:0:0:
396,232,50910,2,0,L|448:160,1,86.6666666666667,2|8,0:0|0:0,0:0:0:0:
300,184,51160,2,0,P|272:216|267:259,1,86.6666666666667,2|2,0:0|1:2,0:0:0:0:
392,328,51410,2,0,L|420:332,2,21.6666666666667,2|2|2,0:0|0:0|0:0,0:0:0:0:
331,291,51576,1,2,0:0:0:0:
267,259,51660,6,0,P|224:264|189:288,1,86.6666666666667,2|2,0:0|0:0,0:0:0:0:
67,167,51910,2,0,P|105:189|128:225,1,86.6666666666667,2|2,0:0|0:0,0:0:0:0:
263,90,52160,2,0,P|245:130|249:173,1,86.6666666666667,8|2,0:0|0:0,0:0:0:0:
129,105,52410,2,0,P|153:69|158:27,1,86.6666666666667,2|0,1:2|1:0,0:0:0:0:
3,11,52660,102,4,P|28:45|67:63,1,86.6666666666667,4|2,0:0|0:0,0:0:0:0:
158,27,52910,1,2,0:0:0:0:
374,61,53076,2,0,P|387:120|335:151,1,130,8|2,0:0|0:0,0:0:0:0:
374,61,53410,1,2,0:0:0:0:
462,189,53576,1,2,0:0:0:0:
478,221,53660,6,0,L|438:297,1,86.6666666666667,2|2,0:0|0:0,0:0:0:0:
334,137,53910,2,0,L|374:61,1,86.6666666666667,2|2,0:0|0:0,0:0:0:0:
314,245,54160,2,0,L|230:269,1,86.6666666666667,8|0,0:0|0:0,0:0:0:0:
394,201,54410,2,0,L|478:221,1,86.6666666666667,2|0,0:0|0:0,0:0:0:0:
228,184,54660,5,4,0:0:0:0:
164,96,54826,1,2,0:0:0:0:
156,62,54910,1,2,0:0:0:0:
302,113,55076,1,8,0:0:0:0:
334,127,55160,1,4,0:0:0:0:
208,216,55326,1,2,1:2:0:0:
176,232,55410,2,0,L|155:237,2,21.6666666666667,2|2|2,0:0|0:0|0:0,0:0:0:0:
112,294,55576,1,2,0:0:0:0:
50,331,55660,86,0,P|22:291|18:255,1,86.6666666666667,2|2,0:0|0:0,0:0:0:0:
68,188,55910,2,0,P|76:144|56:104,1,86.6666666666667,8|0,0:0|1:0,0:0:0:0:
198,56,56160,6,0,L|156:62,1,43.3333333333333,8|0,0:0|1:0,0:0:0:0:
264,140,56326,2,0,L|306:134,1,43.3333333333333,0|0,1:0|1:0,0:0:0:0:
400,36,56493,2,0,L|357:41,1,43.3333333333333,0|0,1:0|1:0,0:0:0:0:
363,292,56660,6,0,P|383:245|379:193,1,103.999996826172,4|0,0:0|0:0,0:0:0:0:
306,133,56910,1,8,0:0:0:0:
168,336,57076,2,0,P|112:315|72:233,1,155.999995239258,2|2,0:0|0:0,0:0:0:0:
120,124,57410,2,0,L|223:120,1,103.999996826172,8|0,0:0|0:0,0:0:0:0:
279,228,57660,86,0,L|176:232,1,103.999996826172,2|2,0:0|0:0,0:0:0:0:
52,188,57910,2,0,P|30:141|32:89,1,103.999996826172,8|2,0:0|0:0,0:0:0:0:
292,58,58160,2,0,P|313:104|311:156,1,103.999996826172,2|2,0:0|0:0,0:0:0:0:
104,32,58410,2,0,L|207:28,1,103.999996826172,8|2,0:0|0:0,0:0:0:0:
334,242,58660,54,0,P|379:213|399:169,1,103.999996826172,2|0,0:0|0:0,0:0:0:0:
399,74,58910,1,8,0:0:0:0:
223,120,59076,2,0,P|190:195|224:255,1,155.999995239258,2|2,0:0|0:0,0:0:0:0:
334,242,59410,2,0,L|362:258,2,25.999999206543,8|2|2,0:0|0:0|0:0,0:0:0:0:
272,189,59576,1,0,0:0:0:0:
223,254,59660,70,0,P|172:272|124:260,1,103.999996826172,2|2,0:0|0:0,0:0:0:0:
4,60,59910,2,0,P|52:83|78:126,1,103.999996826172,8|0,0:0|0:0,0:0:0:0:
82,345,60160,2,0,P|41:307|30:260,1,103.999996826172,2|2,0:0|0:0,0:0:0:0:
167,72,60410,2,0,P|184:121|171:171,1,103.999996826172,8|0,0:0|1:0,0:0:0:0:
328,336,60660,6,0,P|382:317|414:277,1,103.999996826172,4|0,0:0|0:0,0:0:0:0:
400,180,60910,2,0,P|434:141|483:126,1,103.999996826172,8|2,0:0|0:0,0:0:0:0:
328,336,61326,1,2,0:0:0:0:
296,364,61410,2,0,L|192:376,1,103.999996826172,8|0,0:0|0:0,0:0:0:0:
131,315,61660,85,2,0:0:0:0:
236,248,61826,2,0,L|288:244,1,51.999998413086,2|8,0:0|0:0,0:0:0:0:
132,168,62076,2,0,L|184:164,1,51.999998413086,2|2,0:0|0:0,0:0:0:0:
252,60,62326,2,0,L|304:56,1,51.999998413086,2|8,0:0|0:0,0:0:0:0:
136,12,62576,1,0,0:0:0:0:
136,12,62660,54,0,P|116:64|76:92,1,103.999996826172,2|0,0:0|0:0,0:0:0:0:
64,184,62910,2,0,P|86:234|78:282,1,103.999996826172,8|2,0:0|0:0,0:0:0:0:
4,243,63160,1,2,0:0:0:0:
52,12,63326,1,2,0:0:0:0:
136,12,63410,2,0,L|235:46,1,103.999996826172,8|0,0:0|0:0,0:0:0:0:
316,16,63660,85,2,0:0:0:0:
419,135,63826,1,2,0:0:0:0:
389,164,63910,86,0,L|335:163,1,51.999998413086,8|0,0:0|0:0,0:0:0:0:
182,196,64076,1,0,1:0:0:0:
214,228,64160,54,0,L|271:226,1,57.1999998254394,8|0,0:0|0:0,0:0:0:0:
439,263,64326,1,0,1:0:0:0:
404,298,64410,70,0,L|341:296,1,62.4000015234375,8|0,0:0|0:0,0:0:0:0:
129,330,64576,1,0,1:0:0:0:
168,367,64660,6,0,L|271:367,1,103.999996826172,4|0,0:0|0:0,0:0:0:0:
341,296,64910,1,8,0:0:0:0:
272,100,65076,1,2,0:0:0:0:
260,111,65326,85,2,0:0:0:0:
228,140,65410,2,0,P|172:136|140:104,1,103.999996826172,8|0,0:0|0:0,0:0:0:0:
340,34,65660,2,0,P|366:88|362:130,1,103.999996826172,2|2,0:0|0:0,0:0:0:0:
345,288,65910,2,0,L|440:340,1,103.999996826172,8|2,0:0|0:0,0:0:0:0:
296,192,66160,2,0,P|250:231|237:272,1,103.999996826172,2|2,0:0|0:0,0:0:0:0:
412,212,66410,2,0,P|454:158|456:120,1,103.999996826172,8|2,0:0|0:0,0:0:0:0:
340,34,66660,54,0,L|236:54,1,103.999996826172,2|0,0:0|0:0,0:0:0:0:
180,117,66910,1,8,0:0:0:0:
39,35,67076,1,2,0:0:0:0:
4,12,67160,1,2,0:0:0:0:
66,119,67326,1,2,0:0:0:0:
76,160,67410,2,0,P|54:212|15:240,1,103.999996826172,8|0,0:0|0:0,0:0:0:0:
62,323,67660,70,0,L|162:351,1,103.999996826172,2|2,0:0|0:0,0:0:0:0:
292,180,67910,2,0,P|256:228|256:280,1,103.999996826172,8|2,0:0|0:0,0:0:0:0:
328,344,68160,2,0,L|416:288,1,103.999996826172,2|2,0:0|0:0,0:0:0:0:
184,188,68410,2,0,P|175:128|196:92,1,103.999996826172,8|2,0:0|1:2,0:0:0:0:
384,184,68660,5,4,0:0:0:0:
64,68,68910,1,8,0:0:0:0:
276,212,69076,2,0,P|240:264|152:277,1,155.999995239258,2|2,0:0|0:0,0:0:0:0:
64,68,69410,2,0,L|156:20,1,103.999996826172,8|0,0:0|0:0,0:0:0:0:
324,92,69660,85,2,0:0:0:0:
152,277,69910,1,8,0:0:0:0:
384,184,70076,2,0,P|432:106|424:46,1,155.999995239258,2|2,0:0|0:0,0:0:0:0:
153,277,70410,2,0,L|256:299,1,103.999996826172,8|0,0:0|0:0,0:0:0:0:
254,299,70660,53,2,0:0:0:0:
88,116,71076,70,0,L|36:104,1,51.999998413086,2|8,0:0|0:0,0:0:0:0:
384,88,71576,102,0,L|428:60,1,51.999998413086,2|8,0:0|0:0,0:0:0:0:
204,184,71826,2,0,L|254:172,1,51.999998413086,2|2,0:0|0:0,0:0:0:0:
24,280,72076,1,0,1:0:0:0:
53,290,72160,1,8,0:0:0:0:
84,292,72243,1,2,1:2:0:0:
113,283,72326,1,2,1:2:0:0:
138,264,72410,5,2,1:2:0:0:
124,300,72493,1,2,1:2:0:0:
132,338,72576,1,2,1:2:0:0:
157,369,72660,6,0,P|218:381|263:355,1,117.00000044632,4|2,0:0|0:0,0:0:0:0:
344,248,72910,2,0,P|396:221|453:230,1,117.00000044632,0|0,1:0|0:0,0:0:0:0:
251,194,73160,2,0,P|231:140|251:87,1,117.00000044632,2|2,0:0|0:0,0:0:0:0:
372,32,73410,2,0,B|396:88|396:88|376:140,1,117.00000044632,0|0,1:0|0:0,0:0:0:0:
280,136,73660,6,0,L|164:160,1,117.00000044632,4|2,0:0|0:0,0:0:0:0:
84,124,73910,1,0,1:0:0:0:
106,340,74076,1,2,0:0:0:0:
147,364,74160,2,0,P|202:353|239:304,1,117.00000044632,2|0,0:0|0:0,0:0:0:0:
104,250,74410,2,0,B|58:283|58:283|0:296,1,117.00000044632,0|0,1:0|1:0,0:0:0:0:
164,258,74660,6,0,P|108:240|72:196,1,117.00000044632,4|2,0:0|0:0,0:0:0:0:
112,116,74910,1,0,1:0:0:0:
324,128,75076,1,2,0:0:0:0:
364,104,75160,2,0,L|421:2,1,117.00000044632,2|0,0:0|0:0,0:0:0:0:
308,24,75410,1,0,1:0:0:0:
396,208,75576,1,0,0:0:0:0:
440,216,75660,5,6,0:0:0:0:
247,159,75826,1,2,0:0:0:0:
234,126,75910,2,0,B|236:100|249:79|249:79|223:51|227:18,1,117.00000044632,0|2,1:0|0:0,0:0:0:0:
324,128,76160,2,0,B|334:151|328:179|328:179|317:202|327:234|327:234|320:248,1,117.00000044632,4|2,0:0|0:0,0:0:0:0:
164,188,76410,2,0,B|132:153|140:120|140:120|160:84,1,117.00000044632,0|0,1:0|1:0,0:0:0:0:
219,267,76660,70,0,B|173:294|129:277|129:277|144:296,1,117.00000044632,4|0,0:0|0:0,0:0:0:0:
50,184,76910,2,0,B|86:193|86:193|119:175|164:188,1,117.00000044632,0|0,1:0|0:0,0:0:0:0:
296,328,77160,2,0,B|349:338|380:310|380:310|410:322,1,117.00000044632,2|2,0:0|0:0,0:0:0:0:
444,132,77410,2,0,B|452:96|482:89|482:89|452:96|444:48,1,117.00000044632,0|2,1:0|0:0,0:0:0:0:
64,13,77660,6,0,B|75:71|75:71|43:119,1,117.00000044632,4|0,0:0|0:0,0:0:0:0:
335,198,77910,2,0,B|324:140|324:140|356:92,1,117.00000044632,0|2,1:0|0:0,0:0:0:0:
164,108,78160,2,0,B|132:156|132:156|143:214,1,117.00000044632,2|0,0:0|0:0,0:0:0:0:
216,284,78410,2,0,B|248:236|248:236|236:177,1,117.00000044632,0|0,1:0|0:0,0:0:0:0:
391,289,78660,70,0,L|511:339,1,130,4|2,0:0|1:2,0:0:0:0:
201,252,79076,1,2,0:0:0:0:
216,284,79160,2,0,L|336:334,1,130,2|2,0:0|1:0,0:0:0:0:
61,261,79576,1,2,0:0:0:0:
78,292,79660,6,0,L|158:325,1,86.6666666666667,4|2,0:0|0:0,0:0:0:0:
308,348,79910,2,0,L|227:314,1,86.6666666666667,0|2,1:0|0:0,0:0:0:0:
128,200,80160,2,0,B|104:152|104:152|104:116,1,86.6666666666667,0|0,1:0|1:0,0:0:0:0:
296,148,80410,2,0,B|296:114|296:114|272:66,1,86.6666666666667,0|0,1:0|1:0,0:0:0:0:
200,132,80660,102,0,B|224:228,1,97.50000371933,2|4,0:0|0:0,0:0:0:0:
400,228,81076,21,2,0:0:0:0:
436,196,81160,2,0,B|473:167|480:137|480:137|498:178,1,117.00000044632,2|2,0:0|0:0,0:0:0:0:
476,288,81410,2,0,P|427:321|370:320,1,117.00000044632,0|0,1:0|0:0,0:0:0:0:
155,254,81660,6,0,B|190:285|185:328|185:328|194:360,1,117.00000044632,4|2,0:0|0:0,0:0:0:0:
300,216,81910,2,0,B|312:244|312:244|280:268|273:320,1,117.00000044632,0|2,1:0|0:0,0:0:0:0:
104,321,82160,2,0,B|58:315|52:277|52:277|52:225,1,117.00000044632,2|2,0:0|0:0,0:0:0:0:
74,77,82410,2,0,B|126:77|126:77|142:81|142:81|198:85,1,117.00000044632,0|0,1:0|1:0,0:0:0:0:
236,160,82660,5,4,0:0:0:0:
344,72,82826,1,2,0:0:0:0:
323,30,82910,1,0,1:0:0:0:
84,141,83076,1,2,0:0:0:0:
104,184,83160,2,0,B|158:185|158:185|169:213|199:235,1,117.00000044632,2|2,0:0|0:0,0:0:0:0:
352,304,83410,2,0,B|334:339|350:378|350:378|308:364,1,117.00000044632,0|0,1:0|0:0,0:0:0:0:
308,200,83660,6,0,B|321:171|315:147|315:147|349:159|376:145,1,117.00000044632,4|2,0:0|0:0,0:0:0:0:
444,240,83910,2,0,B|422:263|422:263|444:298|424:344,1,117.00000044632,0|2,1:0|0:0,0:0:0:0:
160,360,84160,2,0,B|150:326|174:303|174:303|206:309|229:297,1,117.00000044632,2|2,0:0|0:0,0:0:0:0:
232,380,84410,1,2,1:2:0:0:
28,311,84576,1,0,1:0:0:0:
24,264,84660,70,0,B|32:228|32:228|28:200|28:200|28:148,1,117.00000044632,4|0,0:0|0:0,0:0:0:0:
132,72,84910,2,0,B|124:108|124:108|128:136|128:136|128:188,1,117.00000044632,0|2,1:0|0:0,0:0:0:0:
224,112,85160,2,0,B|284:96|284:96|248:84|240:52,1,117.00000044632,2|2,0:0|0:0,0:0:0:0:
64,12,85410,2,0,B|4:28|4:28|40:40|48:72,1,117.00000044632,0|0,1:0|0:0,0:0:0:0:
276,200,85660,6,0,B|323:187|323:187|339:176|339:176|388:164,1,117.00000044632,4|2,0:0|0:0,0:0:0:0:
300,348,85910,2,0,B|252:359|252:359|236:370|236:370|189:383,1,117.00000044632,0|2,1:0|0:0,0:0:0:0:
384,272,86160,2,0,B|368:292|368:292|398:333|384:379,1,117.00000044632,0|2,0:0|0:0,0:0:0:0:
192,276,86410,2,0,B|208:256|208:256|178:215|192:169,1,117.00000044632,0|2,1:0|0:0,0:0:0:0:
272,24,86660,70,0,P|289:57|288:108,1,86.6666666666667,4|2,0:0|0:0,0:0:0:0:
196,80,86910,1,2,1:2:0:0:
395,96,87076,1,2,0:0:0:0:
393,131,87160,6,0,P|377:167|341:200,1,86.6666666666667,2|0,0:0|0:0,0:0:0:0:
288,105,87410,1,0,1:0:0:0:
323,306,87576,1,2,0:0:0:0:
359,305,87660,102,0,P|399:290|430:259,1,86.6666666666667,4|2,0:0|0:0,0:0:0:0:
251,368,87910,2,0,P|230:328|232:288,1,86.6666666666667,0|2,1:0|0:0,0:0:0:0:
364,222,88160,5,8,0:0:0:0:
385,234,88243,1,0,1:0:0:0:
407,247,88326,1,0,1:0:0:0:
430,260,88410,1,8,0:0:0:0:
451,272,88493,1,0,1:0:0:0:
473,285,88576,1,0,1:0:0:0:
503,302,88660,5,4,0:0:0:0:
63,127,96160,86,0,L|107:127,2,43.3333333333333,8|0|0,0:2|0:0|0:0,0:0:0:0:
212,188,96410,2,0,L|168:188,2,43.3333333333333,8|0|0,0:2|0:0|0:0,0:0:0:0:
107,255,96660,22,0,P|131:300|181:323,1,103.999996826172,4|2,0:0|0:0,0:0:0:0:
280,308,96910,2,0,B|329:318|329:318|372:356,1,103.999996826172,8|2,0:0|0:0,0:0:0:0:
188,240,97327,1,2,0:0:0:0:
107,255,97410,2,0,L|0:264,1,103.999996826172,8|0,0:0|0:0,0:0:0:0:
200,144,97660,6,0,P|210:194|188:240,1,103.999996826172,2|2,0:0|0:0,0:0:0:0:
72,124,97910,2,0,P|61:74|84:28,1,103.999996826172,8|2,0:0|0:0,0:0:0:0:
107,255,98326,1,2,0:0:0:0:
188,240,98410,2,0,L|292:260,1,103.999996826172,8|2,0:0|0:0,0:0:0:0:
376,160,98660,6,0,P|416:120|424:72,1,103.999996826172,4|2,0:0|0:0,0:0:0:0:
340,84,98910,1,8,0:0:0:0:
464,216,99076,1,2,0:0:0:0:
455,228,99326,5,2,0:0:0:0:
423,256,99410,2,0,P|391:301|399:352,1,103.999996826172,8|0,0:0|0:0,0:0:0:0:
284,328,99660,2,0,B|232:344|232:344|180:336,1,103.999996826172,2|2,0:0|0:0,0:0:0:0:
224,232,99910,2,0,B|276:216|276:216|328:224,1,103.999996826172,8|2,0:0|0:0,0:0:0:0:
80,256,100160,2,0,P|60:196|72:156,1,103.999996826172,2|2,0:0|0:0,0:0:0:0:
166,108,100410,2,0,L|192:108,4,25.999999206543,8|2|0|0|2,0:0|0:0|0:0|0:0|0:0,0:0:0:0:
61,201,100660,70,0,P|19:239|12:284,1,103.999996826172,4|2,0:0|0:0,0:0:0:0:
170,208,100910,2,0,B|222:208|222:208|270:180,1,103.999996826172,8|2,0:0|0:0,0:0:0:0:
61,201,101326,1,2,0:0:0:0:
28,124,101410,2,0,P|16:64|36:24,1,103.999996826172,8|0,0:0|0:0,0:0:0:0:
200,24,101660,6,0,P|256:43|284:80,1,103.999996826172,2|2,0:0|0:0,0:0:0:0:
380,88,101910,2,0,P|441:72|468:44,1,103.999996826172,8|2,0:0|0:0,0:0:0:0:
200,24,102326,1,2,0:0:0:0:
204,108,102410,2,0,L|216:212,1,103.999996826172,8|2,0:0|0:0,0:0:0:0:
312,356,102660,6,0,P|314:304|288:260,1,103.999996826172,4|2,0:0|0:0,0:0:0:0:
236,324,102910,1,8,0:0:0:0:
424,232,103076,1,2,0:0:0:0:
412,243,103326,5,2,0:0:0:0:
416,284,103410,2,0,P|444:328|492:344,1,103.999996826172,8|2,0:0|0:0,0:0:0:0:
456,88,103660,69,4,0:0:0:0:
379,54,103743,2,0,P|367:30|350:11,1,51.999998413086,2|2,0:0|0:0,0:0:0:0:
365,188,103910,5,8,0:0:0:0:
446,170,103993,2,0,P|468:182|494:188,1,51.999998413086,2|0,0:0|1:0,0:0:0:0:
379,54,104160,5,8,0:0:0:0:
324,115,104243,2,0,P|298:118|274:128,1,51.999998413086,2|0,0:0|1:0,0:0:0:0:
447,170,104410,5,8,0:0:0:0:
455,88,104493,2,0,P|473:69|487:47,1,51.999998413086,2|2,0:0|0:0,0:0:0:0:
365,188,104660,1,4,0:0:0:0:
355,197,104910,38,0,L|272:224,1,86.6666666666667,2|8,0:0|0:0,0:0:0:0:
128,296,105326,1,2,0:0:0:0:
175,351,105410,2,0,P|210:375|252:372,1,86.6666666666667,8|2,0:0|0:0,0:0:0:0:
128,296,105660,5,2,0:0:0:0:
44,356,105826,1,2,0:0:0:0:
15,337,105910,2,0,P|1:291|11:253,1,86.6666666666667,2|0,0:0|0:0,0:0:0:0:
52,196,106160,1,2,0:0:0:0:
264,248,106410,1,2,0:0:0:0:
96,108,106660,1,4,0:0:0:0:
86,98,106910,102,0,L|4:128,1,86.6666666666667,2|8,0:0|0:0,0:0:0:0:
152,12,107326,1,2,0:0:0:0:
223,27,107410,2,0,P|261:46|284:88,1,86.6666666666667,8|2,0:0|0:0,0:0:0:0:
152,12,107660,5,0,0:0:0:0:
204,104,107826,1,2,0:0:0:0:
216,135,107910,2,0,P|250:160|292:166,1,86.6666666666667,2|0,0:0|0:0,0:0:0:0:
191,159,108160,102,0,P|225:184|267:190,1,86.6666666666667,2|0,0:0|0:0,0:0:0:0:
166,183,108410,6,0,P|200:208|242:214,1,86.6666666666667,2|0,0:0|0:0,0:0:0:0:
141,207,108660,1,4,0:0:0:0:
165,231,108910,102,0,P|199:256|241:261,1,86.6666666666667,2|8,0:0|0:0,0:0:0:0:
368,88,109326,1,2,0:0:0:0:
383,159,109410,2,0,P|392:205|376:244,1,86.6666666666667,8|2,0:0|0:0,0:0:0:0:
368,88,109660,5,2,0:0:0:0:
393,65,109743,1,0,0:0:0:0:
425,53,109826,1,2,0:0:0:0:
459,48,109910,2,0,P|411:42|380:16,1,86.6666666666667,2|0,0:0|0:0,0:0:0:0:
299,45,110160,2,0,P|280:89|247:113,1,86.6666666666667,2|0,0:0|0:0,0:0:0:0:
292,188,110410,1,2,0:0:0:0:
300,220,110493,1,2,0:0:0:0:
309,252,110576,1,0,0:0:0:0:
318,286,110660,1,4,0:0:0:0:
321,297,110910,102,0,L|256:240,1,86.6666666666667,2|8,0:0|0:0,0:0:0:0:
84,232,111326,1,2,0:0:0:0:
33,283,111410,2,0,P|17:327|25:367,1,86.6666666666667,8|2,0:0|0:0,0:0:0:0:
84,232,111660,5,4,0:0:0:0:
16,28,111910,2,0,L|16:114,1,86.6666666666667,8|2,0:0|0:0,0:0:0:0:
84,232,112160,2,0,L|84:144,1,86.6666666666667,2|2,0:0|0:0,0:0:0:0:
152,28,112410,2,0,L|152:114,1,86.6666666666667,8|2,0:0|0:0,0:0:0:0:
84,232,112660,1,4,0:0:0:0:
93,241,112910,102,0,L|184:260,1,86.6666666666667,2|8,0:0|0:0,0:0:0:0:
324,340,113326,1,2,0:0:0:0:
384,300,113410,2,0,P|416:272|428:224,1,86.6666666666667,8|2,0:0|0:0,0:0:0:0:
324,340,113660,5,2,0:0:0:0:
425,379,113826,1,2,0:0:0:0:
460,368,113910,2,0,P|472:326|504:298,1,86.6666666666667,2|0,0:0|0:0,0:0:0:0:
512,204,114160,2,0,P|487:168|451:146,1,86.6666666666667,2|0,0:0|0:0,0:0:0:0:
499,73,114410,1,2,0:0:0:0:
428,230,114660,1,4,0:0:0:0:
417,238,114910,102,0,L|328:252,1,86.6666666666667,2|8,0:0|0:0,0:0:0:0:
172,184,115326,1,2,0:0:0:0:
160,112,115410,2,0,P|176:60|200:36,1,86.6666666666667,8|2,0:0|0:0,0:0:0:0:
172,184,115660,5,2,0:0:0:0:
88,260,115826,1,2,0:0:0:0:
63,235,115910,1,2,0:0:0:0:
244,108,116076,1,2,0:0:0:0:
312,88,116160,1,2,0:0:0:0:
238,245,116326,1,2,0:0:0:0:
223,296,116410,1,2,0:0:0:0:
88,260,116576,1,2,0:0:0:0:
63,235,116660,1,4,0:0:0:0:
53,244,116910,102,0,L|80:336,1,86.6666666666667,2|8,0:0|0:0,0:0:0:0:
313,323,117326,1,2,0:0:0:0:
328,252,117410,2,0,P|319:203|295:173,1,86.6666666666667,8|2,0:0|0:0,0:0:0:0:
313,323,117660,5,2,0:0:0:0:
336,348,117743,1,2,0:0:0:0:
368,360,117826,1,0,0:0:0:0:
402,353,117910,2,0,P|391:307|408:272,1,86.6666666666667,2|0,0:0|0:0,0:0:0:0:
238,319,118160,2,0,P|283:332|305:364,1,86.6666666666667,2|0,0:0|0:0,0:0:0:0:
349,194,118410,2,0,P|314:226|275:229,1,86.6666666666667,2|0,0:0|0:0,0:0:0:0:
407,272,118660,1,4,0:0:0:0:
416,263,118910,102,0,L|444:180,1,86.6666666666667,2|8,0:0|0:0,0:0:0:0:
392,16,119326,1,2,0:0:0:0:
324,41,119410,2,0,P|280:41|240:17,1,86.6666666666667,8|2,0:0|0:0,0:0:0:0:
392,16,119660,21,4,0:0:0:0:
344,136,119826,1,2,0:0:0:0:
344,136,119910,2,0,L|262:181,1,86.6666666666667,8|0,0:0|1:0,0:0:0:0:
392,16,120160,2,0,L|472:64,1,86.6666666666667,8|0,0:0|1:0,0:0:0:0:
444,260,120410,2,0,L|445:166,1,86.6666666666667,8|0,0:0|1:0,0:0:0:0:
268,178,120660,6,0,L|204:196,1,65.0000024795533,6|2,0:0|0:0,0:0:0:0:
202,201,120910,2,0,P|194:233|200:264,1,65.0000024795533,2|2,0:0|1:2,0:0:0:0:
116,316,121326,1,2,0:0:0:0:
116,316,121410,2,0,P|124:284|118:253,1,65.0000024795533,2|0,0:0|0:0,0:0:0:0:
113,248,121660,6,0,L|48:240,1,65.0000024795533,2|0,0:0|0:0,0:0:0:0:
43,235,121910,2,0,P|37:203|45:172,1,65.0000024795533,0|2,0:0|0:0,0:0:0:0:
49,167,122160,1,0,1:0:0:0:
116,96,122410,2,0,L|180:104,1,65.0000024795533,0|0,0:0|0:0,0:0:0:0:
185,99,122660,6,0,P|193:67|187:36,1,65.0000024795533,2|0,0:0|0:0,0:0:0:0:
191,31,122910,2,0,L|252:56,1,65.0000024795533,2|2,0:0|1:2,0:0:0:0:
346,34,123326,1,2,1:2:0:0:
346,34,123410,2,0,P|346:73|336:104,1,65.0000024795533,2|2,0:0|0:0,0:0:0:0:
338,104,123660,70,0,L|396:136,1,65.0000024795533,0|2,0:0|0:0,0:0:0:0:
320,200,124076,1,2,0:0:0:0:
320,200,124160,2,0,L|256:208,1,65.0000024795533,2|0,1:2|0:0,0:0:0:0:
250,212,124410,2,0,L|184:208,1,65.0000024795533,2|0,1:2|1:0,0:0:0:0:
180,212,124660,6,0,P|161:242|160:272,1,65.0000024795533,2|2,0:0|0:0,0:0:0:0:
161,277,124910,2,0,L|200:328,1,65.0000024795533,2|2,0:0|1:2,0:0:0:0:
293,360,125326,1,2,0:0:0:0:
293,360,125410,2,0,P|331:354|356:340,1,65.0000024795533,2|0,0:0|0:0,0:0:0:0:
358,336,125660,5,0,0:0:0:0:
408,252,125910,1,2,0:0:0:0:
359,168,126160,1,2,1:2:0:0:
425,96,126410,1,2,0:0:0:0:
359,24,126660,6,0,L|295:16,1,65.0000024795533,2|0,0:0|0:0,0:0:0:0:
289,20,126910,2,0,P|280:64|288:84,1,65.0000024795533,0|2,0:0|1:2,0:0:0:0:
220,153,127326,1,0,1:0:0:0:
220,153,127410,1,2,0:0:0:0:
169,212,127576,1,0,0:0:0:0:
169,212,127660,2,0,L|104:208,1,65.0000024795533,0|2,0:0|1:2,0:0:0:0:
99,203,127910,2,0,P|77:180|72:148,1,65.0000024795533
76,143,128160,38,0,L|76:252,1,108.333333333333,2|0,0:0|0:0,0:0:0:0:
10,315,128660,22,0,P|70:343|122:333,1,117.00000044632,4|2,0:0|0:0,0:0:0:0:
296,188,128910,2,0,B|277:216|252:227|252:227|236:260|240:288,1,117.00000044632,0|0,1:0|0:0,0:0:0:0:
84,46,129160,2,0,B|116:51|140:72|140:72|164:58|200:58,1,117.00000044632,2|2,0:0|0:0,0:0:0:0:
396,248,129410,2,0,B|381:231|381:231|405:189|380:140,1,117.00000044632,0|0,1:0|0:0,0:0:0:0:
220,153,129660,6,0,B|236:125|262:114|262:114|274:88|277:57,1,117.00000044632,4|2,0:0|0:0,0:0:0:0:
192,58,129910,1,0,1:0:0:0:
76,219,130076,1,2,0:0:0:0:
103,258,130160,2,0,B|136:280|166:273|166:273|212:291,1,117.00000044632,2|2,0:0|0:0,0:0:0:0:
362,338,130410,2,0,B|335:320|335:320|308:311|308:311|313:285|304:256,1,117.00000044632,0|0,1:0|1:0,0:0:0:0:
154,193,130660,6,0,B|136:156|103:142|103:142|56:140,1,117.00000044632,4|2,0:0|0:0,0:0:0:0:
137,363,130910,2,0,B|156:354|156:354|180:364|180:364|208:378|248:365,1,117.00000044632,0|2,1:0|0:0,0:0:0:0:
372,193,131160,2,0,B|394:218|396:248|396:248|416:225|448:236,1,117.00000044632,2|2,0:0|0:0,0:0:0:0:
214,260,131410,2,0,B|218:221|238:198|238:198|228:169|244:148,1,117.00000044632,0|2,1:0|0:0,0:0:0:0:
95,50,131660,6,0,B|151:59|151:59|175:58|175:58|211:70,1,117.00000044632,4|2,0:0|0:0,0:0:0:0:
296,50,131910,1,0,1:0:0:0:
304,260,132076,1,2,0:0:0:0:
289,305,132160,2,0,B|265:343|221:348|221:348|200:376,1,117.00000044632,4|2,0:0|0:0,0:0:0:0:
220,208,132410,2,0,B|224:165|224:165|271:157|287:125,1,117.00000044632,0|0,1:0|1:0,0:0:0:0:
28,340,132660,70,0,B|34:289|34:289|42:269|42:269|44:224,1,117.00000044632,4|2,0:0|0:0,0:0:0:0:
140,144,132910,2,0,B|134:195|134:195|126:215|126:215|124:260,1,117.00000044632,0|0,1:0|0:0,0:0:0:0:
48,140,133160,2,0,B|57:89|57:89|77:69|77:69|96:60|109:40,1,117.00000044632,2|2,0:0|0:0,0:0:0:0:
218,255,133410,2,0,B|209:306|209:306|189:326|189:326|170:335|157:355,1,117.00000044632,0|2,1:0|0:0,0:0:0:0:
192,104,133660,6,0,B|232:123|232:123|262:102|302:105,1,117.00000044632,4|2,0:0|0:0,0:0:0:0:
480,252,133910,2,0,B|440:233|440:233|410:254|370:251,1,117.00000044632,0|2,1:0|0:0,0:0:0:0:
288,200,134160,2,0,B|271:233|276:261|276:261|236:296,1,117.00000044632,2|2,0:0|0:0,0:0:0:0:
384,156,134410,2,0,B|401:123|396:95|396:95|436:60,1,117.00000044632,0|2,1:0|0:0,0:0:0:0:
417,268,134660,1,4,0:0:0:0:
403,280,134910,70,0,P|376:313|337:332,1,86.6666666666667,2|2,1:2|0:0,0:0:0:0:
252,308,135160,1,2,0:0:0:0:
251,288,135410,6,0,P|277:254|317:237,1,86.6666666666667,2|2,1:0|0:0,0:0:0:0:
188,360,135660,2,0,P|162:325|155:283,1,86.6666666666667,4|0,0:0|0:0,0:0:0:0:
256,152,135910,2,0,P|229:185|190:203,1,86.6666666666667,0|2,1:0|0:0,0:0:0:0:
80,220,136160,2,0,L|44:248,2,43.3333333333333,0|2|0,1:0|0:0|1:0,0:0:0:0:
120,124,136410,2,0,P|155:88|164:53,1,86.6666666666667,0|0,1:0|1:0,0:0:0:0:
2,12,136660,102,0,L|88:56,1,97.50000371933,2|4,0:0|0:0,0:0:0:0:
328,100,137076,21,2,0:0:0:0:
372,116,137160,2,0,B|397:121|418:145|418:145|400:84,1,117.00000044632,2|2,0:0|0:0,0:0:0:0:
249,238,137410,2,0,B|298:236|328:204|328:204|354:196,1,117.00000044632,0|2,1:0|0:0,0:0:0:0:
248,20,137660,6,0,B|261:53|261:53|237:83|251:131,1,117.00000044632,4|2,0:0|0:0,0:0:0:0:
72,336,137910,2,0,B|56:312|56:312|80:274|58:227,1,117.00000044632,0|2,1:0|0:0,0:0:0:0:
164,172,138160,2,0,B|180:196|180:196|156:234|178:281,1,117.00000044632,2|2,0:0|0:0,0:0:0:0:
344,344,138410,2,0,B|385:335|394:299|394:299|362:260,1,117.00000044632,0|0,1:0|1:0,0:0:0:0:
308,196,138660,5,4,0:0:0:0:
50,181,138826,1,2,0:0:0:0:
58,227,138910,1,0,1:0:0:0:
174,377,139076,1,2,0:0:0:0:
220,368,139160,2,0,B|268:368|268:368|261:328|261:328|273:312|269:292,1,117.00000044632,2|2,0:0|0:0,0:0:0:0:
378,131,139410,2,0,B|402:163|402:186|402:186|438:232,1,117.00000044632,0|2,1:0|0:0,0:0:0:0:
236,128,139660,6,0,B|214:98|223:69|223:69|252:61|264:32,1,117.00000044632,4|2,0:0|0:0,0:0:0:0:
460,44,139910,2,0,B|449:67|449:67|463:79|468:104|468:104|492:146,1,117.00000044632,0|2,1:0|0:0,0:0:0:0:
308,196,140160,2,0,B|281:224|246:231|246:231|205:210,1,117.00000044632,2|2,0:0|0:0,0:0:0:0:
236,128,140410,1,2,1:2:0:0:
420,232,140576,1,0,1:0:0:0:
444,272,140660,70,0,B|453:308|441:335|441:335|488:360,1,117.00000044632,4|2,0:0|0:0,0:0:0:0:
352,300,140910,2,0,B|300:308|300:308|279:322|279:322|240:328,1,117.00000044632,0|2,1:0|0:0,0:0:0:0:
64,228,141160,2,0,B|104:196|109:157|109:157|140:164,1,117.00000044632,2|0,0:0|0:0,0:0:0:0:
196,244,141410,2,0,B|156:276|151:315|151:315|120:308,1,117.00000044632,0|2,1:0|0:0,0:0:0:0:
14,125,141660,6,0,B|41:97|41:97|58:61|98:45,1,117.00000044632,4|0,0:0|0:0,0:0:0:0:
224,200,141910,2,0,B|274:229|305:216|305:216|333:238,1,117.00000044632,0|2,1:0|0:0,0:0:0:0:
368,44,142160,2,0,B|341:72|341:72|324:108|284:124,1,117.00000044632,2|0,0:0|0:0,0:0:0:0:
124,132,142410,2,0,B|175:103|179:70|179:70|212:56,1,117.00000044632,0|2,1:0|0:0,0:0:0:0:
235,129,142660,1,4,0:0:0:0:
408,143,142826,69,2,0:0:0:0:
458,90,142910,2,0,P|482:50|482:2,1,86.6666666666667,2|2,1:2|0:0,0:0:0:0:
404,30,143160,1,2,0:0:0:0:
314,156,143326,5,2,0:0:0:0:
362,211,143410,2,0,P|406:223|453:211,1,86.6666666666667,0|2,1:0|0:0,0:0:0:0:
408,143,143660,1,4,0:0:0:0:
268,64,143826,101,2,0:0:0:0:
235,129,143910,2,0,P|234:175|258:217,1,86.6666666666667,0|2,1:0|0:0,0:0:0:0:
268,64,144160,1,8,0:0:0:0:
250,81,144243,1,0,1:0:0:0:
232,99,144326,1,0,1:0:0:0:
214,117,144410,1,8,0:0:0:0:
196,134,144493,1,0,1:0:0:0:
179,153,144576,1,0,1:0:0:0:
154,177,144660,22,0,P|149:227|170:276,1,103.999996826172,4|0,0:0|0:0,0:0:0:0:
2,324,144910,2,0,P|24:277|66:250,1,103.999996826172,2|0,1:0|0:0,0:0:0:0:
264,260,145160,2,0,P|258:315|228:352,1,103.999996826172,2|2,0:0|0:0,0:0:0:0:
169,275,145410,1,2,1:0:0:0:
325,164,145576,1,2,0:0:0:0:
396,164,145660,6,0,L|428:172,4,25.999999206543,2|2|0|0|2,0:0|0:0|0:0|0:0|0:0,0:0:0:0:
257,183,145910,1,2,1:2:0:0:
124,100,146076,1,2,0:0:0:0:
140,116,146326,5,2,0:0:0:0:
206,85,146410,2,0,P|240:51|247:14,1,86.6666666666667,2|0,1:0|0:0,0:0:0:0:
53,108,146660,6,0,L|140:116,1,86.6666666666667,2|2,0:0|0:0,0:0:0:0:
22,274,146910,2,0,P|12:232|21:190,1,86.6666666666667,2|2,1:0|0:0,0:0:0:0:
152,320,147160,2,0,P|130:358|91:374,1,86.6666666666667,2|0,0:0|0:0,0:0:0:0:
112,232,147410,2,0,P|154:225|200:236,1,86.6666666666667,2|0,1:2|0:0,0:0:0:0:
280,260,147660,70,0,P|305:297|303:340,1,86.6666666666667,2|0,0:0|0:0,0:0:0:0:
196,234,147910,1,2,1:2:0:0:
348,148,148076,1,2,0:0:0:0:
364,164,148326,5,0,0:0:0:0:
432,189,148410,2,0,P|480:160|504:119,1,103.999996826172,2|2,1:0|1:2,0:0:0:0:
284,100,148660,6,0,L|232:100,2,51.999998413086,4|2|2,0:0|0:0|0:0,0:0:0:0:
342,26,148910,1,2,1:2:0:0:
372,56,148993,2,0,L|408:92,1,51.999998413086,2|0,0:0|0:0,0:0:0:0:
428,328,149160,6,0,L|480:328,2,51.999998413086,4|2|2,0:0|0:0|0:0,0:0:0:0:
370,254,149410,1,2,1:2:0:0:
340,284,149493,2,0,L|303:320,1,51.999998413086,2|0,0:0|0:0,0:0:0:0:
140,256,149660,70,0,L|36:256,1,103.999996826172,4|0,0:0|0:0,0:0:0:0:
20,160,149910,1,2,1:0:0:0:
173,344,150076,2,0,P|228:284|221:214,1,155.999995239258,2|0,0:0|0:0,0:0:0:0:
47,353,150410,2,0,P|27:306|35:256,1,103.999996826172,2|2,1:0|0:0,0:0:0:0:
120,124,150660,6,0,P|85:74|47:57,1,103.999996826172,4|0,0:0|0:0,0:0:0:0:
20,160,150910,1,2,1:0:0:0:
242,104,151076,1,2,0:0:0:0:
260,119,151326,5,2,0:0:0:0:
332,128,151410,2,0,P|370:94|384:44,1,103.999996826172,2|2,1:0|0:0,0:0:0:0:
212,208,151660,6,0,P|199:268|221:319,1,117.00000044632,4|0,0:0|0:0,0:0:0:0:
120,272,151910,1,2,1:0:0:0:
294,257,152076,2,0,P|350:225|332:128,1,175.500000669479,2|2,1:0|1:2,0:0:0:0:
100,178,152410,2,0,P|46:212|25:259,1,117.00000044632,2|0,1:0|1:0,0:0:0:0:
232,336,152660,70,0,L|360:356,1,130.000004959107,4|2,0:0|0:0,0:0:0:0:
480,200,152910,2,0,P|479:266|440:316,1,130.000004959107,2|0,1:0|0:0,0:0:0:0:
296,188,153160,6,0,L|232:184,2,65.0000024795533,0|2|2,0:0|0:0|0:0,0:0:0:0:
400,112,153410,1,2,1:2:0:0:
439,78,153493,2,0,P|459:58|472:25,1,65.0000024795533,2|0,0:0|0:0,0:0:0:0:
225,48,153660,6,0,P|210:79|210:110,1,65.0000024795533,2|2,0:0|0:0,0:0:0:0:
231,183,153826,1,2,0:0:0:0:
204,258,153910,2,0,L|148:290,2,65.0000024795533,2|2|0,1:2|0:0|0:0,0:0:0:0:
368,148,154160,5,2,0:0:0:0:
378,198,154243,1,2,0:0:0:0:
355,244,154326,1,0,0:0:0:0:
311,272,154410,1,2,1:2:0:0:
283,316,154493,2,0,L|315:372,1,65.0000024795533,0|2,0:0|0:0,0:0:0:0:
96,372,154660,70,0,P|71:350|56:321,2,65.0000024795533,2|2|2,0:0|0:0|0:0,0:0:0:0:
52,248,154910,1,2,1:2:0:0:
79,203,154994,2,0,L|112:144,1,65.0000024795533,2|0,0:0|0:0,0:0:0:0:
172,64,155160,5,0,0:0:0:0:
208,102,155243,2,0,P|215:131|211:165,1,65.0000024795533,2|2,0:0|0:0,0:0:0:0:
8,172,155410,2,0,P|13:104|51:58,1,130.000004959107,2|0,1:0|0:0,0:0:0:0:
172,64,155660,6,0,L|300:32,1,130,2|2,0:0|1:2,0:0:0:0:
298,32,156076,1,2,0:0:0:0:
392,124,156326,1,2,0:0:0:0:
404,156,156410,2,0,P|397:205|376:236,1,86.6666666666667,2|2,1:0|1:2,0:0:0:0:
168,356,156660,6,0,P|132:317|132:268,1,103.999996826172,4|2,0:0|0:0,0:0:0:0:
48,352,156910,1,2,1:0:0:0:
220,284,157076,2,0,L|324:304,1,103.999996826172,2|0,0:0|0:0,0:0:0:0:
377,359,157326,69,2,0:0:0:0:
408,331,157410,1,2,1:2:0:0:
431,297,157493,1,2,0:0:0:0:
447,258,157576,1,2,0:0:0:0:
451,217,157660,6,0,L|356:148,1,117.00000044632,4|2,0:0|0:0,0:0:0:0:
476,112,157910,1,2,1:0:0:0:
300,228,158076,2,0,P|264:177|263:123,1,117.00000044632,2|0,0:0|0:0,0:0:0:0:
192,64,158327,5,2,0:0:0:0:
154,92,158410,1,2,1:2:0:0:
125,129,158494,1,2,0:0:0:0:
108,171,158577,1,2,0:0:0:0:
101,218,158660,6,0,L|153:260,1,65.0000024795533,4|2,0:0|0:0,0:0:0:0:
215,301,158826,1,2,0:0:0:0:
169,364,158910,2,0,L|102:374,1,65.0000024795533,4|2,1:2|0:0,0:0:0:0:
37,336,159076,1,2,0:0:0:0:
9,292,159160,69,4,0:0:0:0:
1,240,159243,1,2,0:0:0:0:
17,190,159326,1,2,0:0:0:0:
49,116,159410,2,0,P|65:80|65:48,2,65.0000024795533,2|2|2,1:0|0:0|0:0,0:0:0:0:
108,171,159660,5,2,1:2:0:0:
148,203,159743,1,2,0:0:0:0:
197,222,159827,1,2,0:0:0:0:
248,226,159910,1,2,1:2:0:0:
299,214,159993,1,2,0:0:0:0:
344,188,160077,1,2,1:2:0:0:
380,150,160160,5,4,0:0:0:0:
380,71,160243,1,2,0:0:0:0:
312,32,160326,1,2,0:0:0:0:
245,71,160410,1,2,1:0:0:0:
245,149,160493,1,2,0:0:0:0:
312,188,160576,1,2,0:0:0:0:
391,178,160660,86,0,P|460:185|507:221,1,130,4|0,0:0|0:0,0:0:0:0:
506,220,161076,1,2,0:0:0:0:
364,360,161410,2,0,P|295:371|240:348,1,130,2|0,0:0|0:0,0:0:0:0:
240,348,161826,85,2,0:0:0:0:
92,208,162076,1,2,0:0:0:0:
92,208,162160,2,0,L|216:256,1,130,8|2,0:0|0:0,0:0:0:0:
36,376,162660,54,0,P|4:325|16:260,1,130,2|0,0:0|0:0,0:0:0:0:
16,259,163076,1,2,0:0:0:0:
100,128,163326,1,0,0:0:0:0:
100,128,163410,2,0,P|132:83|122:13,1,130,2|0,0:0|0:0,0:0:0:0:
121,12,163826,69,2,0:0:0:0:
4,88,164076,2,0,L|44:68,1,43.3333333333333,2|8,0:0|0:0,0:0:0:0:
212,60,164326,2,0,L|256:72,1,43.3333333333333,2|8,0:0|0:0,0:0:0:0:
352,36,164576,1,8,0:0:0:0:
352,36,164660,6,0,P|356:100|322:153,1,130,2|0,0:0|0:0,0:0:0:0:
321,153,165076,1,2,0:0:0:0:
192,176,165326,1,0,0:0:0:0:
192,176,165410,2,0,P|160:232|172:296,1,130,2|0,0:0|0:0,0:0:0:0:
170,293,165826,85,2,0:0:0:0:
288,352,166076,1,2,0:0:0:0:
288,352,166160,2,0,L|416:376,1,130,8|2,0:0|0:0,0:0:0:0:
492,272,166660,54,0,P|510:202|492:148,1,130,2|0,0:0|0:0,0:0:0:0:
492,148,167076,1,2,0:0:0:0:
384,212,167326,1,0,0:0:0:0:
384,212,167410,2,0,L|256:240,1,130,2|2,0:0|0:0,0:0:0:0:
160,204,167826,70,0,L|179:141,1,43.3333333333333,8|2,0:0|0:0,0:0:0:0:
253,96,168076,2,0,L|297:144,1,43.3333333333333,0|2,0:0|0:0,0:0:0:0:
299,230,168326,2,0,L|257:240,1,43.3333333333333,0|8,1:0|0:0,0:0:0:0:
172,300,168576,1,8,0:0:0:0:
172,300,168660,6,0,P|114:290|81:262,1,103.999996826172,6|2,0:0|0:0,0:0:0:0:
1,287,168910,2,0,P|34:335|38:378,1,103.999996826172,2|2,0:0|1:0,0:0:0:0:
160,204,169326,1,2,0:0:0:0:
160,204,169410,2,0,P|192:157|189:108,1,103.999996826172,2|2,0:0|0:0,0:0:0:0:
140,44,169660,2,0,P|66:55|1:13,1,155.999995239258,2|2,0:0|0:0,0:0:0:0:
8,136,170076,85,2,0:0:0:0:
8,136,170160,2,0,L|112:142,1,103.999996826172,2|0,1:0|0:0,0:0:0:0:
224,25,170410,2,0,P|267:63|282:106,1,103.999996826172,2|0,0:0|0:0,0:0:0:0:
383,251,170660,54,0,P|428:220|450:176,1,103.999996826172,4|0,0:0|0:0,0:0:0:0:
356,160,170910,2,0,P|318:192|266:198,1,103.999996826172,2|2,0:0|1:0,0:0:0:0:
415,88,171326,1,2,1:0:0:0:
415,88,171410,2,0,P|466:82|512:104,1,103.999996826172,2|2,0:0|0:0,0:0:0:0:
512,188,171660,2,0,P|493:240|504:288,1,103.999996826172,2|2,0:0|0:0,0:0:0:0:
328,352,172076,69,2,0:0:0:0:
328,352,172160,1,2,1:0:0:0:
240,264,172326,1,2,0:0:0:0:
240,264,172410,1,2,1:0:0:0:
136,332,172576,1,0,1:0:0:0:
136,332,172660,6,0,P|86:358|40:356,1,103.999996826172,4|2,0:0|0:0,0:0:0:0:
6,201,172910,2,2,P|49:229|70:276,1,103.999996826172,2|2,0:0|1:0,0:0:0:0:
4,52,173326,1,2,0:0:0:0:
4,52,173410,2,0,P|55:25|104:28,1,103.999996826172,2|0,0:0|0:0,0:0:0:0:
180,96,173660,2,0,P|254:78|288:12,1,155.999995239258,2|2,0:0|0:0,0:0:0:0:
316,164,174076,85,2,0:0:0:0:
316,164,174160,2,0,L|214:187,1,103.999996826172,2|0,1:0|0:0,0:0:0:0:
143,233,174410,2,0,P|124:281|136:332,1,103.999996826172,2|0,0:0|0:0,0:0:0:0:
372,256,174660,54,0,P|413:216|426:171,1,103.999996826172,4|0,0:0|0:0,0:0:0:0:
316,164,174910,2,0,P|275:204|262:249,1,103.999996826172,0|2,1:0|0:0,0:0:0:0:
380,288,175160,70,0,P|421:248|434:203,1,103.999996826172,2|2,0:0|0:0,0:0:0:0:
324,196,175410,2,0,P|283:236|270:281,1,103.999996826172,2|2,1:0|0:0,0:0:0:0:
388,320,175660,6,0,P|429:280|442:235,1,103.999996826172,2|2,0:0|0:0,0:0:0:0:
332,228,175910,1,0,1:0:0:0:
301,256,175994,1,0,1:0:0:0:
282,293,176077,1,0,1:0:0:0:
280,333,176160,85,2,1:0:0:0:
296,371,176243,2,0,L|328:380,2,25.999999206543,0|2|0,1:0|1:0|1:0,0:0:0:0:
280,333,176410,5,0,1:0:0:0:
248,307,176493,1,0,1:0:0:0:
209,293,176576,1,0,1:0:0:0:
167,291,176660,6,0,L|72:340,1,103.999996826172,4|2,0:0|0:0,0:0:0:0:
166,248,176910,2,0,L|74:296,1,103.999996826172,4|0,0:0|0:0,0:0:0:0:
50,212,177160,86,0,P|15:185|2:144,1,86.6666666666667,2|2,0:0|0:0,0:0:0:0:
42,68,177410,2,0,P|76:93|89:134,1,86.6666666666667,2|2,1:0|0:0,0:0:0:0:
120,12,177660,53,4,0:0:0:0:
166,19,177743,1,2,0:0:0:0:
208,39,177826,1,2,0:0:0:0:
237,76,177910,1,4,0:0:0:0:
266,39,177993,1,2,0:0:0:0:
308,19,178076,1,2,0:0:0:0:
354,12,178160,70,0,L|384:12,4,29.2500001115799,4|0|0|0|0,0:0|1:0|1:0|1:0|1:0,0:0:0:0:
335,87,178410,2,0,L|305:87,4,29.2500001115799,2|0|0|0|0,1:0|1:0|1:0|1:0|1:0,0:0:0:0:
386,145,178660,102,0,L|450:145,1,65,4|0,0:0|0:0,0:0:0:0:
340,244,179160,2,0,L|275:244,1,65,2|0,0:0|0:0,0:0:0:0:
384,344,179660,2,0,L|449:344,1,65,2|0,0:0|0:0,0:0:0:0:
340,244,180160,2,0,L|275:244,1,65,2|0,0:0|0:0,0:0:0:0:
156,332,180660,6,0,L|104:292,1,65,2|0,0:0|0:0,0:0:0:0:
128,164,181160,2,0,L|180:204,1,65,2|0,0:0|0:0,0:0:0:0:
12,152,181660,2,0,L|3:86,1,65,2|0,0:0|0:0,0:0:0:0:
110,13,182160,2,0,L|118:78,1,65,2|0,0:0|0:0,0:0:0:0:
260,156,182660,102,0,L|324:156,1,65,2|0,0:0|0:0,0:0:0:0:
204,48,183160,2,0,L|268:48,1,65,2|0,0:0|0:0,0:0:0:0:
456,212,183660,2,0,L|392:212,1,65,2|0,0:0|0:0,0:0:0:0:
512,104,184160,2,0,L|448:104,1,65,2|0,0:0|0:0,0:0:0:0:
391,212,184660,5,2,0:0:0:0:
121,212,185160,1,2,0:0:0:0:
340,312,185660,2,0,L|280:288,1,65,2|0,0:0|0:0,0:0:0:0:
160,328,186160,2,0,L|220:352,1,65,2|0,0:0|0:0,0:0:0:0:
32,316,186660,102,0,P|16:282|16:255,1,65.0000024795533,4|0,0:0|0:0,0:0:0:0:
48,180,186910,2,0,L|112:164,1,65.0000024795533,0|2,0:0|0:0,0:0:0:0:
111,164,187160,1,0,1:0:0:0:
112,260,187410,1,0,0:0:0:0:
196,212,187660,6,0,P|209:173|208:146,1,65.0000024795533,2|0,0:0|1:0,0:0:0:0:
172,76,187910,2,0,L|108:92,1,65.0000024795533,0|2,0:0|0:0,0:0:0:0:
108,91,188160,1,0,1:0:0:0:
244,12,188410,2,0,P|262:41|268:72,1,65.0000024795533,2|0,0:0|0:0,0:0:0:0:
323,132,188660,102,0,L|387:140,1,65.0000024795533,2|0,0:0|0:0,0:0:0:0:
459,100,188910,2,0,P|476:63|475:32,1,65.0000024795533,0|2,0:0|0:0,0:0:0:0:
476,39,189160,1,0,1:0:0:0:
378,50,189410,1,2,0:0:0:0:
323,132,189660,6,0,L|308:196,1,65.0000024795533,2|0,0:0|1:0,0:0:0:0:
324,276,189910,2,0,P|349:296|380:304,1,65.0000024795533,2|0,0:0|0:0,0:0:0:0:
380,304,190160,1,0,1:0:0:0:
248,364,190410,2,0,P|223:344|192:336,1,65.0000024795533,2|0,0:0|0:0,0:0:0:0:
116,292,190660,102,0,L|24:300,1,86.6666666666667,6|0,0:0|0:0,0:0:0:0:
4,216,190910,2,0,L|96:208,1,86.6666666666667,2|2,0:0|0:0,0:0:0:0:
88,100,191160,2,0,P|116:61|120:20,1,86.6666666666667,0|0,1:0|0:0,0:0:0:0:
33,34,191410,2,0,P|5:73|1:114,1,86.6666666666667,0|0,0:0|1:0,0:0:0:0:
88,100,191660,6,0,L|172:124,1,86.6666666666667,2|0,0:0|1:0,0:0:0:0:
252,68,191910,2,0,P|268:112|266:151,1,86.6666666666667,0|2,0:0|0:0,0:0:0:0:
288,248,192160,2,0,L|372:272,1,86.6666666666667,0|0,1:0|0:0,0:0:0:0:
388,173,192410,2,0,P|372:129|374:90,1,86.6666666666667,2|0,0:0|0:0,0:0:0:0:
288,248,192660,102,0,L|412:283,1,130,2|0,0:0|1:0,0:0:0:0:
240,222,193076,1,0,0:0:0:0:
264,258,193160,6,0,L|390:294,1,130,2|0,0:0|1:0,0:0:0:0:
216,232,193576,1,0,1:0:0:0:
240,268,193660,5,4,1:0:0:0:
248,269,193743,1,0,1:0:0:0:
258,271,193826,1,0,1:0:0:0:
267,274,193910,1,4,1:3:0:0:
277,277,193993,1,4,1:3:0:0:
287,279,194076,1,0,1:0:0:0:
297,281,194160,37,4,3:0:0:0:
257,328,194243,1,2,0:0:0:0:
202,359,194326,1,2,0:0:0:0:
141,365,194410,1,2,1:2:0:0:
81,348,194493,1,2,0:0:0:0:
32,309,194576,1,2,0:0:0:0:
2,254,194660,6,0,B|0:200|22:176|22:176|16:136,1,117.00000044632,4|2,0:0|0:0,0:0:0:0:
155,176,194910,2,0,B|130:203|136:248|136:248|98:234,1,117.00000044632,0|2,1:0|0:0,0:0:0:0:
214,62,195160,2,0,B|247:34|291:46|291:46|319:26,1,117.00000044632,2|2,0:0|0:0,0:0:0:0:
128,24,195410,2,0,B|117:47|121:71|121:71|87:84|87:84|104:103|104:120,1,117.00000044632,0|2,1:0|0:0,0:0:0:0:
244,176,195660,6,0,B|272:156|272:156|316:168|354:137,1,117.00000044632,4|0,0:0|0:0,0:0:0:0:
436,164,195910,1,0,1:0:0:0:
352,364,196076,1,2,0:0:0:0:
314,336,196160,2,0,B|316:299|316:299|298:270|298:270|298:235|298:235|280:240,1,117.00000044632,2|2,0:0|0:0,0:0:0:0:
400,242,196410,2,0,B|433:260|473:243|473:243|448:280,1,117.00000044632,0|0,1:0|1:0,0:0:0:0:
220,321,196660,70,0,B|172:296|172:296|143:313|111:311,1,117.00000044632,4|2,0:0|0:0,0:0:0:0:
68,140,196910,2,0,B|92:144|108:140|108:140|120:216,1,117.00000044632,0|2,1:0|0:0,0:0:0:0:
26,337,197160,2,0,B|16:293|41:256|41:256|36:225,1,117.00000044632,2|2,0:0|0:0,0:0:0:0:
32,56,197410,2,0,B|60:52|84:60|84:60|116:51|116:51|146:61,1,117.00000044632,0|2,1:0|0:0,0:0:0:0:
326,179,197660,6,0,B|353:156|380:149|380:149|403:134|408:104,1,117.00000044632,4|2,0:0|0:0,0:0:0:0:
246,12,197910,2,0,B|235:41|246:70|246:70|232:100|232:100|252:128,1,117.00000044632,0|2,1:0|0:0,0:0:0:0:
244,208,198160,1,4,0:0:0:0:
470,47,198326,1,2,0:0:0:0:
431,20,198410,2,0,B|381:8|349:43|349:43|321:42,1,117.00000044632,0|0,1:0|1:0,0:0:0:0:
220,321,198660,6,0,B|225:302|210:281|210:281|170:262|163:225,1,117.00000044632,4|0,0:0|0:0,0:0:0:0:
366,251,198910,2,0,B|342:261|322:259|322:259|341:292|335:331,1,117.00000044632,0|2,1:0|0:0,0:0:0:0:
128,340,199160,2,0,B|92:336|66:347|66:347|51:319|59:293,1,117.00000044632,2|2,0:0|0:0,0:0:0:0:
28,108,199410,2,0,B|21:147|21:147|29:177|29:177|29:204|18:226,1,117.00000044632,0|2,1:0|0:0,0:0:0:0:
228,132,199660,6,0,B|208:144|208:144|164:121|116:145,1,117.00000044632,4|2,0:0|0:0,0:0:0:0:
272,232,199910,2,0,B|308:228|308:228|343:196|328:156,1,117.00000044632,0|2,1:0|0:0,0:0:0:0:
165,226,200160,2,0,B|176:282|176:282|200:296|220:321,1,117.00000044632,2|2,0:0|0:0,0:0:0:0:
444,276,200410,2,0,B|453:219|418:192|418:192|432:164,1,117.00000044632,0|2,1:0|0:0,0:0:0:0:
366,251,200660,1,4,0:0:0:0:
347,269,200910,6,0,P|316:303|276:316,1,86.6666666666667,2|2,1:2|0:0,0:0:0:0:
416,360,201160,1,2,0:0:0:0:
434,352,201410,6,0,P|476:345|509:317,1,86.6666666666667,2|2,1:0|0:0,0:0:0:0:
504,208,201660,2,0,L|492:166,2,43.3333333333333,2|0|0,0:0|1:0|1:0,0:0:0:0:
435,121,201910,1,2,1:2:0:0:
374,82,201993,2,0,L|350:86,2,21.6666666666667,0|0|0,1:0|1:0|1:0,0:0:0:0:
456,20,202160,101,2,1:0:0:0:
485,39,202243,2,0,P|493:58|496:82,1,43.3333333333333,2|0,1:2|1:0,0:0:0:0:
435,121,202410,1,2,1:0:0:0:
430,128,202493,1,8,1:3:0:0:
423,134,202576,1,4,1:3:0:0:
416,140,202660,6,0,L|347:209,1,97.50000371933,2|4,0:0|0:0,0:0:0:0:
303,317,203076,69,2,0:0:0:0:
287,361,203160,2,0,P|235:380|178:365,1,117.00000044632,2|2,0:0|0:0,0:0:0:0:
100,232,203410,2,0,B|140:188|140:188|200:176,1,117.00000044632,0|2,1:0|0:0,0:0:0:0:
20,368,203660,6,0,B|8:332|8:332|32:288|12:256,1,117.00000044632,4|2,0:0|0:0,0:0:0:0:
72,60,203910,2,0,B|120:60|120:60|140:68|140:68|187:57,1,117.00000044632,0|2,1:0|0:0,0:0:0:0:
2,112,204160,2,0,B|26:141|64:145|64:145|33:178,1,117.00000044632,2|0,0:0|0:0,0:0:0:0:
264,108,204410,2,0,B|304:78|292:36|292:36|264:12,1,117.00000044632,0|0,1:0|1:0,0:0:0:0:
186,57,204660,69,4,0:0:0:0:
273,219,204826,1,2,0:0:0:0:
317,203,204910,2,0,B|355:176|361:151|361:151|396:146|408:168,1,117.00000044632,0|2,1:0|0:0,0:0:0:0:
220,312,205160,2,0,B|218:279|218:279|187:247|193:202,1,117.00000044632,2|2,0:0|0:0,0:0:0:0:
364,16,205410,2,0,B|372:45|368:76|368:76|393:74|426:85,1,117.00000044632,0|2,1:0|0:0,0:0:0:0:
492,280,205660,6,0,B|450:301|422:282|422:282|397:288|392:312,1,117.00000044632,4|2,0:0|0:0,0:0:0:0:
126,283,205910,2,0,B|132:302|146:319|146:319|150:359|186:379,1,117.00000044632,0|2,1:0|0:0,0:0:0:0:
273,219,206160,2,0,B|283:183|271:161|271:161|278:134|278:134|272:100,1,117.00000044632,2|2,0:0|0:0,0:0:0:0:
28,120,206410,2,0,B|68:118|68:118|83:143|131:160,1,117.00000044632,2|0,1:2|1:0,0:0:0:0:
250,14,206660,6,0,B|218:26|200:49|200:49|144:64,1,117.00000044632,4|0,0:0|0:0,0:0:0:0:
43,211,206910,2,0,B|52:247|52:247|36:285|56:330,1,117.00000044632,0|2,1:0|0:0,0:0:0:0:
264,304,207160,2,0,B|298:309|324:289|324:289|346:267|372:281,1,117.00000044632,2|2,0:0|0:0,0:0:0:0:
280,132,207410,2,0,B|246:127|220:147|220:147|198:169|172:155,1,117.00000044632,0|2,1:0|0:0,0:0:0:0:
273,219,207660,5,4,0:0:0:0:
380,164,207826,1,2,0:0:0:0:
387,117,207910,1,0,1:0:0:0:
172,280,208076,1,0,0:0:0:0:
165,327,208160,1,2,0:0:0:0:
352,276,208326,1,2,0:0:0:0:
398,279,208410,2,0,B|428:287|448:309|448:309|455:253,1,117.00000044632,0|0,1:0|0:0,3:0:0:0:
243,57,208660,6,0,P|252:99|280:132,1,86.6666666666667,4|2,0:0|0:0,0:0:0:0:
325,63,208910,1,2,1:2:0:0:
192,152,209076,1,2,0:0:0:0:
169,179,209160,6,0,P|128:192|86:185,1,86.6666666666667,2|0,0:0|0:0,0:0:0:0:
122,111,209410,1,0,1:0:0:0:
112,272,209576,1,2,0:0:0:0:
118,306,209660,102,0,P|126:348|154:380,1,86.6666666666667,6|2,0:0|0:0,0:0:0:0:
298,271,209910,2,0,P|250:278|218:303,1,86.6666666666667,0|2,1:0|0:0,0:0:0:0:
353,359,210160,6,0,L|392:340,1,43.3333333333333,8|0,0:0|1:0,0:0:0:0:
491,230,210326,2,0,L|488:273,1,43.3333333333333,0|8,1:0|0:0,3:0:0:0:
345,199,210493,2,0,L|381:222,1,43.3333333333333,0|0,1:0|1:0,0:0:0:0:
220,300,210660,70,0,P|178:265|166:218,1,103.999996826172,4|2,0:0|0:0,0:0:0:0:
200,128,210910,2,0,P|222:76|207:30,1,103.999996826172,8|2,0:0|0:0,0:0:0:0:
248,224,211326,1,2,0:0:0:0:
220,300,211410,2,0,L|116:320,1,103.999996826172,8|2,0:0|0:0,0:0:0:0:
8,256,211660,6,0,P|0:200|24:152,1,103.999996826172,2|2,0:0|0:0,0:0:0:0:
191,76,211910,2,0,P|153:30|112:12,1,103.999996826172,8|2,0:0|0:0,0:0:0:0:
8,256,212326,1,2,0:0:0:0:
81,214,212410,2,0,P|100:166|91:115,1,103.999996826172,8|2,0:0|0:0,0:0:0:0:
128,320,212660,70,0,L|228:352,1,103.999996826172,4|2,0:0|0:0,0:0:0:0:
360,212,212910,2,0,P|372:272|361:313,1,103.999996826172,8|2,0:0|0:0,0:0:0:0:
128,320,213327,1,2,0:0:0:0:
159,243,213410,2,0,P|179:195|219:163,1,103.999996826172,8|0,0:0|0:0,0:0:0:0:
264,264,213660,5,2,0:0:0:0:
448,288,213826,1,2,0:0:0:0:
483,264,213910,1,8,0:0:0:0:
432,88,214076,1,2,0:0:0:0:
400,88,214160,2,0,B|380:84|380:84|360:92|360:92|344:92|316:81|292:88,1,103.999996826172,2|2,0:0|0:0,0:0:0:0:
304,196,214410,2,0,L|316:164,4,25.999999206543,8|2|0|0|2,0:0|0:0|0:0|0:0|0:0,0:0:0:0:
149,293,214660,6,0,P|108:258|97:208,1,103.999996826172,4|2,0:0|0:0,0:0:0:0:
180,216,214910,1,8,0:0:0:0:
32,327,215076,1,2,0:0:0:0:
36,342,215326,5,2,0:0:0:0:
68,368,215410,2,0,L|171:375,1,103.999996826172,8|0,0:0|0:0,0:0:0:0:
312,292,215660,2,0,B|364:308|364:308|396:348,1,103.999996826172,2|2,0:0|0:0,0:0:0:0:
316,376,215910,1,8,0:0:0:0:
256,208,216076,2,0,P|239:129|281:73,1,155.999995239258,2|2,0:0|0:0,0:0:0:0:
388,56,216410,2,0,P|434:83|483:76,1,103.999996826172,8|2,0:0|0:0,0:0:0:0:
430,168,216660,70,0,L|326:152,1,103.999996826172,4|2,0:0|0:0,0:0:0:0:
281,72,216910,1,8,0:0:0:0:
371,255,217076,2,0,B|391:288|389:320|389:320|420:336|428:300|464:288,1,155.999995239258,2|2,0:0|0:0,0:0:0:0:
294,314,217410,2,0,P|242:312|200:284,1,103.999996826172,8|2,0:0|0:0,0:0:0:0:
117,102,217660,5,4,0:0:0:0:
129,61,217743,2,0,L|144:9,1,51.999998413086,2|2,0:0|0:0,0:0:0:0:
126,213,217910,5,8,0:0:0:0:
86,201,217993,2,0,L|34:185,1,51.999998413086,2|0,0:0|1:0,0:0:0:0:
238,203,218160,5,8,0:0:0:0:
226,244,218243,2,0,L|210:294,1,51.999998413086,2|0,0:0|1:0,0:0:0:0:
218,84,218410,69,8,0:0:0:0:
258,96,218493,2,0,L|309:111,1,51.999998413086,2|2,0:0|0:0,0:0:0:0:
296,300,218660,6,0,P|269:351|232:376,1,103.999996826172,4|2,0:0|0:0,0:0:0:0:
388,188,218910,2,0,L|488:220,1,103.999996826172,8|2,0:0|0:0,0:0:0:0:
210,294,219326,1,2,0:0:0:0:
296,300,219410,2,0,L|396:332,1,103.999996826172,8|2,0:0|0:0,0:0:0:0:
328,112,219660,6,0,P|298:158|294:205,1,103.999996826172,2|2,0:0|0:0,0:0:0:0:
388,188,219910,1,8,0:0:0:0:
216,120,220076,1,2,0:0:0:0:
200,128,220326,5,2,0:0:0:0:
172,160,220410,2,0,P|160:212|182:258,1,103.999996826172,8|2,0:0|0:0,0:0:0:0:
44,272,220660,70,0,B|20:216|20:216|28:172,1,103.999996826172,4|2,0:0|0:0,0:0:0:0:
56,92,220910,1,8,0:0:0:0:
227,9,221076,2,0,P|295:42|328:112,1,155.999995239258,2|2,0:0|0:0,0:0:0:0:
324,224,221410,2,0,P|375:213|419:177,1,103.999996826172,8|0,0:0|0:0,0:0:0:0:
200,344,221660,6,0,P|144:364|100:360,1,103.999996826172,2|2,0:0|0:0,0:0:0:0:
72,188,221910,2,0,P|117:226|135:266,1,103.999996826172,8|2,0:0|0:0,0:0:0:0:
0,376,222160,2,0,P|10:317|36:281,1,103.999996826172,2|2,0:0|0:0,0:0:0:0:
200,344,222410,2,0,L|232:352,4,25.999999206543,8|2|0|0|2,0:0|0:0|0:0|0:0|0:0,0:0:0:0:
85,355,222660,5,4,0:0:0:0:
72,188,222826,1,2,0:0:0:0:
88,148,222910,1,8,0:0:0:0:
246,208,223076,2,0,P|302:140|286:72,1,155.999995239258,2|2,0:0|0:0,0:0:0:0:
161,228,223410,2,0,P|188:276|232:295,1,103.999996826172,8|2,0:0|0:0,0:0:0:0:
222,127,223660,6,0,L|134:68,1,103.999996826172,2|2,0:0|0:0,0:0:0:0:
246,208,223910,1,8,0:0:0:0:
396,132,224076,2,0,P|462:146|510:216,1,155.999995239258,2|2,0:0|0:0,0:0:0:0:
412,330,224410,2,0,P|390:284|405:235,1,103.999996826172,8|0,0:0|0:0,0:0:0:0:
412,330,224660,70,0,L|312:364,1,103.999996826172,4|2,0:0|0:0,0:0:0:0:
244,308,224910,1,8,0:0:0:0:
156,148,225076,2,0,P|236:159|282:213,1,155.999995239258,2|2,0:0|0:0,0:0:0:0:
182,253,225410,1,8,0:0:0:0:
340,88,225576,5,2,0:0:0:0:
400,148,225659,2,0,P|422:165|436:185,1,51.999998413086,4|2,0:0|0:0,0:0:0:0:
207,66,225826,5,2,0:0:0:0:
283,28,225909,2,0,P|305:12|329:5,1,51.999998413086,8|2,0:0|0:0,0:0:0:0:
147,184,226076,5,0,1:0:0:0:
134,100,226159,2,0,P|126:73|126:48,1,51.999998413086,8|2,0:0|0:0,0:0:0:0:
244,278,226326,69,0,1:0:0:0:
161,265,226409,2,0,P|133:264|110:256,1,51.999998413086,8|2,0:0|0:0,0:0:0:0:
363,215,226576,5,2,0:0:0:0:
324,289,226660,2,0,P|295:343|256:360,1,103.999996826172,4|0,0:0|0:0,0:0:0:0:
173,243,226910,2,0,L|252:176,1,103.999996826172,8|2,0:0|0:0,0:0:0:0:
267,175,227326,5,2,0:0:0:0:
220,104,227410,2,0,P|164:88|120:100,1,103.999996826172,8|0,0:0|0:0,0:0:0:0:
12,304,227660,2,0,P|52:348|96:360,1,103.999996826172,2|2,0:0|0:0,0:0:0:0:
171,288,227910,2,0,L|168:185,1,103.999996826172,8|2,0:0|0:0,0:0:0:0:
168,200,228326,5,2,0:0:0:0:
169,220,228409,1,8,0:0:0:0:
169,240,228493,1,0,1:0:0:0:
170,260,228576,1,0,1:0:0:0:
171,280,228660,70,0,P|231:323|310:310,1,155.999995239258,4|8,0:0|0:0,0:0:0:0:
168,184,229076,1,2,0:0:0:0:
96,156,229160,2,0,L|44:164,2,51.999998413086,2|2|2,0:0|0:0|0:0,0:0:0:0:
247,130,229410,2,0,P|263:178|254:229,1,103.999996826172,8|0,0:0|1:0,0:0:0:0:
76,252,229660,5,4,0:0:0:0:
320,60,229826,1,2,0:0:0:0:
320,60,229910,1,4,1:2:0:0:
474,330,230076,1,2,0:0:0:0:
474,330,230160,1,4,1:2:0:0:
