osu file format v12

[General]
AudioFilename: .mp3
AudioLeadIn: 0
PreviewTime: 128576
Countdown: 0
SampleSet: Soft
StackLeniency: 0.7
Mode: 0
LetterboxInBreaks: 0
EpilepsyWarning: 1
WidescreenStoryboard: 1

[Editor]
DistanceSpacing: 1.2
BeatDivisor: 3
GridSize: 4
TimelineZoom: 1

[Metadata]
Title:Tsukimiyo Rabbit
TitleUnicode:月見夜ラビット
Artist:ChouchouP
ArtistUnicode:蝶々P
Creator:Zero__wind
Version:Normal
Source:
Tags:Fictional World Hatsune Miku Append Dark EXIT TUNE 2nd album papiyon vocaloid pianythm cyoucyoup Firce777 OniJAM DJNightmare
BeatmapID:329961
BeatmapSetID:122342

[Difficulty]
HPDrainRate:4
CircleSize:3
OverallDifficulty:4
ApproachRate:5
SliderMultiplier:0.8
SliderTickRate:1

[Events]
//Background and Video events
0,0,"30075535.jpg",0,0
//Break Periods
2,50610,55460
2,88860,95460
2,146110,159460
//Storyboard Layer 0 (Background)
//Storyboard Layer 1 (Fail)
//Storyboard Layer 2 (Pass)
//Storyboard Layer 3 (Foreground)
//Storyboard Sound Samples
//Background Colour Transformations
3,100,163,162,255

[TimingPoints]
660.179487179487,250,4,2,1,80,1,0
16826,-100,4,2,1,70,0,0
17660,-100,4,2,2,70,0,0
17826,-100,4,2,1,70,0,0
19660,-100,4,2,2,70,0,0
19826,-100,4,2,1,70,0,0
21660,-100,4,2,2,70,0,0
21826,-100,4,2,1,70,0,0
25660,-100,4,2,2,70,0,0
25826,-100,4,2,1,70,0,0
27660,-100,4,2,2,70,0,0
27826,-100,4,2,1,70,0,0
29660,-100,4,2,2,70,0,0
29826,-100,4,2,1,70,0,0
32660,-100,4,2,1,80,0,0
32826,-100,4,2,1,50,0,0
36576,-100,4,2,1,40,0,0
36910,-100,4,2,1,50,0,0
38660,-100,4,2,1,40,0,0
38910,-100,4,2,1,50,0,0
40660,-100,4,2,1,60,0,0
40910,-100,4,2,1,50,0,0
44576,-100,4,2,1,40,0,0
44910,-100,4,2,1,50,0,0
46660,-100,4,2,1,40,0,0
46910,-100,4,2,1,50,0,0
50410,-100,4,2,2,10,0,0
56660,-100,4,2,1,70,0,0
60660,-100,4,2,1,50,0,0
61076,-100,4,2,1,70,0,0
62160,-100,4,2,2,60,0,0
62326,-100,4,2,1,70,0,0
62660,-100,4,2,1,50,0,0
63076,-100,4,2,1,70,0,0
64660,-100,4,2,1,85,0,0
64826,-100,4,2,1,70,0,0
66160,-100,4,2,2,60,0,0
66326,-100,4,2,1,70,0,0
67076,-100,4,2,2,60,0,0
67410,-100,4,2,1,70,0,0
68160,-100,4,2,2,60,0,0
68326,-100,4,2,1,70,0,0
70660,-100,4,2,2,60,0,0
71160,-100,4,2,1,60,0,0
71410,-100,4,2,1,70,0,0
72410,-100,4,2,2,60,0,0
72660,-100,4,2,1,80,0,1
72826,-100,4,2,1,70,0,1
80160,-100,4,2,2,60,0,1
80660,-100,4,2,1,40,0,0
80910,-100,4,2,1,80,0,1
81076,-100,4,2,1,70,0,1
84410,-100,4,2,2,70,0,1
84660,-100,4,2,1,70,0,1
88660,-100,4,2,1,80,0,0
96826,-100,4,2,1,70,0,0
97660,-100,4,2,2,60,0,0
97826,-100,4,2,1,70,0,0
99660,-100,4,2,2,60,0,0
99826,-100,4,2,1,70,0,0
101660,-100,4,2,2,60,0,0
101826,-100,4,2,1,70,0,0
104660,-100,4,2,1,80,0,0
104910,-100,4,2,1,50,0,0
112660,-100,4,2,1,70,0,0
112910,-100,4,2,1,50,0,0
120660,-100,4,2,2,70,0,0
120910,-100,4,2,2,60,0,0
128660,-100,4,2,1,80,0,1
128826,-100,4,2,1,70,0,1
136160,-100,4,2,2,60,0,1
136660,-100,4,2,1,40,0,0
136910,-100,4,2,1,80,0,1
137076,-100,4,2,1,70,0,1
140410,-100,4,2,2,70,0,1
140660,-100,4,2,1,70,0,1
144160,-100,4,2,1,70,0,0
144660,-100,4,2,1,70,0,1
144826,-100,4,2,2,70,0,0
145910,-100,4,2,2,10,0,0
160660,-100,4,2,1,70,0,0
161076,-100,4,2,1,50,0,0
168660,-100,4,2,1,80,0,0
169076,-100,4,2,2,60,0,0
177660,-100,4,2,1,80,0,0
178410,-100,4,2,2,60,0,0
178660,-100,4,2,1,80,0,0
179160,-100,4,2,1,40,0,0
186660,-100,4,2,1,50,0,0
193660,-100,4,2,1,60,0,0
193743,-100,4,2,1,50,0,0
194160,-100,4,2,2,70,0,0
194660,-100,4,2,1,80,0,1
194826,-100,4,2,1,70,0,1
201910,-100,4,2,2,60,0,1
202660,-100,4,2,1,40,0,0
202910,-100,4,2,1,80,0,1
203076,-100,4,2,1,70,0,1
206410,-100,4,2,2,70,0,1
206660,-100,4,2,1,70,0,1
208660,-100,4,2,1,70,0,1
210660,-100,4,2,1,80,0,0
210826,-100,4,2,1,70,0,0
211660,-100,4,2,2,70,0,0
211826,-100,4,2,1,70,0,0
213660,-100,4,2,2,70,0,0
213826,-100,4,2,1,70,0,0
215660,-100,4,2,2,70,0,0
215826,-100,4,2,1,70,0,0
219660,-100,4,2,2,70,0,0
219826,-100,4,2,1,70,0,0
221660,-100,4,2,2,70,0,0
221826,-100,4,2,1,70,0,0
223660,-100,4,2,2,60,0,0
223826,-100,4,2,1,70,0,0
226660,-100,4,2,1,80,0,0
226826,-100,4,2,1,70,0,0
228660,-100,4,2,1,80,0,0
228910,-100,4,2,1,70,0,0
229160,-100,4,2,2,60,0,0
229326,-100,4,2,1,70,0,0

[Colours]
Combo1 : 128,128,128
Combo2 : 113,180,189
Combo3 : 254,231,125
Combo4 : 124,118,146
Combo5 : 220,167,78
Combo6 : 78,171,152
Combo7 : 244,125,86
Combo8 : 218,218,218

[HitObjects]
88,144,16660,6,0,P|156:108|212:112,1,133.333333333333,4|2,0:0|0:0,0:0:0:0:
312,192,17410,1,8,0:0:0:0:
347,281,17660,2,0,P|396:237|405:173,1,133.333333333333,2|2,0:0|0:0,0:0:0:0:
344,60,18410,1,8,0:0:0:0:
252,32,18660,6,0,P|185:47|124:24,1,133.333333333333,4|2,0:0|0:0,0:0:0:0:
44,124,19410,1,8,0:0:0:0:
24,216,19660,2,0,P|30:257|48:293,1,80,2|8,0:0|0:0,0:0:0:0:
140,312,20160,2,0,P|134:271|116:235,1,80,2|8,0:0|0:0,0:0:0:0:
184,168,20660,6,0,P|252:160|308:192,1,133.333333333333,4|2,0:0|0:0,0:0:0:0:
352,312,21410,1,8,0:0:0:0:
272,364,21660,2,0,L|156:292,1,133.333333333333,2|2,0:0|0:0,0:0:0:0:
184,168,22410,1,8,0:0:0:0:
244,92,22660,6,0,P|300:57|368:60,1,133.333333333333,4|2,0:0|0:0,0:0:0:0:
460,144,23410,1,8,0:0:0:0:
480,236,23660,2,0,B|445:288|379:294|379:294|313:299|279:352,1,240,4|8,0:0|0:0,0:0:0:0:
184,360,24660,70,0,L|64:304,1,133.333333333333,4|2,0:0|0:0,0:0:0:0:
40,176,25410,1,8,0:0:0:0:
136,192,25660,2,0,L|256:248,1,133.333333333333,2|2,0:0|0:0,0:0:0:0:
380,208,26410,1,8,0:0:0:0:
456,148,26660,6,0,P|473:78|446:24,1,133.333333333333,4|2,0:0|0:0,0:0:0:0:
340,95,27410,1,8,0:0:0:0:
248,120,27660,2,0,P|205:104|180:80,1,80,2|8,0:0|0:0,0:0:0:0:
92,124,28160,2,0,P|99:163|90:201,1,80,2|8,0:0|0:0,0:0:0:0:
152,280,28660,6,0,P|195:228|260:216,1,133.333333333333,4|2,0:0|0:0,0:0:0:0:
368,288,29410,1,8,0:0:0:0:
467,285,29660,2,0,P|432:212|381:190,1,133.333333333333,2|2,0:0|0:0,0:0:0:0:
257,215,30410,1,8,0:0:0:0:
216,304,30660,6,0,L|88:340,1,133.333333333333,4|2,0:0|0:0,0:0:0:0:
12,240,31410,1,8,0:0:0:0:
32,148,31660,2,0,B|67:96|133:90|133:90|199:85|233:32,1,240,4|8,0:0|0:0,0:0:0:0:
328,32,32660,38,0,L|456:70,1,133.333333333333,4|2,0:0|0:0,0:0:0:0:
500,188,33410,1,8,0:0:0:0:
488,284,33660,2,0,P|455:317|420:332,1,80,2|8,0:0|0:0,0:0:0:0:
328,316,34160,2,0,P|288:313|250:324,1,80,2|8,0:0|0:0,0:0:0:0:
164,368,34660,6,0,P|116:318|113:257,1,133.333333333333,2|2,0:0|0:0,0:0:0:0:
184,152,35410,1,8,0:0:0:0:
272,188,35660,2,0,L|352:168,2,80,2|8|2,0:0|0:0|0:0,0:0:0:0:
210,261,36410,1,8,0:0:0:0:
113,256,36660,102,0,B|41:218|41:218|24:168,1,133.333333333333,4|2,0:0|0:0,0:0:0:0:
64,48,37410,1,8,0:0:0:0:
156,24,37660,2,0,L|236:24,1,80,2|8,0:0|0:0,0:0:0:0:
196,112,38160,2,0,L|276:112,1,80,2|8,0:0|0:0,0:0:0:0:
236,200,38660,6,0,B|316:200|316:200|341:188|360:164,1,133.333333333333,4|2,0:0|0:0,0:0:0:0:
420,56,39410,1,8,0:0:0:0:
500,112,39660,2,0,P|508:153|500:192,1,80,2|8,0:0|0:0,0:0:0:0:
456,276,40160,2,0,L|488:352,1,80,8|8,0:0|0:0,0:0:0:0:
392,372,40660,102,0,L|260:348,1,133.333333333333,4|2,0:0|0:0,0:0:0:0:
156,276,41410,1,8,0:0:0:0:
128,184,41660,2,0,P|125:138|136:104,1,80,2|8,0:0|0:0,0:0:0:0:
232,128,42160,2,0,P|235:174|224:208,1,80,2|8,0:0|0:0,0:0:0:0:
156,276,42660,6,0,L|24:312,1,133.333333333333,2|2,0:0|0:0,0:0:0:0:
16,184,43410,1,8,0:0:0:0:
10,90,43660,2,0,P|23:44|44:20,2,80,2|8|2,0:0|0:0|0:0,0:0:0:0:
16,184,44410,1,8,0:0:0:0:
112,192,44660,102,0,L|232:128,1,133.333333333333,4|2,0:0|0:0,0:0:0:0:
296,20,45410,1,8,0:0:0:0:
346,103,45660,2,0,P|346:151|335:184,1,80,2|8,0:0|0:0,0:0:0:0:
344,276,46160,2,0,P|374:302|410:317,1,80,2|8,0:0|0:0,0:0:0:0:
424,220,46660,6,0,P|444:140|436:86,1,133.333333333333,4|2,0:0|0:0,0:0:0:0:
312,60,47410,1,8,0:0:0:0:
215,64,47660,1,2,0:0:0:0:
190,156,47910,1,8,0:0:0:0:
270,209,48160,1,8,0:0:0:0:
346,148,48410,1,8,0:0:0:0:
256,192,48660,12,0,50410,0:0:0:0:
140,340,56660,6,0,P|80:301|63:243,1,133.333333333333,4|2,0:0|0:0,0:0:0:0:
80,116,57410,1,8,0:0:0:0:
144,44,57660,2,0,L|224:60,1,80,2|8,0:0|0:0,0:0:0:0:
308,20,58160,2,0,P|316:66|308:98,1,80,2|8,0:0|0:0,0:0:0:0:
236,164,58660,86,0,P|296:194|358:181,1,133.333333333333,2|2,0:0|0:0,0:0:0:0:
456,92,59410,1,8,0:0:0:0:
496,180,59660,1,2,0:0:0:0:
472,272,59910,1,8,0:0:0:0:
420,352,60160,2,0,L|341:356,1,80,2|8,0:0|0:0,0:0:0:0:
244,368,60660,54,0,P|201:319|196:252,1,133.333333333333,4|2,0:0|0:0,0:0:0:0:
256,140,61410,1,8,0:0:0:0:
224,48,61660,2,0,P|185:29|144:24,1,80,2|8,0:0|0:0,0:0:0:0:
80,92,62160,2,0,P|118:110|160:116,1,80,2|8,0:0|0:0,0:0:0:0:
212,196,62660,70,0,P|251:136|245:76,1,133.333333333333,4|2,0:0|0:0,0:0:0:0:
364,24,63410,1,8,0:0:0:0:
452,64,63660,1,2,0:0:0:0:
500,148,63910,1,8,0:0:0:0:
488,244,64160,1,8,0:0:0:0:
440,328,64410,1,8,0:0:0:0:
352,368,64660,6,0,L|220:336,1,133.333333333333,4|2,0:0|0:0,0:0:0:0:
128,248,65410,1,8,0:0:0:0:
124,152,65660,2,0,B|129:113|129:113|153:76,1,80,2|8,0:0|0:0,0:0:0:0:
72,33,66160,2,0,B|53:69|53:69|22:93,1,80,2|8,0:0|0:0,0:0:0:0:
36,188,66660,86,0,P|21:266|41:313,1,133.333333333333,2|2,0:0|0:0,0:0:0:0:
160,364,67410,1,8,0:0:0:0:
252,332,67660,2,0,P|295:326|336:336,2,80,2|8|2,0:0|0:0|0:0,0:0:0:0:
160,364,68410,1,8,0:0:0:0:
176,268,68660,54,0,P|208:206|264:180,1,133.333333333333,4|2,0:0|0:0,0:0:0:0:
388,200,69410,1,8,0:0:0:0:
476,160,69660,2,0,P|505:86|492:32,1,133.333333333333,2|2,0:0|0:0,0:0:0:0:
373,82,70410,1,8,0:0:0:0:
276,88,70660,70,0,B|228:78|205:49|205:49|163:51|146:91,2,160,2|8|2,0:0|0:0|0:0,0:0:0:0:
331,168,71910,1,2,0:0:0:0:
336,266,72160,2,0,P|322:308|296:336,1,80,8|2,0:0|1:2,0:0:0:0:
204,364,72660,6,0,L|122:348,1,80,4|0,0:0|1:0,0:0:0:0:
34,312,73160,2,0,P|15:273|10:236,1,80,2|0,0:0|1:0,0:0:0:0:
110,248,73660,2,0,L|188:263,1,80,4|0,0:0|1:0,0:0:0:0:
280,236,74160,1,2,0:0:0:0:
363,188,74410,1,0,1:0:0:0:
343,93,74660,6,0,P|307:110|280:139,1,80,4|0,0:0|1:0,0:0:0:0:
280,236,75160,2,0,L|300:316,1,80,2|0,0:0|1:0,0:0:0:0:
384,364,75660,2,0,P|419:346|447:318,1,80,4|0,0:0|1:0,0:0:0:0:
484,224,76160,1,4,0:0:0:0:
496,128,76410,1,0,1:0:0:0:
456,40,76660,6,0,L|376:16,1,80,4|0,0:0|1:0,0:0:0:0:
284,28,77160,2,0,P|252:52|236:92,1,80,2|0,0:0|1:0,0:0:0:0:
292,168,77660,2,0,P|276:204|244:227,1,80,4|0,0:0|1:0,0:0:0:0:
149,238,78161,2,0,L|72:215,1,80,2|0,0:0|1:0,0:0:0:0:
16,140,78660,5,4,0:0:0:0:
176,32,79160,1,2,0:0:0:0:
364,76,79660,1,4,0:0:0:0:
424,152,79910,1,0,1:0:0:0:
436,248,80160,2,0,P|426:296|404:324,2,80,2|0|2,1:2|1:0|0:0,0:0:0:0:
436,248,80910,70,0,L|360:224,1,80,4|2,0:0|0:0,0:0:0:0:
264,220,81410,1,0,1:0:0:0:
170,244,81660,2,0,P|132:275|115:308,1,80,4|0,0:0|1:0,0:0:0:0:
187,370,82160,2,0,P|224:338|241:305,1,80,2|0,0:0|1:0,0:0:0:0:
264,220,82660,6,0,L|260:132,1,80,4|0,0:0|1:0,0:0:0:0:
252,44,83160,2,0,P|213:26|176:20,1,80,2|0,0:0|1:0,0:0:0:0:
80,28,83660,2,0,P|44:52|21:81,1,80,4|0,0:0|1:0,0:0:0:0:
28,176,84160,1,2,0:0:0:0:
92,248,84410,1,2,1:2:0:0:
108,344,84660,6,0,P|68:343|32:326,1,80,4|0,0:0|1:0,0:0:0:0:
92,248,85160,2,0,L|172:248,1,80,2|0,0:0|1:0,0:0:0:0:
256,296,85660,2,0,P|295:295|331:278,1,80,4|0,0:0|1:0,0:0:0:0:
272,200,86160,2,0,L|236:128,1,80,2|0,0:0|1:0,0:0:0:0:
160,69,86660,5,4,0:0:0:0:
92,248,87160,1,2,0:0:0:0:
244,368,87660,2,0,P|288:364|320:348,1,80,4|0,0:0|1:0,0:0:0:0:
341,248,88160,2,0,P|355:196|355:166,1,80,8|8,0:0|0:0,0:0:0:0:
256,192,88660,1,4,0:0:0:0:
424,160,96660,70,0,P|433:231|404:284,1,133.333333333333,4|2,0:0|0:0,0:0:0:0:
288,332,97410,1,8,0:0:0:0:
210,272,97660,2,0,P|144:269|87:301,1,133.333333333333,2|2,0:0|0:0,0:0:0:0:
198,370,98410,1,8,0:0:0:0:
288,332,98660,6,0,P|307:271|286:206,1,133.333333333333,4|2,0:0|0:0,0:0:0:0:
208,108,99410,1,8,0:0:0:0:
256,24,99660,2,0,P|304:16|340:20,1,80,2|8,0:0|0:0,0:0:0:0:
416,72,100160,2,0,P|378:102|345:117,1,80,2|8,0:0|0:0,0:0:0:0:
276,176,100660,6,0,P|197:201|151:184,1,133.333333333333,4|2,0:0|0:0,0:0:0:0:
152,56,101410,1,8,0:0:0:0:
65,20,101660,2,0,B|52:55|67:95|67:95|33:141,1,133.333333333333,2|2,0:0|0:0,0:0:0:0:
52,264,102410,1,8,0:0:0:0:
88,352,102660,6,0,L|220:372,1,133.333333333333,4|2,0:0|0:0,0:0:0:0:
344,336,103410,1,8,0:0:0:0:
428,288,103660,2,0,B|456:232|428:172|428:172|400:112|427:55,1,240,4|8,0:0|0:0,0:0:0:0:
506,113,104660,37,4,0:0:0:0:
428,172,104910,2,0,L|372:180,1,53.3333333333333,2|8,0:0|0:0,0:0:0:0:
260,236,105410,2,0,P|216:224|191:201,1,80,8|2,0:0|0:0,0:0:0:0:
96,32,106660,5,4,0:0:0:0:
32,104,106910,2,0,L|16:160,1,53.3333333333333,2|8,0:0|0:0,0:0:0:0:
56,280,107410,2,0,P|102:276|132:260,1,80,8|2,0:0|0:0,0:0:0:0:
272,128,108660,101,4,0:0:0:0:
324,208,108910,2,0,L|336:264,1,53.3333333333333,2|8,0:0|0:0,0:0:0:0:
264,364,109410,2,0,P|216:364|184:352,1,80,8|2,0:0|0:0,0:0:0:0:
132,168,110660,5,4,0:0:0:0:
156,76,110910,2,0,L|196:36,1,53.3333333333333,2|8,0:0|0:0,0:0:0:0:
320,16,111410,1,8,0:0:0:0:
412,44,111660,2,0,L|472:104,1,80,4|8,0:0|0:0,0:0:0:0:
380,140,112160,2,0,L|440:200,1,80,2|8,0:0|0:0,0:0:0:0:
476,284,112660,101,4,0:0:0:0:
412,356,112910,2,0,L|360:364,1,53.3333333333333,2|8,0:0|0:0,0:0:0:0:
232,360,113410,2,0,P|219:324|224:284,1,80,8|2,0:0|0:0,0:0:0:0:
324,120,114660,5,4,0:0:0:0:
284,32,114910,2,0,L|232:20,1,53.3333333333333,2|8,0:0|0:0,0:0:0:0:
128,96,115410,2,0,P|79:86|56:64,1,80,8|2,0:0|0:0,0:0:0:0:
32,256,116660,101,4,0:0:0:0:
80,340,116910,2,0,L|136:348,1,53.3333333333333,2|8,0:0|0:0,0:0:0:0:
260,344,117410,2,0,P|292:320|312:284,1,80,8|2,0:0|0:0,0:0:0:0:
256,100,118660,5,4,0:0:0:0:
176,152,118910,2,0,L|168:208,1,53.3333333333333,2|8,0:0|0:0,0:0:0:0:
244,308,119410,1,8,0:0:0:0:
332,348,119660,2,0,P|376:340|408:316,1,80,4|8,0:0|0:0,0:0:0:0:
336,252,120160,2,0,P|369:230|408:224,1,80,8|8,0:0|0:0,0:0:0:0:
496,184,120660,6,0,P|506:106|482:59,1,133.333333333333,4|2,0:0|1:2,0:0:0:0:
356,28,121410,2,0,P|287:68|212:48,1,160,2|0,0:0|0:0,0:0:0:0:
116,56,122160,2,0,P|91:92|82:127,1,80,2|0,1:2|0:0,0:0:0:0:
128,211,122660,5,2,0:0:0:0:
96,364,123076,2,0,B|115:314|115:314|189:321|228:269|253:210|211:148|211:148|244:107,1,346.666666666667,2|2,1:2|1:2,0:0:0:0:
320,48,124410,1,2,1:2:0:0:
416,44,124660,6,0,P|468:80|492:149,1,133.333333333333,2|2,0:0|1:2,0:0:0:0:
388,224,125410,2,0,P|347:297|371:370,1,160,2|0,0:0|0:0,0:0:0:0:
440,304,126160,2,0,P|472:268|482:237,1,80,2|0,1:2|0:0,0:0:0:0:
388,224,126660,5,2,0:0:0:0:
244,292,127076,2,0,B|212:248|212:248|143:274|91:234|52:183|77:113|77:113|34:82,1,346.666666666667,2|2,1:2|0:0,0:0:0:0:
227,93,128660,70,0,L|172:151,1,80,4|0,0:0|1:0,0:0:0:0:
100,216,129160,2,0,P|89:260|96:295,1,80,2|0,0:0|1:0,0:0:0:0:
174,355,129660,2,0,P|217:350|252:332,2,80,4|0|2,0:0|1:0|0:0,0:0:0:0:
188,256,130410,1,0,1:0:0:0:
284,243,130660,6,0,P|312:258|339:297,1,80,4|0,0:0|1:0,0:0:0:0:
424,344,131160,2,0,P|444:310|478:290,1,80,2|0,0:0|1:0,0:0:0:0:
502,194,131660,2,0,L|506:112,2,80,4|0|4,0:0|1:0|0:0,0:0:0:0:
408,212,132410,1,0,1:0:0:0:
324,168,132660,6,0,P|291:135|278:105,1,80,4|0,0:0|1:0,0:0:0:0:
230,23,133160,2,0,P|275:10|307:14,1,80,2|0,0:0|1:0,0:0:0:0:
404,13,133660,2,0,P|391:58|372:84,1,80,4|0,0:0|1:0,0:0:0:0:
324,168,134160,2,0,L|244:184,1,80,2|0,0:0|1:0,0:0:0:0:
156,148,134660,5,4,0:0:0:0:
120,336,135160,1,2,0:0:0:0:
59,155,135660,1,4,0:0:0:0:
99,68,135910,1,0,1:0:0:0:
194,58,136160,2,0,P|233:86|249:114,2,80,2|0|2,1:2|1:0|0:0,0:0:0:0:
194,58,136910,70,0,L|160:137,1,80,4|0,0:0|0:0,0:0:0:0:
172,228,137410,1,0,1:0:0:0:
232,304,137660,2,0,P|269:318|312:316,2,80,4|0|2,0:0|1:0|0:0,0:0:0:0:
284,220,138410,1,0,1:0:0:0:
376,252,138660,6,0,P|399:295|401:330,1,80,4|0,0:0|1:0,0:0:0:0:
488,276,139160,2,0,P|465:233|463:198,1,80,2|0,0:0|1:0,0:0:0:0:
480,108,139660,2,0,P|474:68|454:34,1,80,4|0,0:0|1:0,0:0:0:0:
360,20,140160,1,2,0:0:0:0:
264,36,140410,1,2,1:2:0:0:
180,84,140660,6,0,P|180:133|192:163,1,80,4|0,0:0|1:0,0:0:0:0:
260,228,141160,2,0,L|340:232,1,80,2|0,0:0|1:0,0:0:0:0:
288,316,141660,2,0,L|208:312,1,80,4|0,0:0|1:0,0:0:0:0:
119,273,142160,2,0,P|118:223|106:193,1,80,2|0,0:0|1:0,0:0:0:0:
37,131,142660,5,4,0:0:0:0:
32,328,143160,1,2,0:0:0:0:
220,368,143660,2,0,L|300:372,1,80,4|0,0:0|1:0,0:0:0:0:
396,356,144160,1,8,0:0:0:0:
440,272,144410,1,8,0:0:0:0:
256,192,144660,12,0,145910,0:0:0:0:
289,32,160660,70,0,P|345:61|375:124,1,133.333333333333,4|2,0:0|0:0,0:0:0:0:
496,168,161410,2,0,P|415:242|295:221,1,240,2|8,0:0|0:0,0:0:0:0:
148,100,162660,85,2,0:0:0:0:
32,216,163076,2,0,P|71:350|225:283,1,346.666666666667,0|8,0:0|0:0,0:0:0:0:
256,196,164410,1,8,0:0:0:0:
180,140,164660,54,0,L|124:261,1,133.333333333333,2|2,0:0|0:0,0:0:0:0:
236,324,165410,2,0,B|287:333|348:286|348:286|389:351|440:360,1,240,2|8,0:0|0:0,0:0:0:0:
500,180,166660,69,2,0:0:0:0:
461,21,167076,2,0,B|486:90|486:90|423:100|403:144|390:191|432:240|432:240|367:276,1,346.666666666667,2|2,0:0|0:0,0:0:0:0:
280,316,168410,1,8,0:0:0:0:
196,364,168660,6,0,P|130:363|76:321,1,133.333333333333,4|2,0:0|1:2,0:0:0:0:
4,221,169410,2,0,B|92:172|172:240|172:240|224:204,1,240,2|2,0:0|1:2,0:0:0:0:
291,28,170660,85,2,0:0:0:0:
144,88,171076,2,0,B|102:100|76:126|76:126|128:219|61:301|61:301|82:331|120:350,1,346.666666666667,2|2,1:2|1:2,0:0:0:0:
216,368,172410,1,2,1:2:0:0:
312,372,172660,54,0,P|374:322|392:268,1,133.333333333333,2|2,0:0|1:2,0:0:0:0:
264,252,173410,2,0,P|234:140|326:62,1,240,2|2,0:0|1:2,0:0:0:0:
454,203,174660,69,2,0:0:0:0:
496,52,175076,2,0,B|372:12|256:96|256:96|140:12|16:52,1,506.666666666667,2|4,0:0|0:0,0:0:0:0:
8,148,176910,1,4,0:0:0:0:
52,336,177410,5,2,1:2:0:0:
144,368,177660,2,0,B|206:363|244:309|244:309|282:254|344:251,1,240,4|2,0:0|1:2,0:0:0:0:
440,256,178660,85,4,0:0:0:0:
491,70,179160,1,2,0:0:0:0:
303,119,179660,1,2,0:0:0:0:
120,56,180160,1,2,0:0:0:0:
16,220,180660,6,0,P|14:309|60:360,1,160,2|2,0:0|0:0,0:0:0:0:
252,368,181660,2,0,P|300:306|294:228,1,160,2|2,0:0|0:0,0:0:0:0:
177,81,182660,101,2,0:0:0:0:
160,272,183160,1,2,0:0:0:0:
351,289,183660,1,2,0:0:0:0:
368,97,184160,1,2,0:0:0:0:
177,81,184660,5,2,0:0:0:0:
20,192,185160,1,2,0:0:0:0:
140,337,185660,2,0,L|224:353,2,80,2|0|2,0:0|0:0|0:0,0:0:0:0:
56,284,186410,1,0,0:0:0:0:
20,192,186660,102,0,P|8:115|56:53,1,160,4|0,0:0|1:0,0:0:0:0:
104,140,187410,1,0,0:0:0:0:
200,128,187660,2,0,P|233:97|248:64,2,80,2|0|0,0:0|0:0|1:0,0:0:0:0:
163,216,188410,1,2,0:0:0:0:
168,312,188660,6,0,P|233:357|310:340,1,160,2|0,0:0|1:0,0:0:0:0:
252,260,189410,1,2,0:0:0:0:
290,171,189660,2,0,P|307:135|337:108,2,80,2|2|0,0:0|0:0|1:0,0:0:0:0:
348,248,190410,1,2,0:0:0:0:
432,296,190660,102,0,P|475:288|504:268,1,80,4|2,0:0|0:0,0:0:0:0:
460,180,191160,2,0,P|484:143|491:109,1,80,0|0,1:0|0:0,0:0:0:0:
396,88,191660,2,0,P|388:44|368:15,1,80,2|2,0:0|0:0,0:0:0:0:
280,56,192160,2,0,P|243:31|209:24,1,80,0|2,1:0|0:0,0:0:0:0:
119,56,192660,5,2,0:0:0:0:
256,192,193160,1,2,0:0:0:0:
69,138,193660,6,0,P|45:179|43:211,1,80,4|2,1:0|0:0,0:0:0:0:
72,304,194160,1,4,3:0:0:0:
148,364,194410,1,2,1:2:0:0:
240,336,194660,54,0,P|281:328|320:336,1,80,4|0,0:0|1:0,0:0:0:0:
415,352,195160,2,0,P|440:321|453:284,1,80,2|0,0:0|1:0,0:0:0:0:
414,193,195660,2,0,P|396:157|392:117,2,80,4|0|2,0:0|1:0|0:0,0:0:0:0:
490,129,196410,1,0,1:0:0:0:
452,38,196660,6,0,P|413:22|373:20,1,80,4|0,0:0|1:0,0:0:0:0:
292,74,197160,2,0,P|252:71|215:55,1,80,2|0,0:0|1:0,0:0:0:0:
124,96,197660,2,0,P|97:126|83:163,2,80,4|0|4,0:0|1:0|0:0,0:0:0:0:
180,177,198410,1,0,1:0:0:0:
120,255,198660,70,0,P|78:260|39:251,1,80,4|0,0:0|1:0,0:0:0:0:
58,350,199160,2,0,P|99:344|138:353,1,80,2|0,0:0|1:0,0:0:0:0:
236,344,199660,2,0,L|298:294,1,80,4|0,0:0|1:0,0:0:0:0:
275,197,200160,2,0,L|212:246,1,80,2|0,0:0|1:0,0:0:0:0:
236,344,200660,5,4,0:0:0:0:
432,320,201160,1,2,0:0:0:0:
500,136,201660,2,0,P|504:88|492:52,1,80,4|0,0:0|1:0,0:0:0:0:
414,7,202160,1,2,1:0:0:0:
407,104,202410,2,0,L|328:116,1,80,2|2,1:2|0:0,0:0:0:0:
327,116,202910,6,0,P|316:163|324:200,1,80,4|2,0:0|0:0,0:0:0:0:
364,280,203410,1,0,1:0:0:0:
312,364,203660,2,0,P|271:373|232:366,1,80,4|0,0:0|1:0,0:0:0:0:
164,296,204160,1,2,0:0:0:0:
68,324,204410,1,0,1:0:0:0:
16,240,204660,6,0,P|12:196|20:160,1,80,4|0,0:0|1:0,0:0:0:0:
116,156,205160,2,0,P|123:116|119:77,1,80,2|0,0:0|1:0,0:0:0:0:
200,20,205660,2,0,L|280:44,1,80,4|0,0:0|1:0,0:0:0:0:
352,108,206160,1,2,0:0:0:0:
352,206,206410,1,2,1:2:0:0:
324,300,206660,70,0,P|297:333|264:348,1,80,4|0,0:0|1:0,0:0:0:0:
172,309,207160,2,0,P|199:276|232:261,1,80,2|0,0:0|1:0,0:0:0:0:
324,300,207660,2,0,L|408:312,1,80,4|0,0:0|1:0,0:0:0:0:
486,256,208160,2,0,P|499:216|498:176,1,80,2|0,0:0|1:0,0:0:0:0:
468,88,208660,5,4,0:0:0:0:
300,176,209160,1,2,0:0:0:0:
172,32,209660,2,0,P|129:23|92:28,1,80,4|0,0:0|1:0,0:0:0:0:
20,92,210160,1,8,0:0:0:0:
5,189,210410,1,8,0:0:0:0:
24,284,210660,6,0,P|77:334|136:333,1,133.333333333333,4|2,0:0|0:0,0:0:0:0:
248,272,211410,1,8,0:0:0:0:
196,188,211660,2,0,P|184:132|216:64,1,133.333333333333,2|2,0:0|0:0,0:0:0:0:
336,20,212410,1,8,0:0:0:0:
428,52,212660,6,0,L|508:160,1,133.333333333333,4|2,0:0|0:0,0:0:0:0:
476,284,213410,1,8,0:0:0:0:
412,360,213660,2,0,P|369:371|334:366,1,80,2|8,0:0|0:0,0:0:0:0:
260,300,214160,2,0,P|220:295|182:306,1,80,2|8,0:0|0:0,0:0:0:0:
100,360,214660,70,0,P|61:299|68:240,1,133.333333333333,4|2,0:0|0:0,0:0:0:0:
164,152,215410,1,8,0:0:0:0:
159,54,215660,2,0,P|99:24|32:26,1,133.333333333333,2|2,0:0|0:0,0:0:0:0:
68,152,216410,1,8,0:0:0:0:
164,152,216660,6,0,L|300:172,1,133.333333333333,4|2,0:0|0:0,0:0:0:0:
408,240,217410,1,8,0:0:0:0:
356,324,217660,2,0,B|299:351|239:323|239:323|179:295|123:323,1,240,4|8,0:0|0:0,0:0:0:0:
26,330,218660,6,0,P|24:259|64:212,1,133.333333333333,4|2,0:0|0:0,0:0:0:0:
176,148,219410,1,8,0:0:0:0:
254,208,219660,2,0,P|326:233|384:216,1,133.333333333333,2|2,0:0|0:0,0:0:0:0:
440,104,220410,1,8,0:0:0:0:
387,21,220660,6,0,L|256:44,1,133.333333333333,4|2,0:0|0:0,0:0:0:0:
176,148,221410,1,8,0:0:0:0:
80,168,221660,2,0,P|41:141|25:107,1,80,2|8,0:0|0:0,0:0:0:0:
60,20,222160,2,0,P|98:46|114:80,1,80,2|8,0:0|0:0,0:0:0:0:
176,148,222660,70,0,L|296:204,1,133.333333333333,4|2,0:0|0:0,0:0:0:0:
360,320,223410,1,8,0:0:0:0:
264,344,223660,2,0,P|191:363|142:339,1,133.333333333333,2|2,0:0|0:0,0:0:0:0:
12,362,224410,1,8,0:0:0:0:
51,272,224660,6,0,L|67:140,1,133.333333333333,4|2,0:0|0:0,0:0:0:0:
152,40,225410,1,8,0:0:0:0:
232,96,225660,2,0,B|287:124|347:96|347:96|407:68|464:95,1,240,4|8,0:0|0:0,0:0:0:0:
504,184,226660,6,0,L|484:264,1,80,4|8,0:0|0:0,0:0:0:0:
444,313,227076,1,2,0:0:0:0:
324,368,227410,1,8,0:0:0:0:
240,316,227660,6,0,L|216:240,1,80,2|8,0:0|0:0,0:0:0:0:
228,176,228076,1,0,0:0:0:0:
348,224,228410,1,8,0:0:0:0:
384,132,228660,70,0,P|382:84|368:52,1,80,4|8,0:0|0:0,0:0:0:0:
272,56,229160,2,0,P|232:49|198:29,1,80,2|8,0:0|0:0,0:0:0:0:
104,56,229660,5,4,0:0:0:0:
56,144,229910,1,4,1:2:0:0:
96,236,230160,1,4,1:2:0:0:
