osu file format v12

[General]
AudioFilename: .mp3
AudioLeadIn: 0
PreviewTime: 128576
Countdown: 0
SampleSet: Soft
StackLeniency: 0.7
Mode: 0
LetterboxInBreaks: 0
EpilepsyWarning: 1
WidescreenStoryboard: 1

[Editor]
Bookmarks: 115326,176160
DistanceSpacing: 0.6
BeatDivisor: 3
GridSize: 4
TimelineZoom: 1.1

[Metadata]
Title:Tsukimiyo Rabbit
TitleUnicode:月見夜ラビット
Artist:ChouchouP
ArtistUnicode:蝶々P
Creator:Zero__wind
Version:Hard
Source:
Tags:Fictional World Hatsune Miku Append Dark EXIT TUNE 2nd album papiyon vocaloid pianythm cyoucyoup Firce777 OniJAM DJNightmare
BeatmapID:322013
BeatmapSetID:122342

[Difficulty]
HPDrainRate:5
CircleSize:4
OverallDifficulty:6
ApproachRate:8
SliderMultiplier:1
SliderTickRate:1

[Events]
//Background and Video events
0,0,"30075535.jpg",0,0
//Break Periods
2,88860,95410
2,146110,159910
//Storyboard Layer 0 (Background)
//Storyboard Layer 1 (Fail)
//Storyboard Layer 2 (Pass)
//Storyboard Layer 3 (Foreground)
//Storyboard Sound Samples
//Background Colour Transformations
3,100,163,162,255

[TimingPoints]
660.179487179487,250,4,1,1,50,1,0
16160,-100,4,1,1,60,0,0
16660,-100,4,2,1,80,0,0
16826,-100,4,2,1,70,0,0
17660,-100,4,2,2,70,0,0
17826,-100,4,2,1,70,0,0
19660,-100,4,2,2,70,0,0
19826,-100,4,2,1,70,0,0
20451,-100,4,2,2,60,0,0
20660,-100,4,2,1,70,0,0
21660,-100,4,2,2,70,0,0
21826,-100,4,2,1,70,0,0
23743,-100,4,2,2,60,0,0
23826,-100,4,2,1,70,0,0
23993,-100,4,2,2,60,0,0
24160,-100,4,2,1,70,0,0
24243,-100,4,2,2,60,0,0
24410,-100,4,2,1,70,0,0
24493,-100,4,2,2,60,0,0
24576,-100,4,2,1,70,0,0
25660,-100,4,2,2,70,0,0
25826,-100,4,2,1,70,0,0
27660,-100,4,2,2,70,0,0
27826,-100,4,2,1,70,0,0
28451,-100,4,2,2,60,0,0
28660,-100,4,2,1,70,0,0
29660,-100,4,2,2,70,0,0
29826,-100,4,2,1,70,0,0
31743,-100,4,2,2,60,0,0
31826,-100,4,2,1,70,0,0
31993,-100,4,2,2,60,0,0
32160,-100,4,2,1,70,0,0
32243,-100,4,2,2,60,0,0
32410,-100,4,2,1,70,0,0
32493,-100,4,2,2,70,0,0
32660,-100,4,2,1,80,0,0
32826,-100,4,2,1,50,0,0
35993,-100,4,2,2,40,0,0
36160,-100,4,2,1,50,0,0
36576,-100,4,2,1,40,0,0
36910,-100,4,2,1,50,0,0
38660,-100,4,2,1,40,0,0
38910,-100,4,2,1,50,0,0
40076,-100,4,2,1,40,0,0
40160,-100,4,2,1,50,0,0
40660,-100,4,2,1,60,0,0
40910,-100,4,2,1,50,0,0
44576,-100,4,2,1,40,0,0
44910,-100,4,2,1,50,0,0
46660,-100,4,2,1,40,0,0
46910,-100,4,2,1,50,0,0
48660,-100,4,2,1,70,0,0
48826,-100,4,2,2,50,0,0
48910,-100,4,2,1,60,0,0
49576,-100,4,2,2,50,0,0
49826,-100,4,2,1,60,0,0
49910,-100,4,2,2,50,0,0
50076,-100,4,2,1,60,0,0
50326,-100,4,2,2,50,0,0
50660,-100,4,2,1,60,0,0
50826,-100,4,2,2,50,0,0
50910,-100,4,2,1,60,0,0
51160,-100,4,2,2,50,0,0
51410,-100,4,2,1,60,0,0
51451,-100,4,2,2,50,0,0
51576,-100,4,2,1,60,0,0
51660,-100,4,2,2,50,0,0
52076,-100,4,2,1,60,0,0
52410,-100,4,2,2,50,0,0
52660,-100,4,2,1,60,0,0
52826,-100,4,2,2,50,0,0
52910,-100,4,2,1,60,0,0
53576,-100,4,2,2,50,0,0
53826,-100,4,2,1,60,0,0
53910,-100,4,2,2,50,0,0
54076,-100,4,2,1,60,0,0
54410,-100,4,2,2,50,0,0
54660,-100,4,2,1,50,0,0
54826,-100,4,2,1,60,0,0
54910,-100,4,2,2,50,0,0
55076,-100,4,2,1,60,0,0
55160,-100,4,2,1,40,0,0
55326,-100,4,2,2,50,0,0
55410,-100,4,2,1,60,0,0
55451,-100,4,2,2,50,0,0
55576,-100,4,2,1,60,0,0
55660,-100,4,2,2,50,0,0
55826,-100,4,2,1,60,0,0
56076,-100,4,2,1,50,0,0
56160,-100,4,2,1,60,0,0
56243,-100,4,2,1,50,0,0
56660,-100,4,2,1,70,0,0
60576,-100,4,2,1,50,0,0
60660,-100,4,2,1,70,0,0
62160,-100,4,2,2,60,0,0
62326,-100,4,2,1,70,0,0
64076,-100,4,2,1,55,0,0
64160,-100,4,2,1,75,0,0
64326,-100,4,2,1,60,0,0
64410,-100,4,2,1,80,0,0
64576,-100,4,2,1,65,0,0
64660,-100,4,2,1,85,0,0
64826,-100,4,2,1,70,0,0
66160,-100,4,2,2,60,0,0
66326,-100,4,2,1,70,0,0
66576,-100,4,2,2,60,0,0
66660,-100,4,2,1,70,0,0
67160,-100,4,2,2,60,0,0
67410,-100,4,2,1,70,0,0
68160,-100,4,2,2,60,0,0
68326,-100,4,2,1,70,0,0
68576,-100,4,2,2,60,0,0
68660,-100,4,2,1,70,0,0
70660,-100,4,2,2,60,0,0
71410,-100,4,2,1,70,0,0
72076,-100,4,2,1,60,0,0
72160,-100,4,2,1,70,0,0
72243,-100,4,2,2,60,0,0
72660,-100,4,2,1,80,0,1
72826,-100,4,2,1,70,0,1
74576,-100,4,2,1,50,0,1
74660,-100,4,2,1,70,0,1
76576,-100,4,2,1,50,0,1
76660,-100,4,2,1,70,0,1
78910,-100,4,2,2,60,0,1
79076,-100,4,2,1,70,0,1
79410,-100,4,2,2,60,0,1
79576,-100,4,2,1,70,0,1
80326,-100,4,2,1,50,0,1
80410,-100,4,2,1,70,0,1
80576,-100,4,2,1,50,0,1
80660,-100,4,2,1,40,0,0
80910,-100,4,2,1,80,0,1
81076,-100,4,2,1,70,0,1
82576,-100,4,2,1,50,0,1
82660,-100,4,2,1,70,0,1
84410,-100,4,2,2,70,0,1
84576,-100,4,2,1,50,0,1
84660,-100,4,2,1,70,0,1
86910,-100,4,2,2,70,0,1
87076,-100,4,2,1,70,0,1
88243,-100,4,2,1,50,0,1
88410,-100,4,2,1,70,0,1
88493,-100,4,2,1,50,0,1
88660,-100,4,2,1,80,0,0
96160,-100,4,1,1,60,0,0
96660,-100,4,2,1,80,0,0
96826,-100,4,2,1,70,0,0
97660,-100,4,2,2,60,0,0
97826,-100,4,2,1,70,0,0
99660,-100,4,2,2,60,0,0
99826,-100,4,2,1,70,0,0
100451,-100,4,2,2,60,0,0
100660,-100,4,2,1,70,0,0
101660,-100,4,2,2,60,0,0
101826,-100,4,2,1,70,0,0
103743,-100,4,2,2,60,0,0
103826,-100,4,2,1,70,0,0
103993,-100,4,2,2,60,0,0
104160,-100,4,2,1,70,0,0
104243,-100,4,2,2,60,0,0
104410,-100,4,2,1,70,0,0
104493,-100,4,2,2,70,0,0
104660,-100,4,2,1,80,0,0
104910,-100,4,2,1,50,0,0
105826,-100,4,2,2,50,0,0
106660,-100,4,2,1,50,0,0
107826,-100,4,2,2,50,0,0
108660,-100,4,2,1,50,0,0
109743,-100,4,2,2,50,0,0
110660,-100,4,2,1,50,0,0
112660,-100,4,2,1,70,0,0
112910,-100,4,2,1,50,0,0
113826,-100,4,2,2,50,0,0
114660,-100,4,2,1,50,0,0
115826,-100,4,2,2,35,0,0
115910,-100,4,2,2,50,0,0
116076,-100,4,2,2,35,0,0
116160,-100,4,2,2,50,0,0
116326,-100,4,2,2,35,0,0
116410,-100,4,2,2,50,0,0
116660,-100,4,2,1,50,0,0
117743,-100,4,2,2,50,0,0
118660,-100,4,2,1,50,0,0
119910,-100,4,2,1,55,0,0
120076,-100,4,2,1,45,0,0
120160,-100,4,2,1,50,0,0
120410,-100,4,2,1,65,0,0
120576,-100,4,2,1,55,0,0
120660,-100,4,2,2,70,0,0
120910,-100,4,2,2,60,0,0
124576,-100,4,2,2,40,0,0
124660,-100,4,2,2,60,0,0
128660,-100,4,2,1,80,0,1
128826,-100,4,2,1,70,0,1
130576,-100,4,2,1,50,0,1
130660,-100,4,2,1,70,0,1
132576,-100,4,2,1,50,0,1
132660,-100,4,2,1,70,0,1
134910,-100,4,2,2,60,0,1
135076,-100,4,2,1,70,0,1
135410,-100,4,2,2,60,0,1
135576,-100,4,2,1,70,0,1
136243,-100,4,2,2,60,0,1
136326,-100,4,2,1,50,0,1
136410,-100,4,2,1,70,0,1
136576,-100,4,2,1,50,0,1
136660,-100,4,2,1,40,0,0
136910,-100,4,2,1,80,0,1
137076,-100,4,2,1,70,0,1
138576,-100,4,2,1,50,0,1
138660,-100,4,2,1,70,0,1
140410,-100,4,2,2,70,0,1
140576,-100,4,2,1,50,0,1
140660,-100,4,2,1,70,0,1
142910,-100,4,2,2,70,0,1
143076,-100,4,2,1,70,0,1
144160,-100,4,2,1,70,0,0
144243,-100,4,2,1,50,0,0
144410,-100,4,2,1,70,0,0
144493,-100,4,2,1,50,0,0
144660,-100,4,2,1,80,0,1
144826,-100,4,2,2,70,0,0
145910,-100,4,2,2,10,0,0
160660,-133.333333333333,4,2,2,80,0,0
160910,-133.333333333333,4,2,1,60,0,0
164576,-133.333333333333,4,2,1,50,0,0
164660,-133.333333333333,4,2,1,60,0,0
168326,-133.333333333333,4,2,1,50,0,0
168410,-133.333333333333,4,2,1,60,0,0
168576,-133.333333333333,4,2,1,50,0,0
168660,-100,4,2,1,80,0,0
168826,-100,4,2,2,60,0,0
168910,-100,4,2,1,50,0,0
169076,-100,4,2,2,60,0,0
169326,-100,4,2,2,50,0,0
169410,-100,4,2,2,60,0,0
171576,-100,4,2,1,50,0,0
171826,-100,4,2,2,60,0,0
172326,-100,4,2,1,50,0,0
172410,-100,4,2,2,60,0,0
172910,-100,4,2,1,50,0,0
173076,-100,4,2,2,60,0,0
173326,-100,4,2,2,50,0,0
173410,-100,4,2,2,60,0,0
175160,-100,4,2,1,50,0,0
175410,-100,4,2,2,60,0,0
175576,-100,4,2,1,50,0,0
175826,-100,4,2,2,60,0,0
175993,-100,4,2,2,50,0,0
176160,-100,4,2,2,60,0,0
176243,-100,4,2,2,50,0,0
176410,-100,4,2,2,60,0,0
176493,-100,4,2,2,50,0,0
176660,-100,4,2,1,80,0,0
176826,-100,4,2,1,60,0,0
177410,-100,4,2,2,60,0,0
177576,-100,4,2,1,60,0,0
177660,-100,4,2,1,80,0,0
177743,-100,4,2,2,60,0,0
177826,-100,4,2,2,50,0,0
177910,-100,4,2,2,70,0,0
177993,-100,4,2,2,60,0,0
178160,-100,4,2,2,70,0,0
178243,-100,4,2,2,60,0,0
178285,-100,4,2,2,50,0,0
178410,-100,4,2,2,60,0,0
178451,-100,4,2,2,50,0,0
178660,-133.333333333333,4,2,1,80,0,0
179160,-133.333333333333,4,2,1,40,0,0
186660,-100,4,2,1,50,0,0
187826,-100,4,2,1,40,0,0
187910,-100,4,2,1,50,0,0
189826,-100,4,2,1,40,0,0
189910,-100,4,2,1,50,0,0
191576,-100,4,2,1,40,0,0
191660,-100,4,2,1,50,0,0
191826,-100,4,2,1,40,0,0
191910,-100,4,2,1,50,0,0
193576,-100,4,2,1,40,0,0
193660,-100,4,2,1,60,0,0
193743,-100,4,2,1,50,0,0
194160,-100,4,2,1,70,0,0
194243,-100,4,2,2,60,0,0
194410,-100,4,2,2,70,0,0
194493,-100,4,2,2,60,0,0
194660,-100,4,2,1,80,0,1
194826,-100,4,2,1,70,0,1
196576,-100,4,2,1,50,0,1
196660,-100,4,2,1,70,0,1
198576,-100,4,2,1,50,0,1
198660,-100,4,2,1,70,0,1
200910,-100,4,2,2,60,0,1
201076,-100,4,2,1,70,0,1
201410,-100,4,2,2,60,0,1
201576,-100,4,2,1,70,0,1
201743,-100,4,2,1,50,0,1
201910,-100,4,2,2,60,0,1
201993,-100,4,2,2,50,0,1
202160,-100,4,2,2,60,0,1
202660,-133.333333333333,4,2,1,40,0,0
202910,-100,4,2,1,80,0,1
203076,-100,4,2,1,70,0,1
204576,-100,4,2,1,50,0,1
204660,-100,4,2,1,70,0,1
206410,-100,4,2,2,70,0,1
206576,-100,4,2,1,50,0,1
206660,-100,4,2,1,70,0,1
208910,-100,4,2,2,70,0,1
209076,-100,4,2,1,70,0,1
210660,-100,4,2,1,80,0,0
210826,-100,4,2,1,70,0,0
211660,-100,4,2,2,70,0,0
211826,-100,4,2,1,70,0,0
213660,-100,4,2,2,70,0,0
213826,-100,4,2,1,70,0,0
214451,-100,4,2,2,60,0,0
214660,-100,4,2,1,70,0,0
215660,-100,4,2,2,70,0,0
215826,-100,4,2,1,70,0,0
217743,-100,4,2,2,60,0,0
217826,-100,4,2,1,70,0,0
217993,-100,4,2,2,60,0,0
218160,-100,4,2,1,70,0,0
218243,-100,4,2,2,60,0,0
218410,-100,4,2,1,70,0,0
218493,-100,4,2,2,60,0,0
218576,-100,4,2,1,70,0,0
219660,-100,4,2,2,70,0,0
219826,-100,4,2,1,70,0,0
221660,-100,4,2,2,70,0,0
221826,-100,4,2,1,70,0,0
222451,-100,4,2,2,60,0,0
222660,-100,4,2,1,70,0,0
223660,-100,4,2,2,60,0,0
223826,-100,4,2,1,70,0,0
225743,-100,4,2,2,60,0,0
225826,-100,4,2,1,70,0,0
225993,-100,4,2,2,60,0,0
226160,-100,4,2,1,70,0,0
226243,-100,4,2,2,60,0,0
226410,-100,4,2,1,70,0,0
226493,-100,4,2,2,70,0,0
226660,-100,4,2,1,80,0,0
226826,-100,4,2,1,70,0,0
228493,-100,4,2,1,60,0,0
228660,-100,4,2,1,80,0,0
228910,-100,4,2,1,70,0,0
229160,-100,4,2,2,60,0,0
229243,-100,4,2,2,70,0,0
229326,-100,4,2,1,70,0,0
229576,-100,4,2,1,60,0,0
229660,-100,4,2,1,70,0,0

[Colours]
Combo1 : 128,128,128
Combo2 : 113,180,189
Combo3 : 254,231,125
Combo4 : 124,118,146
Combo5 : 220,167,78
Combo6 : 78,171,152
Combo7 : 244,125,86
Combo8 : 218,218,218

[HitObjects]
286,192,15660,102,0,L|319:192,2,33.3333333333333,4|8|0,0:0|0:2|0:0,0:0:0:0:
242,216,15910,2,0,L|225:244,2,33.3333333333333,8|0|8,0:2|0:0|0:2,0:0:0:0:
242,166,16160,2,0,L|208:108,1,66.6666666666667,0|0,0:0|0:0,0:0:0:0:
184,84,16410,2,0,L|124:48,1,66.6666666666667
76,48,16660,22,0,P|40:84|32:140,1,100,4|8,0:0|0:0,0:0:0:0:
72,224,17076,2,0,P|61:272|26:306,1,100,2|2,0:0|0:0,0:0:0:0:
72,224,17410,2,0,L|140:232,1,66.6666666666667,8|2,0:0|0:0,0:0:0:0:
168,272,17660,2,0,P|195:298|208:328,1,66.6666666666667,2|2,0:0|0:0,0:0:0:0:
240,314,17910,2,0,P|276:303|308:307,1,66.6666666666667,8|2,0:0|0:0,0:0:0:0:
452,284,18326,1,2,0:0:0:0:
452,284,18410,1,8,0:0:0:0:
304,306,18660,6,0,P|291:256|306:208,1,100,4|8,0:0|0:0,0:0:0:0:
305,112,19076,2,0,P|355:125|389:162,1,100,2|2,0:0|0:0,0:0:0:0:
422,159,19410,2,0,P|457:143|478:119,1,66.6666666666667,8|2,0:0|0:0,0:0:0:0:
488,72,19660,2,0,P|446:38|400:33,1,100,2|8,0:0|0:0,0:0:0:0:
252,52,20160,2,0,P|203:44|165:12,1,100,2|8,0:0|0:0,0:0:0:0:
76,56,20576,1,2,0:0:0:0:
76,56,20660,6,0,L|52:160,1,100,4|8,0:0|0:0,0:0:0:0:
20,248,21076,2,0,P|75:249|118:231,1,100,2|2,0:0|0:0,0:0:0:0:
146,216,21410,1,8,0:0:0:0:
232,164,21576,1,2,0:0:0:0:
232,164,21660,2,0,P|243:216|235:261,1,100,2|8,0:0|0:0,0:0:0:0:
160,328,22076,1,2,0:0:0:0:
308,348,22326,1,2,0:0:0:0:
308,348,22410,2,0,L|376:352,1,66.6666666666667,8|2,0:0|0:0,0:0:0:0:
424,340,22660,6,0,P|466:313|488:268,1,100,4|8,0:0|0:0,0:0:0:0:
392,244,23076,2,0,P|414:199|455:173,1,100,2|2,0:0|0:0,0:0:0:0:
484,156,23410,2,0,P|505:123|511:94,1,66.6666666666667,8|2,0:0|0:0,0:0:0:0:
432,96,23660,2,0,L|400:84,5,33.3333333333333,4|2|2|8|2|0,0:0|0:0|0:0|0:0|0:0|1:0,0:0:0:0:
372,42,24160,2,0,L|340:30,5,33.3333333333333,8|2|0|8|2|2,0:0|0:0|1:0|0:0|0:0|0:0,0:0:0:0:
290,24,24660,69,4,0:0:0:0:
176,120,24910,2,0,P|180:156|196:184,1,66.6666666666667,8|2,0:0|0:0,0:0:0:0:
304,284,25326,1,2,0:0:0:0:
304,284,25410,2,0,P|272:300|240:304,1,66.6666666666667,10|0,0:0|0:0,0:0:0:0:
224,352,25660,2,0,P|175:326|131:328,1,100,2|8,0:0|0:0,0:0:0:0:
36,360,26076,1,2,0:0:0:0:
4,212,26326,1,2,0:0:0:0:
4,212,26410,2,0,L|12:144,1,66.6666666666667,8|2,0:0|0:0,0:0:0:0:
24,96,26660,5,4,0:0:0:0:
159,32,26910,2,0,P|194:33|226:45,1,66.6666666666667,8|2,0:0|0:0,0:0:0:0:
276,184,27326,1,2,0:0:0:0:
276,184,27410,2,0,P|241:186|208:176,1,66.6666666666667,8|2,0:0|0:0,0:0:0:0:
160,176,27660,2,0,P|132:220|136:268,1,100,2|8,0:0|0:0,0:0:0:0:
282,280,28160,2,0,P|332:268|364:231,1,100,2|8,0:0|0:0,0:0:0:0:
364,132,28576,1,2,0:0:0:0:
364,132,28660,5,4,0:0:0:0:
240,48,28910,1,8,0:0:0:0:
340,44,29076,2,0,P|386:44|433:73,1,100,2|2,0:0|0:0,0:0:0:0:
448,100,29410,2,0,P|471:126|501:139,1,66.6666666666667,8|2,0:0|0:0,0:0:0:0:
476,184,29660,2,0,L|452:284,1,100,2|8,0:0|0:0,0:0:0:0:
504,368,30076,1,2,0:0:0:0:
356,352,30326,1,2,0:0:0:0:
356,352,30410,2,0,L|288:360,1,66.6666666666667,8|2,0:0|0:0,0:0:0:0:
240,348,30660,5,4,0:0:0:0:
348,244,30910,1,8,0:0:0:0:
248,256,31076,2,0,P|196:266|163:298,1,100,2|2,0:0|0:0,0:0:0:0:
136,320,31410,2,0,P|104:340|71:344,1,66.6666666666667,8|2,0:0|0:0,0:0:0:0:
80,266,31660,2,0,L|65:234,5,33.3333333333333,4|2|2|8|2|0,0:0|0:0|0:0|0:0|0:0|1:0,0:0:0:0:
75,185,32160,2,0,L|60:153,5,33.3333333333333,8|2|0|8|2|2,0:0|0:0|1:0|0:0|0:0|0:0,0:0:0:0:
32,112,32660,38,0,P|40:60|72:28,1,100,4|8,0:0|0:0,0:0:0:0:
172,16,33076,1,2,0:0:0:0:
248,148,33326,1,2,0:0:0:0:
248,148,33410,2,0,P|288:164|312:164,1,66.6666666666667,8|2,0:0|0:0,0:0:0:0:
362,163,33660,2,0,L|422:83,1,100,2|8,0:0|0:0,0:0:0:0:
358,6,34160,2,0,L|298:86,1,100,2|8,0:0|0:0,0:0:0:0:
248,228,34660,5,2,0:0:0:0:
184,328,34910,2,0,P|143:323|121:308,1,66.6666666666667,8|2,0:0|0:0,0:0:0:0:
248,228,35326,1,2,0:0:0:0:
248,228,35410,2,0,L|340:272,1,100,8|2,0:0|0:0,0:0:0:0:
452,312,35910,2,0,P|458:328|460:344,2,33.3333333333333,8|2|0,0:0|0:0|0:0,0:0:0:0:
453,278,36160,2,0,L|489:182,1,100,2|8,0:0|0:0,0:0:0:0:
456,36,36660,102,0,P|408:15|361:20,1,100,4|8,0:0|0:0,0:0:0:0:
316,108,37076,2,0,P|286:145|236:160,1,100,2|2,0:0|0:0,0:0:0:0:
204,148,37410,1,8,0:0:0:0:
128,84,37576,1,0,0:0:0:0:
128,84,37660,2,0,P|80:63|56:22,1,100,2|8,0:0|0:0,0:0:0:0:
8,132,38160,2,0,P|56:153|80:194,1,100,2|8,0:0|0:0,0:0:0:0:
192,292,38660,5,4,0:0:0:0:
44,324,38910,1,8,0:0:0:0:
136,364,39076,2,0,P|190:381|238:371,1,100,2|2,0:0|0:0,0:0:0:0:
260,355,39410,2,0,L|328:375,1,66.6666666666667,8|2,0:0|0:0,0:0:0:0:
376,372,39660,2,0,P|426:354|455:316,1,100,2|8,0:0|0:0,0:0:0:0:
444,219,40076,1,0,1:0:0:0:
444,219,40160,2,0,P|397:234|366:273,1,100,8|8,0:0|0:0,0:0:0:0:
508,156,40660,102,0,L|492:56,1,100,4|8,0:0|0:0,0:0:0:0:
404,8,41076,1,2,0:0:0:0:
284,96,41326,1,2,0:0:0:0:
284,96,41410,2,0,P|286:128|306:158,1,66.6666666666667,8|2,0:0|0:0,0:0:0:0:
288,184,41660,2,0,L|184:168,1,100,2|8,0:0|0:0,0:0:0:0:
16,68,42160,2,0,L|114:83,1,100,2|8,0:0|0:0,0:0:0:0:
140,232,42660,5,2,0:0:0:0:
68,328,42910,2,0,P|32:320|8:300,1,66.6666666666667,8|2,0:0|0:0,0:0:0:0:
140,232,43326,1,2,0:0:0:0:
140,232,43410,2,0,P|172:288|172:328,1,100,8|2,0:0|0:0,0:0:0:0:
292,344,43910,1,8,0:0:0:0:
400,288,44160,2,0,P|446:248|456:204,1,100,2|8,0:0|0:0,0:0:0:0:
440,112,44576,1,0,1:0:0:0:
440,112,44660,102,0,L|341:109,1,100,4|8,0:0|0:0,0:0:0:0:
248,152,45076,2,0,P|244:208|264:248,1,100,2|2,0:0|0:0,0:0:0:0:
296,256,45410,2,0,P|329:238|346:213,1,66.6666666666667,8|0,0:0|0:0,0:0:0:0:
354,182,45660,1,2,0:0:0:0:
320,36,45910,1,8,0:0:0:0:
172,56,46160,1,0,0:0:0:0:
60,156,46410,1,8,0:0:0:0:
30,9,46660,5,4,0:0:0:0:
172,56,46910,1,8,0:0:0:0:
160,156,47076,2,0,P|152:199|114:241,1,100,2|2,0:0|0:0,0:0:0:0:
84,256,47410,2,0,P|59:284|54:316,1,66.6666666666667,8|0,0:0|0:0,0:0:0:0:
84,352,47660,2,0,L|188:368,1,100,2|8,0:0|0:0,0:0:0:0:
244,288,48076,2,0,L|280:280,1,33.3333333333333,0|8,1:0|0:0,0:0:0:0:
352,348,48326,2,0,L|388:356,1,33.3333333333333,0|8,1:0|0:0,0:0:0:0:
476,312,48576,1,0,1:0:0:0:
476,312,48660,102,0,P|497:279|500:248,1,66.6666666666667,4|2,0:0|0:0,0:0:0:0:
484,204,48910,2,0,L|416:216,1,66.6666666666667,2|8,0:0|0:0,0:0:0:0:
296,132,49326,1,2,0:0:0:0:
384,12,49576,1,2,0:0:0:0:
384,12,49660,2,0,P|406:36|418:69,1,66.6666666666667,2|2,0:0|0:0,0:0:0:0:
394,112,49910,2,0,L|296:132,1,100,2|8,0:0|0:0,0:0:0:0:
164,56,50410,1,2,0:0:0:0:
32,124,50660,5,2,0:0:0:0:
52,220,50826,1,2,0:0:0:0:
52,220,50910,2,0,L|116:244,1,66.6666666666667,2|8,0:0|0:0,0:0:0:0:
139,265,51160,2,0,P|148:301|143:333,1,66.6666666666667,2|2,0:0|0:0,0:0:0:0:
96,348,51410,2,0,L|60:360,2,33.3333333333333,2|2|2,0:0|0:0|0:0,0:0:0:0:
144,330,51660,2,0,P|201:329|241:349,1,100,2|2,0:0|0:0,0:0:0:0:
416,324,52160,2,0,P|359:325|319:305,1,100,8|2,0:0|1:2,0:0:0:0:
220,244,52660,102,0,P|216:208|226:178,1,66.6666666666667,4|2,0:0|0:0,0:0:0:0:
248,136,52910,1,2,0:0:0:0:
320,68,53076,2,0,P|343:116|343:163,1,100,8|2,0:0|0:0,0:0:0:0:
476,232,53576,1,2,0:0:0:0:
476,232,53660,2,0,P|498:204|508:171,1,66.6666666666667,2|2,0:0|0:0,0:0:0:0:
495,126,53910,2,0,L|464:24,1,100,2|8,0:0|0:0,0:0:0:0:
320,68,54410,1,2,0:0:0:0:
172,92,54660,22,0,P|136:76|120:56,1,66.6666666666667,4|2,0:0|0:0,0:0:0:0:
80,24,54910,2,0,L|40:80,1,66.6666666666667,2|8,0:0|0:0,0:0:0:0:
28,128,55160,1,4,0:0:0:0:
68,220,55326,1,2,1:2:0:0:
68,220,55410,2,0,L|36:240,2,33.3333333333333,2|2|2,0:0|0:0|0:0,0:0:0:0:
117,207,55660,1,2,0:0:0:0:
264,184,55910,1,8,0:0:0:0:
252,284,56076,1,0,1:0:0:0:
252,284,56160,102,0,L|224:308,2,33.3333333333333,8|0|0,0:0|1:0|1:0,0:0:0:0:
298,273,56410,2,0,L|286:308,2,33.3333333333333,8|0|0,0:0|1:0|1:0,0:0:0:0:
333,241,56660,6,0,P|357:293|396:324,1,100,4|8,0:0|0:0,0:0:0:0:
472,262,57076,2,0,P|497:216|496:166,1,100,2|2,0:0|0:0,0:0:0:0:
469,125,57410,2,0,P|431:107|413:81,1,66.6666666666667,8|0,0:0|0:0,0:0:0:0:
384,48,57660,2,0,L|488:40,1,100,2|8,0:0|0:0,0:0:0:0:
364,140,58160,2,0,L|264:132,1,100,2|8,0:0|0:0,0:0:0:0:
120,180,58660,86,0,P|66:160|25:168,1,100,2|8,0:0|0:0,0:0:0:0:
64,72,59076,2,0,L|160:42,1,100,2|2,0:0|0:0,0:0:0:0:
210,45,59410,1,8,0:0:0:0:
264,132,59576,1,0,0:0:0:0:
264,132,59660,2,0,P|268:187|251:228,2,100,2|8|2,0:0|0:0|0:0,0:0:0:0:
172,168,60326,1,2,0:0:0:0:
172,168,60410,2,0,L|132:224,1,66.6666666666667,8|0,0:0|1:0,0:0:0:0:
96,256,60660,54,0,P|104:304|144:332,1,100,4|8,0:0|0:0,0:0:0:0:
243,326,61076,2,0,P|291:330|322:367,1,100,2|2,0:0|0:0,0:0:0:0:
364,336,61410,2,0,L|432:324,1,66.6666666666667,8|0,0:0|0:0,0:0:0:0:
464,288,61660,2,0,P|491:248|492:196,1,100,2|8,0:0|0:0,0:0:0:0:
392,212,62076,1,2,0:0:0:0:
392,212,62160,2,0,P|393:162|420:121,1,100,2|8,0:0|0:0,0:0:0:0:
324,8,62660,70,0,L|424:28,1,100,2|8,0:0|0:0,0:0:0:0:
346,95,63076,2,0,P|306:107|246:91,1,100,2|2,0:0|0:0,0:0:0:0:
200,92,63410,2,0,L|156:40,1,66.6666666666667,8|0,0:0|0:0,0:0:0:0:
112,20,63660,1,2,0:0:0:0:
56,104,63826,2,0,L|36:132,1,33.3333333333333,2|8,0:0|0:0,0:0:0:0:
120,188,64076,2,0,L|134:219,1,33.3333333333333,0|8,1:0|0:0,0:0:0:0:
36,244,64326,2,0,L|32:278,1,33.3333333333333,0|8,1:0|0:0,0:0:0:0:
92,360,64576,1,0,1:0:0:0:
92,360,64660,6,0,P|146:376|186:364,1,100,4|8,0:0|0:0,0:0:0:0:
276,316,65076,1,2,0:0:0:0:
408,244,65326,1,2,0:0:0:0:
408,244,65410,2,0,L|472:272,1,66.6666666666667,8|0,0:0|0:0,0:0:0:0:
487,319,65660,2,0,P|446:346|396:341,1,100,2|8,0:0|0:0,0:0:0:0:
334,264,66076,1,2,0:0:0:0:
334,264,66160,2,0,L|292:168,1,100,2|8,0:0|0:0,0:0:0:0:
224,100,66576,1,2,0:0:0:0:
224,100,66660,86,0,P|188:120|160:172,1,100,2|8,0:0|0:0,0:0:0:0:
224,248,67076,1,0,0:0:0:0:
360,184,67326,1,2,0:0:0:0:
360,184,67410,2,0,P|393:154|408:128,1,66.6666666666667,8|0,0:0|0:0,0:0:0:0:
420,88,67660,2,0,P|468:60|516:56,2,100,2|8|2,0:0|0:0|0:0,0:0:0:0:
320,104,68326,1,2,0:0:0:0:
320,104,68410,2,0,P|312:64|316:36,1,66.6666666666667,8|2,0:0|1:2,0:0:0:0:
298,10,68660,53,4,0:0:0:0:
152,52,68910,1,8,0:0:0:0:
228,116,69076,2,0,P|239:162|222:213,1,100,2|2,0:0|0:0,0:0:0:0:
182,239,69410,2,0,L|114:251,1,66.6666666666667,8|0,0:0|0:0,0:0:0:0:
86,237,69660,69,2,0:0:0:0:
150,160,69826,1,2,0:0:0:0:
150,160,69910,1,8,0:0:0:0:
50,155,70076,2,0,P|9:193|1:242,1,100,2|2,0:0|0:0,0:0:0:0:
16,282,70410,2,0,P|24:319|17:349,1,66.6666666666667,8|0,0:0|0:0,0:0:0:0:
64,364,70660,6,0,L|168:376,1,100,2|0,0:0|0:0,0:0:0:0:
260,348,71076,2,0,P|307:368|356:360,1,100,2|0,0:0|0:0,0:0:0:0:
396,332,71410,2,0,L|348:284,1,66.6666666666667,2|0,0:0|1:0,0:0:0:0:
320,244,71660,1,8,0:0:0:0:
456,176,71910,1,2,0:0:0:0:
416,84,72076,1,0,1:0:0:0:
416,84,72160,86,0,L|385:70,2,33.3333333333333,8|2|2,0:0|1:2|1:2,0:0:0:0:
338,88,72410,2,0,L|304:91,2,33.3333333333333,2|2|2,1:2|1:2|1:2,0:0:0:0:
264,120,72660,22,0,P|216:142|192:180,1,100,4|0,0:0|1:0,0:0:0:0:
166,280,73076,1,2,0:0:0:0:
166,280,73160,2,0,P|116:295|67:285,1,100,2|0,0:0|1:0,0:0:0:0:
16,204,73576,1,2,0:0:0:0:
16,204,73660,2,0,L|60:144,1,66.6666666666667,4|2,0:0|0:0,0:0:0:0:
105,163,73910,2,0,L|57:75,1,100,0|2,1:0|0:0,0:0:0:0:
140,20,74326,1,2,0:0:0:0:
140,20,74410,2,0,P|180:16|216:28,1,66.6666666666667,0|0,1:0|1:0,0:0:0:0:
248,48,74660,6,0,L|316:36,1,66.6666666666667,4|2,0:0|0:0,0:0:0:0:
360,16,74910,2,0,P|396:13|425:23,1,66.6666666666667,0|2,1:0|0:0,0:0:0:0:
454,63,75160,2,0,L|382:135,1,100,2|0,0:0|1:0,0:0:0:0:
392,232,75576,1,2,0:0:0:0:
392,232,75660,2,0,P|418:253|453:258,1,66.6666666666667,4|2,0:0|0:0,0:0:0:0:
500,248,75910,2,0,L|504:320,1,66.6666666666667,0|2,1:0|0:0,0:0:0:0:
480,360,76160,2,0,P|428:364|376:364,1,100,4|0,0:0|1:0,0:0:0:0:
261,368,76576,1,0,1:0:0:0:
261,368,76660,6,0,P|261:328|276:300,1,66.6666666666667,4|0,0:0|0:0,0:0:0:0:
284,256,76910,2,0,L|220:284,1,66.6666666666667,0|2,1:0|0:0,0:0:0:0:
187,318,77160,2,0,P|203:273|186:224,1,100,2|0,0:0|1:0,0:0:0:0:
272,172,77576,1,2,0:0:0:0:
272,172,77660,6,0,P|252:137|225:120,1,66.6666666666667,4|0,0:0|0:0,0:0:0:0:
196,86,77910,2,0,L|265:78,1,66.6666666666667,0|2,1:0|0:0,0:0:0:0:
311,91,78160,2,0,P|274:60|264:9,1,100,2|0,0:0|1:0,0:0:0:0:
164,16,78576,1,2,0:0:0:0:
164,16,78660,38,0,P|130:51|121:99,1,100,4|2,0:0|1:2,0:0:0:0:
32,144,79076,1,0,0:0:0:0:
32,144,79160,2,0,P|32:192|60:233,1,100,2|2,0:0|1:0,0:0:0:0:
32,328,79576,1,0,0:0:0:0:
32,328,79660,6,0,P|55:354|83:366,1,66.6666666666667,4|2,0:0|0:0,0:0:0:0:
128,348,79910,2,0,P|139:315|135:284,1,66.6666666666667,0|2,1:0|0:0,0:0:0:0:
172,320,80160,2,0,L|236:340,1,66.6666666666667,0|0,1:0|1:0,0:0:0:0:
284,356,80410,2,0,L|349:341,1,66.6666666666667,0|0,1:0|1:0,0:0:0:0:
395,317,80660,101,2,0:0:0:0:
395,317,80910,22,0,P|450:301|480:264,1,100,4|2,0:0|0:0,0:0:0:0:
476,168,81326,1,2,0:0:0:0:
476,168,81410,2,0,L|416:140,1,66.6666666666667,0|2,1:0|0:0,0:0:0:0:
365,136,81660,2,0,P|337:102|332:77,1,66.6666666666667,4|2,0:0|0:0,0:0:0:0:
344,32,81910,2,0,L|272:104,1,100,0|2,1:0|0:0,0:0:0:0:
289,202,82326,1,2,0:0:0:0:
289,202,82410,2,0,L|312:272,1,66.6666666666667,0|0,1:0|1:0,0:0:0:0:
272,298,82660,6,0,P|219:305|182:278,1,100,4|0,0:0|1:0,0:0:0:0:
88,316,83076,1,2,0:0:0:0:
88,316,83160,2,0,P|64:284|59:255,1,66.6666666666667,2|0,0:0|0:0,0:0:0:0:
40,211,83410,2,0,L|104:183,1,66.6666666666667,0|2,1:0|0:0,0:0:0:0:
152,179,83660,1,4,0:0:0:0:
208,96,83826,1,2,0:0:0:0:
208,96,83910,2,0,P|234:77|271:75,1,66.6666666666667,0|2,1:0|0:0,0:0:0:0:
240,32,84160,2,0,L|176:12,1,66.6666666666667,4|2,0:0|0:0,0:0:0:0:
128,28,84410,1,2,1:2:0:0:
48,88,84576,1,0,1:0:0:0:
48,88,84660,6,0,L|52:156,1,66.6666666666667,4|0,0:0|0:0,0:0:0:0:
72,202,84910,2,0,P|44:175|19:163,1,66.6666666666667,0|2,1:0|0:0,0:0:0:0:
4,211,85160,2,0,L|28:311,1,100,2|0,0:0|1:0,0:0:0:0:
128,324,85576,1,2,0:0:0:0:
128,324,85660,6,0,L|196:320,1,66.6666666666667,4|0,0:0|0:0,0:0:0:0:
242,300,85910,2,0,P|215:328|203:353,1,66.6666666666667,0|2,1:0|0:0,0:0:0:0:
251,368,86160,2,0,L|351:344,1,100,2|0,0:0|1:0,0:0:0:0:
444,312,86576,1,0,0:0:0:0:
444,312,86660,38,0,P|467:283|476:252,1,66.6666666666667,4|2,0:0|0:0,0:0:0:0:
476,220,86910,1,2,1:2:0:0:
376,236,87076,1,0,0:0:0:0:
376,236,87160,6,0,P|370:199|378:168,1,66.6666666666667,2|2,0:0|0:0,0:0:0:0:
394,140,87410,1,0,1:0:0:0:
488,104,87576,1,0,0:0:0:0:
488,104,87660,102,0,P|474:69|452:46,1,66.6666666666667,4|2,0:0|0:0,0:0:0:0:
424,30,87910,2,0,L|356:20,1,66.6666666666667,0|2,1:0|0:0,0:0:0:0:
308,28,88160,5,8,0:0:0:0:
290,49,88243,1,0,1:0:0:0:
276,72,88326,1,0,1:0:0:0:
264,96,88410,2,0,L|280:128,2,33.3333333333333,8|0|0,0:0|1:0|1:0,0:0:0:0:
216,80,88660,5,4,0:0:0:0:
226,192,96160,86,0,L|193:192,2,33.3333333333333,8|0|0,0:2|0:0|0:0,0:0:0:0:
270,168,96410,2,0,L|287:140,2,33.3333333333333,8|0|0,0:2|0:0|0:0,0:0:0:0:
270,218,96660,22,0,L|304:276,1,66.6666666666667,4|2,0:0|0:0,0:0:0:0:
344,304,96910,1,8,0:0:0:0:
436,268,97076,2,0,P|479:233|492:192,1,100,2|2,0:0|0:0,0:0:0:0:
480,144,97410,2,0,P|488:100|504:80,1,66.6666666666667,8|2,0:0|0:0,0:0:0:0:
468,44,97660,2,0,P|431:76|382:81,1,100,2|8,0:0|0:0,0:0:0:0:
304,16,98076,2,0,P|253:22|218:54,1,100,2|2,0:0|0:0,0:0:0:0:
184,92,98410,2,0,L|116:96,1,66.6666666666667,8|2,0:0|0:0,0:0:0:0:
68,96,98660,6,0,P|38:139|33:187,1,100,4|8,0:0|0:0,0:0:0:0:
60,281,99076,1,2,0:0:0:0:
184,364,99326,1,2,0:0:0:0:
184,364,99410,2,0,L|232:312,1,66.6666666666667,8|2,0:0|0:0,0:0:0:0:
256,272,99660,2,0,P|316:280|348:304,1,100,2|8,0:0|0:0,0:0:0:0:
392,156,100160,2,0,P|340:188|300:190,1,100,2|8,0:0|0:0,0:0:0:0:
204,192,100576,1,2,0:0:0:0:
204,192,100660,6,0,L|172:252,1,66.6666666666667,4|2,0:0|0:0,0:0:0:0:
136,284,100910,1,8,0:0:0:0:
68,356,101076,2,0,P|28:328|16:280,1,100,2|2,0:0|0:0,0:0:0:0:
28,232,101410,2,0,L|59:173,1,66.6666666666667,8|2,0:0|0:0,0:0:0:0:
92,136,101660,2,0,P|90:89|58:44,1,100,2|8,0:0|0:0,0:0:0:0:
160,38,102076,2,0,L|264:48,1,100,2|2,0:0|0:0,0:0:0:0:
236,92,102410,2,0,L|304:80,1,66.6666666666667,8|2,0:0|0:0,0:0:0:0:
352,72,102660,6,0,L|276:138,1,100,4|8,0:0|0:0,0:0:0:0:
179,156,103076,1,2,0:0:0:0:
212,300,103326,1,2,0:0:0:0:
212,300,103410,2,0,L|280:312,1,66.6666666666667,8|2,0:0|0:0,0:0:0:0:
307,352,103660,2,0,L|339:337,5,33.3333333333333,4|2|2|8|2|0,0:0|0:0|0:0|0:0|0:0|1:0,0:0:0:0:
388,347,104160,2,0,L|420:332,5,33.3333333333333,8|2|0|8|2|2,0:0|0:0|1:0|0:0|0:0|0:0,0:0:0:0:
468,336,104660,38,0,P|498:299|508:248,1,100,4|2,0:0|0:0,0:0:0:0:
408,256,105076,1,8,0:0:0:0:
496,136,105326,1,2,0:0:0:0:
496,136,105410,2,0,L|436:100,1,66.6666666666667,8|2,0:0|0:0,0:0:0:0:
408,116,105660,2,0,P|381:135|348:144,1,66.6666666666667,2|2,0:0|0:0,0:0:0:0:
327,170,105910,2,0,P|313:199|289:224,1,66.6666666666667,2|0,0:0|0:0,0:0:0:0:
260,236,106160,1,2,0:0:0:0:
276,84,106410,1,2,0:0:0:0:
171,191,106660,6,0,P|160:248|175:289,1,100,4|2,0:0|0:0,0:0:0:0:
256,344,107076,1,8,0:0:0:0:
112,372,107326,1,2,0:0:0:0:
112,372,107410,2,0,L|48:352,1,66.6666666666667,8|2,0:0|0:0,0:0:0:0:
24,328,107660,1,2,0:0:0:0:
48,232,107826,2,0,P|33:218|24:204,1,33.3333333333333,2|2,0:0|0:0,0:0:0:0:
64,116,108076,2,0,P|58:96|57:79,1,33.3333333333333,2|2,0:0|0:0,0:0:0:0:
148,44,108326,2,0,P|152:24|160:9,1,33.3333333333333,2|2,0:0|0:0,0:0:0:0:
258,20,108576,1,2,0:0:0:0:
258,20,108660,102,0,L|352:56,1,100,4|2,0:0|0:0,0:0:0:0:
448,32,109076,1,8,0:0:0:0:
496,172,109326,1,2,0:0:0:0:
496,172,109410,2,0,P|472:200|444:212,1,66.6666666666667,8|2,0:0|0:0,0:0:0:0:
420,234,109660,2,0,L|420:268,2,33.3333333333333,2|0|2,0:0|0:0|0:0,0:0:0:0:
404,204,109910,2,0,P|380:181|348:171,1,66.6666666666667,2|2,0:0|0:0,0:0:0:0:
316,168,110160,1,0,0:0:0:0:
216,152,110326,1,0,0:0:0:0:
216,152,110410,2,0,L|192:128,2,33.3333333333333,2|2|0,0:0|0:0|0:0,0:0:0:0:
228,184,110660,6,0,L|216:288,1,100,4|2,0:0|0:0,0:0:0:0:
148,360,111076,1,8,0:0:0:0:
296,360,111326,1,2,0:0:0:0:
296,360,111410,2,0,P|328:344|348:316,1,66.6666666666667,8|2,0:0|0:0,0:0:0:0:
364,292,111660,1,4,2:0:0:0:
381,90,111910,1,8,2:0:0:0:
199,11,112160,1,2,2:0:0:0:
62,159,112410,1,8,2:0:0:0:
163,332,112660,102,0,L|264:348,1,100,4|2,0:0|0:0,0:0:0:0:
288,252,113076,1,8,0:0:0:0:
276,104,113326,1,2,0:0:0:0:
276,104,113410,2,0,P|240:98|208:104,1,66.6666666666667,8|2,0:0|0:0,0:0:0:0:
188,128,113660,2,0,P|173:159|175:191,1,66.6666666666667,2|2,0:0|0:0,0:0:0:0:
166,222,113910,2,0,P|138:241|105:246,1,66.6666666666667,2|2,0:0|0:0,0:0:0:0:
71,241,114160,1,2,0:0:0:0:
4,373,114410,1,2,0:0:0:0:
152,364,114660,6,0,P|201:369|256:348,1,100,4|2,0:0|0:0,0:0:0:0:
312,276,115076,1,8,0:0:0:0:
428,364,115326,2,0,L|466:369,1,33.3333333333333,2|8,0:0|0:0,0:0:0:0:
504,276,115576,1,2,0:0:0:0:
504,276,115660,2,0,P|510:236|506:209,1,66.6666666666667,2|2,0:0|0:0,0:0:0:0:
496,178,115910,1,2,0:0:0:0:
460,84,116076,2,0,P|468:63|480:48,1,33.3333333333333,2|2,0:0|0:0,0:0:0:0:
348,55,116326,2,0,P|360:44|375:37,1,33.3333333333333,2|2,0:0|0:0,0:0:0:0:
276,16,116576,1,2,0:0:0:0:
276,16,116660,102,0,P|240:49|226:98,1,100,4|2,0:0|0:0,0:0:0:0:
240,196,117076,1,8,0:0:0:0:
384,148,117326,2,0,L|412:168,1,33.3333333333333,2|8,0:0|0:0,0:0:0:0:
380,264,117576,1,2,0:0:0:0:
380,264,117660,2,0,L|408:284,2,33.3333333333333,2|2|0,0:0|0:0|0:0,0:0:0:0:
348,252,117910,2,0,P|313:264|296:286,1,66.6666666666667,2|0,0:0|0:0,0:0:0:0:
286,320,118160,2,0,P|263:346|230:360,1,66.6666666666667,2|0,0:0|0:0,0:0:0:0:
204,344,118410,2,0,P|166:333|132:336,1,66.6666666666667,2|0,0:0|0:0,0:0:0:0:
106,346,118660,6,0,L|14:306,1,100,4|2,0:0|0:0,0:0:0:0:
3,208,119076,1,8,0:0:0:0:
56,68,119326,1,2,0:0:0:0:
56,68,119410,2,0,L|124:56,1,66.6666666666667,8|2,0:0|0:0,0:0:0:0:
156,60,119660,101,4,0:0:0:0:
156,264,119910,1,8,0:0:0:0:
257,129,120076,2,0,L|272:100,1,33.3333333333333,0|8,1:0|0:0,0:0:0:0:
364,240,120326,2,0,L|392:260,1,33.3333333333333,0|8,1:0|0:0,0:0:0:0:
432,96,120576,1,0,1:0:0:0:
432,96,120660,22,0,L|488:12,1,100,4|2,0:0|0:0,0:0:0:0:
512,112,121076,2,0,L|504:216,1,100,2|2,1:2|0:0,0:0:0:0:
506,246,121410,1,2,0:0:0:0:
443,328,121576,1,0,0:0:0:0:
443,328,121660,2,0,P|399:348|347:352,1,100,2|0,0:0|0:0,0:0:0:0:
259,232,122160,2,0,P|303:212|355:208,1,100,2|0,1:2|0:0,0:0:0:0:
204,344,122660,6,0,L|104:324,1,100,2|0,0:0|0:0,0:0:0:0:
12,360,123076,2,0,P|6:310|32:260,1,100,2|2,1:2|1:2,0:0:0:0:
44,236,123410,2,0,L|109:249,1,66.6666666666667,2|0,0:0|0:0,0:0:0:0:
224,152,123826,1,2,0:0:0:0:
156,20,124076,2,0,L|120:12,1,33.3333333333333,2|2,0:0|1:2,0:0:0:0:
48,76,124326,2,0,L|16:95,1,33.3333333333333,2|2,0:0|1:2,0:0:0:0:
96,160,124576,1,0,1:0:0:0:
96,160,124660,6,0,P|146:172|193:162,1,100,2|2,0:0|0:0,0:0:0:0:
288,200,125076,2,0,L|384:232,1,100,2|2,1:2|0:0,0:0:0:0:
408,256,125410,2,0,P|447:266|476:261,1,66.6666666666667,2|0,0:0|0:0,0:0:0:0:
504,272,125660,1,2,0:0:0:0:
396,374,125910,1,0,0:0:0:0:
252,332,126160,1,2,1:2:0:0:
192,196,126410,1,2,0:0:0:0:
236,52,126660,6,0,P|282:19|328:16,1,100,2|0,0:0|0:0,0:0:0:0:
412,68,127076,2,0,P|461:61|499:31,1,100,2|0,0:0|1:0,0:0:0:0:
512,64,127410,2,0,L|492:164,1,100,2|0,0:0|0:0,0:0:0:0:
420,228,127826,2,0,L|391:211,1,33.3333333333333,2|0,1:2|0:0,0:0:0:0:
336,127,128076,1,0,0:0:0:0:
336,127,128160,1,2,0:0:0:0:
336,127,128660,70,0,P|307:148|292:179,1,66.6666666666667,4|2,0:0|0:0,0:0:0:0:
288,224,128910,2,0,L|336:272,1,66.6666666666667,0|2,1:0|0:0,0:0:0:0:
348,320,129160,1,2,0:0:0:0:
264,372,129326,1,2,0:0:0:0:
264,372,129410,2,0,P|222:378|192:368,1,66.6666666666667,0|2,1:0|0:0,0:0:0:0:
156,344,129660,2,0,L|88:352,1,66.6666666666667,4|2,0:0|0:0,0:0:0:0:
47,327,129910,1,0,1:0:0:0:
208,256,130160,1,2,0:0:0:0:
112,220,130326,1,2,0:0:0:0:
112,220,130410,2,0,P|74:211|40:216,1,66.6666666666667,0|0,1:0|1:0,0:0:0:0:
20,172,130660,6,0,L|88:96,1,100,4|0,0:0|1:0,0:0:0:0:
176,48,131076,1,2,0:0:0:0:
176,48,131160,2,0,P|209:64|232:88,1,66.6666666666667,2|2,0:0|0:0,0:0:0:0:
256,128,131410,2,0,P|279:151|309:165,1,66.6666666666667,0|2,1:0|0:0,0:0:0:0:
308,216,131660,2,0,L|376:200,1,66.6666666666667,4|2,0:0|0:0,0:0:0:0:
424,196,131910,1,0,1:0:0:0:
332,76,132160,1,4,0:0:0:0:
429,104,132326,1,2,0:0:0:0:
429,104,132410,2,0,P|471:113|492:124,1,66.6666666666667,0|0,1:0|1:0,0:0:0:0:
509,171,132660,6,0,L|501:244,1,66.6666666666667,4|2,0:0|0:0,0:0:0:0:
454,253,132910,2,0,P|433:227|424:196,1,66.6666666666667,0|2,1:0|0:0,0:0:0:0:
420,246,133160,2,0,L|408:355,1,100,2|0,0:0|1:0,0:0:0:0:
308,356,133576,1,2,0:0:0:0:
308,356,133660,6,0,L|257:302,1,66.6666666666667,4|2,0:0|0:0,0:0:0:0:
279,261,133910,2,0,P|312:261|342:274,1,66.6666666666667,0|2,1:0|0:0,0:0:0:0:
307,239,134160,2,0,L|230:159,1,100,2|0,0:0|1:0,0:0:0:0:
144,204,134576,1,0,0:0:0:0:
144,204,134660,38,0,P|128:264|144:300,1,100,4|2,0:0|1:2,0:0:0:0:
64,360,135076,1,2,0:0:0:0:
64,360,135160,2,0,P|27:326|19:278,1,100,2|2,0:0|1:0,0:0:0:0:
56,184,135576,1,2,0:0:0:0:
56,184,135660,6,0,P|51:143|32:116,1,66.6666666666667,4|2,0:0|0:0,0:0:0:0:
56,76,135910,2,0,P|71:47|74:13,1,66.6666666666667,0|2,1:0|0:0,0:0:0:0:
124,16,136160,2,0,L|156:28,2,33.3333333333333,0|2|0,1:0|0:0|1:0,0:0:0:0:
180,52,136410,2,0,P|191:88|191:119,1,66.6666666666667,0|0,1:0|1:0,0:0:0:0:
185,142,136660,101,2,0:0:0:0:
185,142,136910,22,0,P|228:166|276:160,1,100,4|2,0:0|0:0,0:0:0:0:
360,104,137326,1,2,0:0:0:0:
360,104,137410,2,0,P|373:148|375:171,1,66.6666666666667,0|2,1:0|0:0,0:0:0:0:
371,219,137660,2,0,P|384:253|414:273,1,66.6666666666667,4|2,0:0|0:0,0:0:0:0:
360,284,137910,2,0,L|260:296,1,100,0|2,1:0|0:0,0:0:0:0:
160,308,138326,1,2,0:0:0:0:
160,308,138410,2,0,L|213:354,1,66.6666666666667,0|0,1:0|1:0,0:0:0:0:
254,374,138660,6,0,L|354:362,1,100,4|0,0:0|1:0,0:0:0:0:
452,336,139076,1,2,0:0:0:0:
452,336,139160,2,0,P|476:308|504:292,1,66.6666666666667,2|2,0:0|0:0,0:0:0:0:
484,244,139410,2,0,P|484:204|496:180,1,66.6666666666667,0|2,1:0|0:0,0:0:0:0:
480,132,139660,2,0,L|424:96,1,66.6666666666667,4|2,0:0|0:0,0:0:0:0:
376,84,139910,2,0,L|476:52,1,100,0|4,1:0|0:0,0:0:0:0:
400,184,140410,2,0,P|370:196|335:199,1,66.6666666666667,2|0,1:2|1:0,0:0:0:0:
288,208,140660,6,0,L|336:256,1,66.6666666666667,4|2,0:0|0:0,0:0:0:0:
320,304,140910,2,0,L|384:284,1,66.6666666666667,0|2,1:0|0:0,0:0:0:0:
408,328,141160,2,0,P|378:363|328:378,1,100,2|0,0:0|1:0,0:0:0:0:
230,356,141576,1,2,0:0:0:0:
230,356,141660,6,0,L|182:308,1,66.6666666666667,4|2,0:0|0:0,0:0:0:0:
198,260,141910,2,0,L|134:280,1,66.6666666666667,0|2,1:0|0:0,0:0:0:0:
110,236,142160,2,0,P|140:201|190:186,1,100,2|0,0:0|1:0,0:0:0:0:
260,112,142576,1,2,0:0:0:0:
260,112,142660,38,0,P|291:134|301:163,1,66.6666666666667,4|2,0:0|0:0,0:0:0:0:
308,192,142910,2,0,L|376:216,1,66.6666666666667,2|2,1:2|0:0,0:0:0:0:
404,212,143160,5,2,0:0:0:0:
436,116,143326,2,0,L|420:84,1,33.3333333333333,2|0,0:0|1:0,0:0:0:0:
344,20,143576,1,2,0:0:0:0:
344,20,143660,102,0,P|308:23|278:16,1,66.6666666666667,4|2,0:0|0:0,0:0:0:0:
244,16,143910,2,0,L|180:32,1,66.6666666666667,0|0,1:0|1:0,0:0:0:0:
168,64,144160,5,8,0:0:0:0:
158,89,144243,1,0,1:0:0:0:
145,112,144326,1,0,1:0:0:0:
131,135,144410,2,0,L|95:137,2,33.3333333333333,8|0|0,0:0|1:0|1:0,0:0:0:0:
168,168,144660,5,4,0:0:0:0:
256,192,144743,12,0,145910,0:0:0:0:
216,96,160660,86,4,P|271:74|336:92,1,125.000004768372,4|2,0:0|0:0,0:0:0:0:
404,188,161410,2,0,P|500:154|460:64,1,225.000008583069,2|8,0:0|0:0,0:0:0:0:
382,16,162410,1,2,0:0:0:0:
332,89,162660,54,0,P|316:128|320:168,1,75.0000028610231,2|0,0:0|0:0,0:0:0:0:
324,236,163076,2,0,P|361:318|260:364,1,225.000008583069,2|2,0:0|0:0,0:0:0:0:
168,328,164076,70,0,L|132:332,1,25.0000009536744,2|8,0:0|0:0,0:0:0:0:
72,356,164326,2,0,L|38:341,1,25.0000009536744,2|8,0:0|0:0,0:0:0:0:
32,272,164576,1,0,1:0:0:0:
32,272,164660,6,0,P|16:210|46:158,1,125.000004768372,2|2,0:0|0:0,0:0:0:0:
164,139,165410,2,0,P|177:37|77:25,1,225.000008583069,2|8,0:0|0:0,0:0:0:0:
4,77,166410,1,2,0:0:0:0:
44,159,166660,86,0,P|71:190|104:200,1,75.0000028610231,2|0,0:0|0:0,0:0:0:0:
176,216,167076,2,0,P|296:252|181:290,1,325.000012397767,2|2,0:0|0:0,0:0:0:0:
148,140,168326,1,0,1:0:0:0:
148,140,168410,2,0,P|173:126|195:118,1,50.0000019073487,8|0,0:0|1:0,0:0:0:0:
228,84,168660,54,0,P|243:59|250:22,1,66.6666666666667,4|2,0:0|0:0,0:0:0:0:
292,52,168910,2,0,P|320:35|343:11,1,66.6666666666667,2|2,0:0|1:0,0:0:0:0:
476,80,169326,1,2,0:0:0:0:
476,80,169410,2,0,L|477:152,1,66.6666666666667,2|0,0:0|0:0,0:0:0:0:
480,180,169660,69,2,0:0:0:0:
403,313,169910,1,2,0:0:0:0:
330,177,170160,1,2,1:0:0:0:
253,312,170410,1,2,0:0:0:0:
180,174,170660,6,0,P|151:197|139:227,1,66.6666666666667,2|0,0:0|0:0,0:0:0:0:
128,256,170910,2,0,L|120:328,1,66.6666666666667,2|2,0:0|1:0,0:0:0:0:
24,208,171326,1,0,1:0:0:0:
24,208,171410,2,0,P|15:168|20:136,1,66.6666666666667,2|0,0:0|0:0,0:0:0:0:
28,112,171660,2,0,L|64:56,1,66.6666666666667,2|2,0:0|0:0,0:0:0:0:
212,40,172076,86,0,L|248:32,1,33.3333333333333,2|2,0:0|1:2,0:0:0:0:
324,96,172326,2,0,L|360:104,1,33.3333333333333,2|2,0:0|1:2,0:0:0:0:
440,160,172576,1,0,1:0:0:0:
440,160,172660,54,0,P|444:200|436:232,1,66.6666666666667,2|0,0:0|0:0,0:0:0:0:
436,260,172910,2,0,L|492:304,1,66.6666666666667,2|2,0:0|1:0,0:0:0:0:
356,372,173326,1,2,0:0:0:0:
356,372,173410,2,0,P|318:371|292:356,1,66.6666666666667,2|0,0:0|0:0,0:0:0:0:
272,332,173660,69,2,0:0:0:0:
164,228,173910,1,2,0:0:0:0:
128,374,174160,1,2,1:0:0:0:
272,332,174410,1,2,0:0:0:0:
312,188,174660,6,0,P|316:151|308:121,1,66.6666666666667,2|0,0:0|0:0,0:0:0:0:
288,96,174910,2,0,L|224:80,1,66.6666666666667,0|2,1:0|0:0,0:0:0:0:
189,80,175160,2,0,P|185:117|193:147,1,66.6666666666667,2|2,0:0|0:0,0:0:0:0:
213,172,175410,2,0,L|277:188,1,66.6666666666667,2|2,1:0|0:0,0:0:0:0:
312,188,175660,86,0,P|316:151|308:121,1,66.6666666666667,2|2,0:0|0:0,0:0:0:0:
288,96,175910,1,0,1:0:0:0:
268,90,175993,1,0,1:0:0:0:
249,85,176076,1,0,1:0:0:0:
229,80,176160,2,0,L|195:70,5,33.3333333333333,2|0|0|0|0|0,1:0|1:0|1:0|1:0|1:0|1:0,0:0:0:0:
166,59,176660,54,0,L|100:76,1,66.6666666666667,4|2,0:0|0:0,0:0:0:0:
96,108,176910,2,0,L|30:89,1,66.6666666666667,4|0,0:0|0:0,0:0:0:0:
16,60,177160,1,2,0:0:0:0:
48,208,177410,1,2,1:0:0:0:
104,292,177576,1,2,0:0:0:0:
104,292,177660,70,0,L|140:312,2,33.3333333333333,4|2|2,0:0|0:0|0:0,0:0:0:0:
164,319,177910,2,0,L|197:315,2,33.3333333333333,4|0|0,0:0|0:0|0:0,0:0:0:0:
227,300,178160,2,0,L|243:288,11,16.6666666666667,4|0|0|0|0|0|2|0|0|0|0|0,0:0|1:0|1:0|1:0|1:0|1:0|1:0|1:0|1:0|1:0|1:0|1:0,0:0:0:0:
256,260,178660,101,4,0:0:0:0:
400,208,179160,1,2,0:0:0:0:
352,64,179660,2,0,P|289:28|212:34,1,150.000005722046,2|2,0:0|0:0,0:0:0:0:
148,72,180410,1,0,0:0:0:0:
80,108,180660,6,0,P|42:98|16:72,2,75.0000028610231,2|0|2,0:0|0:0|0:0,0:0:0:0:
148,72,181410,1,0,0:0:0:0:
208,120,181660,2,0,P|230:207|196:248,1,150.000005722046,2|2,0:0|0:0,0:0:0:0:
120,268,182410,1,0,0:0:0:0:
72,328,182660,102,0,L|2:355,1,75.0000028610231,2|0,0:0|0:0,0:0:0:0:
156,340,183160,2,0,L|225:367,1,75.0000028610231,2|0,0:0|0:0,0:0:0:0:
357,312,183660,2,0,P|334:341|300:356,1,75.0000028610231,2|0,0:0|0:0,0:0:0:0:
352,236,184160,2,0,P|375:207|409:192,1,75.0000028610231,2|0,0:0|0:0,0:0:0:0:
484,168,184660,5,2,0:0:0:0:
208,52,185160,1,2,0:0:0:0:
356,72,185660,2,0,L|424:40,2,75.0000028610231,2|0|2,0:0|0:0|0:0,0:0:0:0:
304,128,186410,1,0,0:0:0:0:
272,196,186660,102,0,P|229:207|176:192,1,100,4|0,0:0|0:0,0:0:0:0:
104,124,187076,1,2,0:0:0:0:
104,124,187160,2,0,L|8:152,1,100,0|0,1:0|0:0,0:0:0:0:
72,288,187660,2,0,P|64:327|47:353,1,66.6666666666667,2|0,0:0|1:0,0:0:0:0:
76,372,187910,2,0,L|144:376,1,66.6666666666667,2|0,0:0|0:0,0:0:0:0:
175,364,188160,1,0,1:0:0:0:
316,316,188410,2,0,P|352:320|380:336,1,66.6666666666667,2|0,0:0|0:0,0:0:0:0:
408,320,188660,6,0,L|368:264,1,66.6666666666667,2|0,0:0|0:0,0:0:0:0:
364,232,188910,2,0,L|296:224,1,66.6666666666667,2|2,0:0|0:0,0:0:0:0:
264,228,189160,1,0,1:0:0:0:
176,108,189410,1,2,0:0:0:0:
300,24,189660,2,0,P|332:48|344:76,1,66.6666666666667,2|0,0:0|1:0,0:0:0:0:
356,102,189910,2,0,P|392:140|439:148,1,100,2|0,0:0|1:0,0:0:0:0:
498,14,190410,1,2,0:0:0:0:
508,112,190576,1,0,0:0:0:0:
508,112,190660,102,0,L|508:184,1,66.6666666666667,4|0,0:0|0:0,0:0:0:0:
504,212,190910,2,0,L|472:272,1,66.6666666666667,2|2,0:0|0:0,0:0:0:0:
476,304,191160,1,0,1:0:0:0:
336,364,191410,1,0,0:0:0:0:
244,320,191576,1,0,1:0:0:0:
244,320,191660,6,0,L|176:332,1,66.6666666666667,2|0,0:0|1:0,0:0:0:0:
172,364,191910,2,0,L|108:348,1,66.6666666666667,2|2,0:0|0:0,0:0:0:0:
76,336,192160,2,0,P|56:286|71:244,1,100,0|2,1:0|0:0,0:0:0:0:
192,156,192660,102,0,P|227:111|232:68,1,100,2|0,0:0|1:0,0:0:0:0:
160,144,193076,1,0,0:0:0:0:
192,156,193160,6,0,P|248:148|282:122,1,100,2|0,0:0|1:0,0:0:0:0:
177,124,193576,1,0,1:0:0:0:
192,156,193660,6,0,P|216:178|251:189,1,66.6666666666667,4|0,1:0|1:0,0:0:0:0:
268,216,193910,2,0,P|300:214|333:197,1,66.6666666666667,4|0,1:3|1:0,0:0:0:0:
363,200,194160,38,0,P|376:189|386:175,2,33.3333333333333,4|2|2,3:0|0:0|0:0,0:0:0:0:
418,163,194410,2,0,P|419:147|416:131,2,33.3333333333333,2|2|2,1:2|0:0|0:0,0:0:0:0:
432,101,194660,6,0,P|410:78|378:64,1,66.6666666666667,4|2,0:0|0:0,0:0:0:0:
328,56,194910,2,0,P|297:42|274:19,1,66.6666666666667,0|2,1:0|0:0,0:0:0:0:
225,31,195160,2,0,L|129:59,1,100,2|0,0:0|1:0,0:0:0:0:
48,120,195576,1,2,0:0:0:0:
48,120,195660,2,0,P|41:159|51:186,1,66.6666666666667,4|2,0:0|0:0,0:0:0:0:
72,228,195910,2,0,L|48:292,1,66.6666666666667,0|2,1:0|0:0,0:0:0:0:
8,320,196160,1,2,0:0:0:0:
100,360,196326,1,2,0:0:0:0:
100,360,196410,2,0,P|134:344|156:316,1,66.6666666666667,0|0,1:0|1:0,0:0:0:0:
176,276,196660,6,0,L|220:328,1,66.6666666666667,4|2,0:0|0:0,0:0:0:0:
268,324,196910,2,0,P|304:316|336:324,1,66.6666666666667,0|2,1:0|0:0,0:0:0:0:
364,284,197160,2,0,P|374:238|411:198,1,100,2|0,0:0|1:0,0:0:0:0:
464,285,197576,1,2,0:0:0:0:
464,285,197660,2,0,P|467:324|459:349,1,66.6666666666667,4|2,0:0|0:0,0:0:0:0:
414,374,197910,2,0,L|310:378,1,100,0|4,1:0|0:0,0:0:0:0:
256,296,198326,1,2,0:0:0:0:
256,296,198410,2,0,P|244:256|248:232,1,66.6666666666667,0|0,1:0|1:0,0:0:0:0:
268,187,198660,70,0,L|212:147,1,66.6666666666667,4|2,0:0|0:0,0:0:0:0:
192,103,198910,2,0,P|202:62|220:43,1,66.6666666666667,0|2,1:0|0:0,0:0:0:0:
180,11,199160,2,0,P|224:29|276:16,1,100,2|0,0:0|1:0,0:0:0:0:
368,44,199576,1,2,0:0:0:0:
368,44,199660,6,0,L|432:68,1,66.6666666666667,4|2,0:0|0:0,0:0:0:0:
462,105,199910,2,0,P|462:147|450:170,1,66.6666666666667,0|2,1:0|0:0,0:0:0:0:
497,191,200160,2,0,P|449:185|402:211,1,100,2|0,0:0|1:0,0:0:0:0:
336,280,200576,1,2,0:0:0:0:
336,280,200660,38,0,P|327:330|351:370,1,100,4|2,0:0|1:2,0:0:0:0:
484,372,201076,1,2,0:0:0:0:
484,372,201160,2,0,P|493:322|469:282,1,100,2|2,0:0|1:0,0:0:0:0:
404,209,201576,1,2,0:0:0:0:
404,209,201660,6,0,L|340:188,1,66.6666666666667,4|0,0:0|1:0,0:0:0:0:
304,152,201910,2,0,L|232:156,1,66.6666666666667,2|0,1:2|1:0,0:0:0:0:
198,187,202160,101,2,1:0:0:0:
174,176,202243,1,2,1:2:0:0:
148,169,202326,1,0,1:0:0:0:
122,162,202410,2,0,L|95:186,2,33.3333333333333,2|8|4,1:0|1:3|1:3,0:0:0:0:
125,113,202660,5,2,0:0:0:0:
125,113,202910,70,0,P|139:56|122:21,1,100,4|2,0:0|0:0,0:0:0:0:
28,56,203326,1,2,0:0:0:0:
28,56,203410,2,0,L|12:120,1,66.6666666666667,0|2,1:0|0:0,0:0:0:0:
12,172,203660,2,0,P|26:204|24:236,1,66.6666666666667,4|2,0:0|0:0,0:0:0:0:
62,269,203910,2,0,L|124:296,1,66.6666666666667,0|2,1:0|0:0,0:0:0:0:
174,296,204160,1,2,0:0:0:0:
256,356,204326,1,0,0:0:0:0:
256,356,204410,2,0,P|274:316|277:291,1,66.6666666666667,0|0,1:0|1:0,0:0:0:0:
272,244,204660,5,4,0:0:0:0:
240,148,204826,1,2,0:0:0:0:
240,148,204910,2,0,P|240:104|248:84,1,66.6666666666667,0|2,1:0|0:0,0:0:0:0:
288,52,205160,2,0,L|352:68,1,66.6666666666667,2|2,0:0|0:0,0:0:0:0:
396,96,205410,2,0,P|436:88|456:72,1,66.6666666666667,0|2,1:0|0:0,0:0:0:0:
472,120,205660,2,0,L|476:188,1,66.6666666666667,4|2,0:0|0:0,0:0:0:0:
496,232,205910,1,0,1:0:0:0:
472,328,206076,1,2,0:0:0:0:
472,328,206160,2,0,P|439:346|408:348,1,66.6666666666667,2|2,0:0|0:0,0:0:0:0:
364,328,206410,1,2,1:2:0:0:
288,264,206576,1,0,1:0:0:0:
288,264,206660,70,0,L|340:220,1,66.6666666666667,4|2,0:0|0:0,0:0:0:0:
372,184,206910,2,0,L|308:168,1,66.6666666666667,0|2,1:0|0:0,0:0:0:0:
284,122,207160,2,0,P|274:169|237:204,1,100,2|0,0:0|1:0,0:0:0:0:
144,236,207576,1,2,0:0:0:0:
144,236,207660,6,0,L|196:280,1,66.6666666666667,4|2,0:0|0:0,0:0:0:0:
228,316,207910,2,0,L|164:332,1,66.6666666666667,0|2,1:0|0:0,0:0:0:0:
140,378,208160,2,0,P|130:331|93:296,1,100,2|0,0:0|1:0,0:0:0:0:
20,228,208576,1,2,0:0:0:0:
20,228,208660,38,0,L|24:160,1,66.6666666666667,4|2,0:0|0:0,0:0:0:0:
8,116,208910,1,2,1:2:0:0:
88,56,209076,1,2,0:0:0:0:
88,56,209160,2,0,L|156:72,1,66.6666666666667,2|0,0:0|0:0,0:0:0:0:
192,104,209410,1,0,1:0:0:0:
292,96,209576,1,2,0:0:0:0:
292,96,209660,6,0,L|327:39,1,66.6666666666667,4|2,0:0|0:0,0:0:0:0:
362,3,209910,2,0,L|376:72,1,66.6666666666667,0|2,1:0|0:0,0:0:0:0:
368,118,210160,1,8,0:0:0:0:
384,107,210243,1,0,1:0:0:0:
400,98,210326,1,0,1:0:0:0:
418,88,210410,2,0,L|450:69,2,33.3333333333333,8|0|0,0:0|1:0|1:0,0:0:0:0:
436,136,210660,70,0,L|496:216,1,100,4|8,0:0|0:0,0:0:0:0:
456,308,211076,2,0,P|424:344|376:360,1,100,2|2,0:0|0:0,0:0:0:0:
326,348,211410,2,0,L|266:320,1,66.6666666666667,8|2,0:0|0:0,0:0:0:0:
231,283,211660,2,0,P|227:247|235:215,1,66.6666666666667,2|2,0:0|0:0,0:0:0:0:
227,320,211910,2,0,P|195:336|163:344,1,66.6666666666667,8|2,0:0|0:0,0:0:0:0:
16,356,212326,1,2,0:0:0:0:
16,356,212410,2,0,L|12:288,1,66.6666666666667,8|2,0:0|0:0,0:0:0:0:
8,240,212660,6,0,P|40:204|88:192,1,100,4|8,0:0|0:0,0:0:0:0:
139,106,213076,2,0,P|91:94|58:58,1,100,2|2,0:0|0:0,0:0:0:0:
39,12,213410,1,8,0:0:0:0:
140,20,213576,1,2,0:0:0:0:
140,20,213660,2,0,P|187:34|236:20,1,100,2|8,0:0|0:0,0:0:0:0:
384,28,214160,2,0,B|412:35|445:72|474:80,1,100,2|8,0:0|0:0,0:0:0:0:
480,180,214576,1,2,0:0:0:0:
480,180,214660,70,0,P|437:196|386:186,1,100,4|8,0:0|0:0,0:0:0:0:
333,99,215076,2,0,P|298:133|284:181,1,100,2|2,0:0|0:0,0:0:0:0:
280,224,215410,2,0,P|267:261|246:283,1,66.6666666666667,8|2,0:0|0:0,0:0:0:0:
198,280,215660,2,0,L|138:252,1,66.6666666666667,2|2,0:0|0:0,0:0:0:0:
141,302,215910,2,0,L|157:366,1,66.6666666666667,8|2,0:0|0:0,0:0:0:0:
308,368,216326,1,2,0:0:0:0:
308,368,216410,2,0,P|349:361|376:348,1,66.6666666666667,8|2,0:0|0:0,0:0:0:0:
392,304,216660,6,0,P|446:304|484:334,1,100,4|8,0:0|0:0,0:0:0:0:
492,232,217076,2,0,P|439:218|410:179,1,100,2|2,0:0|0:0,0:0:0:0:
392,136,217410,1,8,0:0:0:0:
440,48,217576,1,2,0:0:0:0:
440,48,217660,38,0,L|472:40,5,33.3333333333333,4|2|2|8|2|0,0:0|0:0|0:0|0:0|0:0|1:0,0:0:0:0:
392,32,218160,2,0,L|408:3,5,33.3333333333333,8|2|0|8|2|2,0:0|0:0|1:0|0:0|0:0|0:0,0:0:0:0:
341,29,218660,85,4,0:0:0:0:
240,24,218826,1,2,0:0:0:0:
240,24,218910,2,0,P|200:32|176:44,1,66.6666666666667,8|2,0:0|0:0,0:0:0:0:
192,192,219326,1,2,0:0:0:0:
192,192,219410,2,0,P|184:228|164:260,1,66.6666666666667,8|2,0:0|0:0,0:0:0:0:
152,300,219660,2,0,P|164:349|202:376,1,100,2|8,0:0|0:0,0:0:0:0:
300,352,220076,1,2,0:0:0:0:
392,236,220326,1,2,0:0:0:0:
392,236,220410,2,0,L|336:200,1,66.6666666666667,8|2,0:0|0:0,0:0:0:0:
286,191,220660,5,4,0:0:0:0:
220,116,220826,1,2,0:0:0:0:
220,116,220910,2,0,P|208:72|212:48,1,66.6666666666667,8|2,0:0|0:0,0:0:0:0:
64,16,221326,1,2,0:0:0:0:
64,16,221410,2,0,L|8:60,1,66.6666666666667,8|2,0:0|0:0,0:0:0:0:
28,104,221660,2,0,P|42:161|26:198,1,100,2|8,0:0|0:0,0:0:0:0:
92,272,222076,1,2,0:0:0:0:
92,272,222160,2,0,P|78:329|94:366,1,100,2|8,0:0|0:0,0:0:0:0:
180,316,222576,1,2,0:0:0:0:
180,316,222660,69,4,0:0:0:0:
296,220,222910,1,8,0:0:0:0:
336,312,223076,2,0,P|366:349|416:360,1,100,2|2,0:0|0:0,0:0:0:0:
461,339,223410,2,0,L|509:291,1,66.6666666666667,8|2,0:0|0:0,0:0:0:0:
504,240,223660,2,0,P|476:186|437:164,1,100,2|8,0:0|0:0,0:0:0:0:
409,258,224076,1,2,0:0:0:0:
288,168,224326,1,2,0:0:0:0:
288,168,224410,2,0,L|264:106,1,66.6666666666667,8|2,0:0|0:0,0:0:0:0:
261,55,224660,5,4,0:0:0:0:
112,32,224910,1,8,0:0:0:0:
160,120,225076,2,0,P|164:176|142:218,1,100,2|2,0:0|0:0,0:0:0:0:
108,248,225410,2,0,L|152:300,1,66.6666666666667,8|2,0:0|0:0,0:0:0:0:
180,340,225660,38,0,L|156:362,5,33.3333333333333,4|2|2|8|2|0,0:0|0:0|0:0|0:0|0:0|1:0,0:0:0:0:
229,329,226160,2,0,L|228:361,5,33.3333333333333,8|2|0|8|2|2,0:0|0:0|1:0|0:0|0:0|0:0,0:0:0:0:
275,306,226660,86,0,P|309:328|348:332,1,66.6666666666667,4|2,0:0|0:0,0:0:0:0:
384,320,226910,2,0,L|372:252,1,66.6666666666667,8|2,0:0|0:0,0:0:0:0:
372,254,227326,5,2,0:0:0:0:
372,254,227410,2,0,L|436:272,1,66.6666666666667,8|0,0:0|0:0,0:0:0:0:
482,252,227660,2,0,P|499:221|502:188,1,66.6666666666667,2|2,0:0|0:0,0:0:0:0:
487,143,227910,2,0,L|419:155,1,66.6666666666667,8|2,0:0|0:0,0:0:0:0:
421,154,228326,69,2,0:0:0:0:
404,143,228410,1,0,1:0:0:0:
390,128,228493,1,0,1:0:0:0:
377,113,228576,1,0,1:0:0:0:
367,95,228660,6,0,P|357:48|376:0,1,100,4|8,0:0|0:0,0:0:0:0:
280,24,229076,1,2,0:0:0:0:
280,24,229160,2,0,L|249:13,2,33.3333333333333,2|2|2,0:0|0:0|0:0,0:0:0:0:
285,75,229410,2,0,P|289:109|276:141,1,66.6666666666667,8|0,0:0|1:0,0:0:0:0:
242,175,229660,6,0,L|290:223,1,66.6666666666667,4|2,0:0|0:0,0:0:0:0:
168,184,229910,2,0,L|120:136,1,66.6666666666667,4|2,1:2|0:0,0:0:0:0:
202,96,230160,1,4,1:2:0:0:
