osu file format v12

[General]
AudioFilename: .mp3
AudioLeadIn: 0
PreviewTime: 128576
Countdown: 0
SampleSet: Soft
StackLeniency: 0.7
Mode: 0
LetterboxInBreaks: 0
EpilepsyWarning: 1
WidescreenStoryboard: 1

[Editor]
DistanceSpacing: 1.65
BeatDivisor: 3
GridSize: 4
TimelineZoom: 1

[Metadata]
Title:Tsukimiyo Rabbit
TitleUnicode:月見夜ラビット
Artist:ChouchouP
ArtistUnicode:蝶々P
Creator:Zero__wind
Version:Easy
Source:
Tags:Fictional World Hatsune Miku Append Dark EXIT TUNE 2nd album papiyon vocaloid pianythm cyoucyoup Firce777 OniJAM DJNightmare
BeatmapID:330635
BeatmapSetID:122342

[Difficulty]
HPDrainRate:2
CircleSize:3
OverallDifficulty:2
ApproachRate:3
SliderMultiplier:0.5
SliderTickRate:1

[Events]
//Background and Video events
0,0,"30075535.jpg",0,0
//Break Periods
2,24860,31220
2,50610,55220
2,88860,95220
2,144860,159220
//Storyboard Layer 0 (Background)
//Storyboard Layer 1 (Fail)
//Storyboard Layer 2 (Pass)
//Storyboard Layer 3 (Foreground)
//Storyboard Sound Samples
//Background Colour Transformations
3,100,163,162,255

[TimingPoints]
660.179487179487,250,4,2,1,80,1,0
16826,-100,4,2,1,70,0,0
17660,-100,4,2,2,70,0,0
17826,-100,4,2,1,70,0,0
19660,-100,4,2,2,70,0,0
19826,-100,4,2,1,70,0,0
21660,-100,4,2,2,70,0,0
22076,-100,4,2,1,70,0,0
32660,-100,4,2,2,80,0,0
32826,-100,4,2,2,50,0,0
36576,-100,4,2,2,40,0,0
36910,-100,4,2,2,50,0,0
38660,-100,4,2,2,40,0,0
38910,-100,4,2,2,50,0,0
40660,-100,4,2,2,60,0,0
40910,-100,4,2,2,50,0,0
44576,-100,4,2,2,40,0,0
44910,-100,4,2,2,50,0,0
46660,-100,4,2,2,40,0,0
46910,-100,4,2,2,50,0,0
50410,-100,4,2,2,10,0,0
56660,-100,4,2,2,70,0,0
60660,-100,4,2,2,50,0,0
61076,-100,4,2,2,70,0,0
62660,-100,4,2,2,50,0,0
63076,-100,4,2,2,70,0,0
64660,-100,4,2,2,85,0,0
64826,-100,4,2,2,70,0,0
67076,-100,4,2,2,60,0,0
67410,-100,4,2,2,70,0,0
70660,-100,4,2,2,60,0,0
71410,-100,4,2,2,70,0,0
72660,-100,4,2,1,80,0,1
72826,-100,4,2,1,70,0,1
80160,-100,4,2,2,60,0,1
80660,-100,4,2,1,40,0,0
80910,-100,4,2,1,80,0,1
81076,-100,4,2,1,70,0,1
84410,-100,4,2,2,70,0,1
84660,-100,4,2,1,70,0,1
88660,-100,4,2,1,80,0,0
96826,-100,4,2,1,70,0,0
97660,-100,4,2,2,60,0,0
97826,-100,4,2,1,70,0,0
99660,-100,4,2,2,60,0,0
99826,-100,4,2,1,70,0,0
101660,-100,4,2,2,60,0,0
101826,-100,4,2,1,70,0,0
104660,-100,4,2,2,80,0,0
104910,-100,4,2,2,50,0,0
112660,-100,4,2,2,70,0,0
112910,-100,4,2,2,50,0,0
120660,-100,4,2,2,70,0,0
120910,-100,4,2,2,60,0,0
128660,-100,4,2,1,80,0,1
128826,-100,4,2,1,70,0,1
136160,-100,4,2,2,60,0,1
136660,-100,4,2,1,40,0,0
136910,-100,4,2,1,80,0,1
137076,-100,4,2,1,70,0,1
140410,-100,4,2,2,70,0,1
140660,-100,4,2,1,70,0,1
144160,-100,4,2,1,70,0,0
144660,-100,4,2,1,70,0,1
144826,-100,4,2,1,70,0,0
161076,-100,4,2,1,50,0,0
168660,-100,4,2,1,80,0,0
169076,-100,4,2,2,60,0,0
176660,-100,4,2,2,70,0,0
177660,-100,4,2,1,80,0,0
178410,-100,4,2,2,60,0,0
178660,-100,4,2,1,80,0,0
179160,-100,4,2,1,40,0,0
186660,-100,4,2,1,50,0,0
193660,-100,4,2,1,60,0,0
193743,-100,4,2,1,50,0,0
194160,-100,4,2,2,70,0,0
194660,-100,4,2,1,80,0,1
194826,-100,4,2,1,70,0,1
201910,-100,4,2,2,60,0,1
202660,-100,4,2,1,40,0,0
202910,-100,4,2,1,80,0,1
203076,-100,4,2,1,70,0,1
206410,-100,4,2,2,70,0,1
206660,-100,4,2,1,70,0,1
208660,-100,4,2,1,70,0,1
210660,-100,4,2,1,70,0,0
213660,-100,4,2,2,70,0,0
219826,-100,4,2,1,70,0,0
221660,-100,4,2,2,70,0,0
221826,-100,4,2,1,70,0,0
223660,-100,4,2,2,60,0,0
223826,-100,4,2,1,70,0,0
226660,-100,4,2,1,80,0,0
226826,-100,4,2,1,70,0,0
228660,-100,4,2,1,80,0,0
228910,-100,4,2,1,70,0,0
229160,-100,4,2,2,60,0,0
229326,-100,4,2,1,70,0,0

[Colours]
Combo1 : 128,128,128
Combo2 : 113,180,189
Combo3 : 254,231,125
Combo4 : 124,118,146
Combo5 : 220,167,78
Combo6 : 78,171,152
Combo7 : 244,125,86
Combo8 : 218,218,218

[HitObjects]
46,97,16660,6,0,P|119:51|184:61,1,150,4|8,0:0|0:0,0:0:0:0:
255,91,17660,2,0,L|336:104,1,83.3333333333333,2|2,0:0|0:0,0:0:0:0:
440,149,18410,1,8,0:0:0:0:
448,232,18660,6,0,P|421:312|364:336,1,150,4|8,0:0|0:0,0:0:0:0:
288,304,19660,2,0,B|236:296|196:348|141:343,1,150,2|8,0:0|0:0,0:0:0:0:
69,310,20660,6,0,P|65:237|117:186,1,150,4|8,0:0|0:0,0:0:0:0:
200,176,21660,2,0,L|292:160,1,83.3333333333333,2|2,0:0|0:0,0:0:0:0:
376,223,22410,1,8,0:0:0:0:
429,160,22660,6,0,P|419:81|365:32,1,150,4|8,0:0|0:0,0:0:0:0:
288,28,23660,2,0,B|236:20|196:72|141:67,1,150,4|8,0:0|0:0,0:0:0:0:
72,28,24660,1,4,0:0:0:0:
256,72,32660,38,0,P|332:72|388:116,1,150,4|8,0:0|0:0,0:0:0:0:
411,197,33660,1,2,0:0:0:0:
228,360,34410,1,10,0:0:0:0:
148,336,34660,6,0,P|99:288|96:208,1,150,2|8,0:0|0:0,0:0:0:0:
160,156,35660,2,0,P|188:156|211:166,2,50,2|8|2,0:0|0:0|0:0,0:0:0:0:
28,40,36660,101,4,0:0:0:0:
268,24,37410,1,8,0:0:0:0:
352,28,37660,2,0,P|384:17|412:16,2,50,2|8|0,0:0|0:0|0:0,0:0:0:0:
280,179,38660,5,4,0:0:0:0:
436,368,39410,1,8,0:0:0:0:
484,300,39660,2,0,P|496:272|500:244,1,50,2|8,0:0|0:0,0:0:0:0:
434,201,40160,2,0,P|422:229|418:257,1,50,10|8,0:0|0:0,0:0:0:0:
364,312,40660,102,0,P|296:352|228:340,1,150,4|8,0:0|0:0,0:0:0:0:
164,291,41660,1,2,0:0:0:0:
112,132,42160,1,0,0:0:0:0:
244,40,42660,6,0,L|392:60,1,150,2|8,0:0|0:0,0:0:0:0:
452,120,43660,2,0,P|470:93|476:72,2,50,2|8|2,0:0|0:0|0:0,0:0:0:0:
472,284,44660,101,4,0:0:0:0:
240,360,45410,1,8,0:0:0:0:
188,296,45660,2,0,P|185:267|190:242,2,50,2|8|0,0:0|0:0|0:0,0:0:0:0:
32,352,46660,5,4,0:0:0:0:
96,116,47410,1,8,0:0:0:0:
168,76,47660,2,0,L|220:68,1,50,2|8,0:0|0:0,0:0:0:0:
268,136,48160,2,0,L|320:128,1,50,10|8,0:0|0:0,0:0:0:0:
256,192,48660,12,0,50410,0:0:0:0:
316,328,56660,6,0,L|168:296,1,150,4|8,0:0|0:0,0:0:0:0:
103,249,57660,1,2,0:0:0:0:
38,99,58160,1,2,0:0:0:0:
196,56,58660,86,0,L|344:88,1,150,2|8,0:0|0:0,0:0:0:0:
408,136,59660,2,0,P|441:134|464:128,2,50,2|8|2,0:0|0:0|0:0,0:0:0:0:
272,232,60660,54,0,P|265:305|311:361,1,150,4|8,0:0|0:0,0:0:0:0:
392,369,61660,1,2,0:0:0:0:
464,222,62160,1,2,0:0:0:0:
432,60,62660,70,0,P|375:12|303:18,1,150,4|8,0:0|0:0,0:0:0:0:
228,48,63660,1,2,0:0:0:0:
187,209,64160,1,10,0:0:0:0:
108,228,64410,1,8,0:0:0:0:
40,184,64660,6,0,P|3:245|19:318,1,150,4|8,0:0|0:0,0:0:0:0:
84,368,65660,1,2,0:0:0:0:
225,284,66160,1,2,0:0:0:0:
368,368,66660,86,0,P|439:337|478:272,1,150,2|8,0:0|0:0,0:0:0:0:
494,197,67660,1,2,0:0:0:0:
486,34,68160,1,2,0:0:0:0:
324,16,68660,54,0,P|282:19|252:36,2,75,4|0|8,0:0|0:0|0:0,0:0:0:0:
311,99,69660,2,0,P|277:115|240:117,2,75,2|0|8,0:0|0:0|0:0,0:0:0:0:
392,120,70660,69,2,0:0:0:0:
376,284,71160,1,8,0:0:0:0:
236,368,71660,1,2,0:0:0:0:
154,360,71910,1,0,0:0:0:0:
84,317,72160,2,0,P|75:291|72:264,1,50,8|2,0:0|1:2,0:0:0:0:
8,216,72660,6,0,P|55:189|100:189,1,100,4|2,0:0|0:0,0:0:0:0:
250,261,73660,2,0,P|299:259|341:233,1,100,4|2,0:0|0:0,0:0:0:0:
392,168,74410,1,0,1:0:0:0:
420,88,74660,6,0,L|428:36,2,50,4|0|2,0:0|1:0|0:0,0:0:0:0:
252,92,75660,2,0,P|196:103|161:131,1,100,4|4,0:0|0:0,0:0:0:0:
24,228,76660,5,4,0:0:0:0:
149,334,77160,1,2,0:0:0:0:
257,207,77660,1,4,0:0:0:0:
128,98,78160,1,2,0:0:0:0:
24,228,78660,6,0,P|14:278|32:321,2,100,4|2|4,0:0|0:0|0:0,0:0:0:0:
61,151,79910,1,0,1:0:0:0:
128,98,80160,1,2,1:2:0:0:
288,48,80660,70,0,L|336:68,1,50,2|4,0:0|0:0,0:0:0:0:
452,180,81410,1,0,1:0:0:0:
452,264,81660,2,0,P|439:318|408:352,2,100,4|2|4,0:0|0:0|0:0,0:0:0:0:
401,196,82910,5,0,1:0:0:0:
320,218,83160,1,2,0:0:0:0:
195,328,83660,2,0,P|146:344|99:332,1,100,4|2,0:0|0:0,0:0:0:0:
35,280,84410,1,2,1:2:0:0:
24,196,84660,5,4,0:0:0:0:
37,32,85160,1,2,0:0:0:0:
203,46,85660,1,4,0:0:0:0:
189,214,86160,1,2,0:0:0:0:
229,288,86410,1,0,1:0:0:0:
296,337,86660,5,4,0:0:0:0:
440,252,87160,1,2,0:0:0:0:
456,88,87660,2,0,P|444:63|428:44,2,50,4|0|8,0:0|1:0|0:0,0:0:0:0:
320,188,88660,1,4,0:0:0:0:
336,68,96660,70,8,P|392:113|409:186,1,150,4|8,0:0|0:0,0:0:0:0:
392,268,97660,2,0,L|316:304,1,83.3333333333333,2|2,0:0|0:0,0:0:0:0:
228,372,98410,1,8,0:0:0:0:
148,348,98660,6,8,P|98:295|92:220,1,150,4|8,0:0|0:0,0:0:0:0:
120,142,99660,2,0,P|195:158|256:124,1,150,2|8,0:0|0:0,0:0:0:0:
280,44,100660,6,0,L|132:16,1,150,4|8,0:0|0:0,0:0:0:0:
52,32,101660,2,0,P|26:69|18:111,1,83.3333333333333,2|2,0:0|0:0,0:0:0:0:
28,216,102410,1,8,0:0:0:0:
92,268,102660,6,0,L|240:292,1,150,4|8,0:0|0:0,0:0:0:0:
304,345,103660,2,0,B|356:353|396:301|451:306,1,150,4|8,0:0|0:0,0:0:0:0:
492,236,104660,37,4,0:0:0:0:
366,26,105410,2,0,L|314:18,1,50,8|2,0:0|0:0,0:0:0:0:
20,148,106660,5,4,0:0:0:0:
146,358,107410,2,0,L|198:366,1,50,8|2,0:0|0:0,0:0:0:0:
408,120,108660,101,4,0:0:0:0:
164,132,109410,2,0,P|145:150|132:171,1,50,8|2,0:0|0:0,0:0:0:0:
392,364,110660,5,4,0:0:0:0:
408,120,111410,1,8,0:0:0:0:
340,72,111660,2,0,L|288:56,1,50,4|8,0:0|0:0,0:0:0:0:
220,100,112160,2,0,L|231:148,1,50,2|8,0:0|0:0,0:0:0:0:
300,196,112660,101,4,0:0:0:0:
120,364,113410,2,0,L|71:351,1,50,8|2,0:0|0:0,0:0:0:0:
24,28,114660,5,4,0:0:0:0:
272,20,115410,2,0,P|296:28|320:40,1,50,8|2,0:0|0:0,0:0:0:0:
448,336,116660,101,4,0:0:0:0:
220,248,117410,2,0,L|200:200,1,50,8|2,0:0|0:0,0:0:0:0:
474,23,118660,5,4,0:0:0:0:
496,268,119410,1,8,0:0:0:0:
440,332,119660,2,0,P|415:340|388:344,1,50,4|8,0:0|0:0,0:0:0:0:
312,322,120160,2,0,P|287:326|263:333,1,50,2|8,0:0|0:0,0:0:0:0:
184,360,120660,6,0,P|134:356|104:339,1,83.3333333333333,4|2,0:0|1:2,0:0:0:0:
32,260,121410,2,0,P|17:185|56:128,1,150,2|2,0:0|1:2,0:0:0:0:
212,80,122660,1,2,0:0:0:0:
316,168,123076,2,0,P|411:130|376:44,1,216.666666666667,2|2,1:2|1:2,0:0:0:0:
212,80,124660,6,0,P|189:118|186:157,1,83.3333333333333,2|2,0:0|1:2,0:0:0:0:
220,264,125410,2,0,P|179:323|104:340,1,150,2|2,0:0|1:2,0:0:0:0:
24,200,126660,1,2,0:0:0:0:
116,100,127076,2,0,P|219:77|314:125,1,216.666666666667,2|2,1:2|0:0,0:0:0:0:
416,252,128660,6,0,L|500:196,1,100,4|2,0:0|0:0,0:0:0:0:
480,32,129660,1,4,0:0:0:0:
312,36,130160,1,2,0:0:0:0:
232,20,130410,1,0,1:0:0:0:
152,36,130660,6,0,L|68:92,1,100,4|2,0:0|0:0,0:0:0:0:
36,244,131660,1,4,0:0:0:0:
64,322,131910,1,0,1:0:0:0:
140,360,132160,1,4,0:0:0:0:
292,296,132660,70,0,P|341:300|384:324,1,100,4|2,0:0|0:0,0:0:0:0:
484,192,133660,2,0,P|435:188|392:164,1,100,4|2,0:0|0:0,0:0:0:0:
312,20,134660,5,4,0:0:0:0:
152,72,135160,1,2,0:0:0:0:
316,107,135660,2,0,P|345:100|370:85,2,50,4|0|2,0:0|1:0|1:2,0:0:0:0:
204,228,136660,6,0,L|184:276,1,50,2|4,0:0|0:0,0:0:0:0:
49,368,137410,1,0,1:0:0:0:
15,293,137660,2,0,P|8:240|26:195,1,100,4|2,0:0|0:0,0:0:0:0:
168,120,138660,6,0,L|220:104,2,50,4|0|2,0:0|1:0|0:0,0:0:0:0:
208,280,139660,1,4,0:0:0:0:
364,328,140160,1,2,0:0:0:0:
446,310,140410,1,2,1:2:0:0:
488,236,140660,70,0,P|500:180|488:136,1,100,4|2,0:0|0:0,0:0:0:0:
376,12,141660,2,0,P|364:68|376:112,1,100,4|2,0:0|0:0,0:0:0:0:
362,192,142410,1,0,1:0:0:0:
287,230,142660,5,4,0:0:0:0:
121,198,143160,1,2,0:0:0:0:
217,62,143660,2,0,L|221:35|221:10,2,50,4|0|8,0:0|1:0|0:0,0:0:0:0:
202,226,144660,1,4,0:0:0:0:
120,260,160660,102,0,P|103:220|104:178,1,83.3333333333333,4|2,0:0|0:0,0:0:0:0:
140,76,161410,2,0,P|206:40|278:47,1,150,2|8,0:0|0:0,0:0:0:0:
392,164,162660,1,2,0:0:0:0:
324,284,163076,2,0,P|396:352|486:298,1,216.666666666667,2|8,0:0|0:0,0:0:0:0:
392,164,164660,86,0,P|351:138|316:134,1,83.3333333333333,2|2,0:0|0:0,0:0:0:0:
215,86,165410,2,0,P|149:118|116:184,1,150,2|8,0:0|0:0,0:0:0:0:
188,332,166660,1,2,0:0:0:0:
50,340,167076,2,0,P|30:239|116:184,1,216.666666666667,2|2,0:0|0:0,0:0:0:0:
200,188,168410,1,8,0:0:0:0:
278,219,168660,54,0,P|322:203|346:175,1,83.3333333333333,4|8,0:0|0:0,0:0:0:0:
452,152,169410,2,0,P|404:84|341:66,1,150,2|2,0:0|1:2,0:0:0:0:
176,68,170660,1,0,0:0:0:0:
44,28,171076,2,0,P|12:134|88:184,1,216.666666666667,2|2,1:0|1:2,0:0:0:0:
164,220,172410,1,2,1:2:0:0:
180,301,172660,70,0,P|149:337|115:353,1,83.3333333333333,2|2,0:0|1:2,0:0:0:0:
22,300,173410,2,0,P|1:226|37:166,1,150,2|2,0:0|1:2,0:0:0:0:
180,80,174660,1,2,0:0:0:0:
256,192,175076,12,4,176660,0:0:0:0:
320,84,177410,5,2,1:2:0:0:
368,152,177660,2,0,P|355:233|305:277,1,150,4|2,0:0|0:0,0:0:0:0:
228,300,178660,85,4,0:0:0:0:
60,288,179160,1,2,0:0:0:0:
154,150,179660,2,0,L|168:48,1,100,2|2,0:0|0:0,0:0:0:0:
328,20,180660,6,0,L|314:119,1,100,2|2,0:0|0:0,0:0:0:0:
332,280,181660,1,2,0:0:0:0:
474,360,182160,1,2,0:0:0:0:
476,195,182660,102,0,P|439:150|400:128,1,100,2|2,0:0|0:0,0:0:0:0:
236,112,183660,2,0,P|266:151|308:177,1,100,2|2,0:0|0:0,0:0:0:0:
216,316,184660,5,2,0:0:0:0:
56,356,185160,1,2,0:0:0:0:
16,196,185660,2,0,P|21:159|31:138,2,50,2|0|2,0:0|0:0|0:0,0:0:0:0:
132,320,186660,101,4,0:0:0:0:
216,316,186910,1,0,0:0:0:0:
171,246,187160,1,0,1:0:0:0:
180,80,187660,2,0,P|220:43|264:32,1,100,2|0,0:0|1:0,0:0:0:0:
420,84,188660,5,2,0:0:0:0:
468,240,189160,1,0,1:0:0:0:
348,352,189660,2,0,L|296:364,2,50,2|0|0,0:0|0:0|1:0,0:0:0:0:
423,311,190410,1,2,0:0:0:0:
468,240,190660,101,4,0:0:0:0:
380,100,191160,1,0,1:0:0:0:
292,240,191660,1,2,0:0:0:0:
204,100,192160,1,0,1:0:0:0:
44,64,192660,5,2,0:0:0:0:
93,221,193160,1,2,0:0:0:0:
204,100,193660,6,0,L|252:80,1,50,4|2,1:0|0:0,0:0:0:0:
316,28,194160,2,0,L|364:47,1,50,4|2,3:0|1:0,0:0:0:0:
444,64,194660,54,0,L|484:159,1,100,4|2,0:0|0:0,0:0:0:0:
420,308,195660,2,0,L|328:348,1,100,4|2,0:0|0:0,0:0:0:0:
244,340,196410,1,0,1:0:0:0:
186,279,196660,6,0,L|175:249|170:221,2,50,4|0|2,0:0|1:0|0:0,0:0:0:0:
336,208,197660,2,0,P|367:160|372:116,1,100,4|4,0:0|0:0,0:0:0:0:
224,52,198660,69,4,0:0:0:0:
56,21,199160,1,2,0:0:0:0:
32,186,199660,1,4,0:0:0:0:
193,215,200160,1,2,0:0:0:0:
120,364,200660,6,0,P|67:354|32:320,2,100,4|2|4,0:0|0:0|0:0,0:0:0:0:
197,331,201910,1,0,1:0:0:0:
273,367,202160,1,2,1:2:0:0:
432,320,202660,6,0,L|459:278,1,50,2|4,0:0|0:0,0:0:0:0:
444,112,203410,1,0,1:0:0:0:
384,52,203660,2,0,P|336:23|290:20,2,100,4|2|4,0:0|0:0|0:0,0:0:0:0:
384,137,204910,5,0,1:0:0:0:
339,207,205160,1,2,0:0:0:0:
183,271,205660,2,0,P|137:247|112:205,1,100,4|2,0:0|0:0,0:0:0:0:
100,124,206410,1,2,1:2:0:0:
142,54,206660,69,4,0:0:0:0:
256,172,207160,1,2,0:0:0:0:
256,336,207660,1,4,0:0:0:0:
398,254,208160,1,2,0:0:0:0:
340,191,208410,1,0,1:0:0:0:
256,172,208660,5,4,0:0:0:0:
108,248,209160,1,2,0:0:0:0:
28,104,209660,2,0,P|16:80|12:56,2,50,4|0|2,0:0|1:0|0:0,0:0:0:0:
256,192,210660,12,2,212660,0:0:0:0:
340,296,213660,5,2,0:0:0:0:
172,296,214160,1,2,0:0:0:0:
256,192,214660,12,2,217660,0:0:0:0:
466,287,218660,6,0,P|393:333|328:323,1,150,4|8,0:0|0:0,0:0:0:0:
257,293,219660,2,0,L|176:280,1,83.3333333333333,2|2,0:0|0:0,0:0:0:0:
72,235,220410,1,8,0:0:0:0:
64,152,220660,70,0,P|91:72|148:48,1,150,4|8,0:0|0:0,0:0:0:0:
224,80,221660,2,0,B|274:84|314:32|366:40,1,150,2|8,0:0|0:0,0:0:0:0:
443,74,222660,6,0,P|447:147|395:198,1,150,4|8,0:0|0:0,0:0:0:0:
312,208,223660,2,0,L|220:224,1,83.3333333333333,2|2,0:0|0:0,0:0:0:0:
136,161,224410,1,8,0:0:0:0:
83,224,224660,6,0,P|93:303|147:352,1,150,4|8,0:0|0:0,0:0:0:0:
224,356,225660,2,0,B|274:360|314:308|366:316,1,150,4|8,0:0|0:0,0:0:0:0:
448,320,226660,6,0,L|480:240,1,83.3333333333333,4|2,0:0|0:0,0:0:0:0:
464,132,227410,1,8,0:0:0:0:
392,88,227660,2,0,P|346:72|312:72,1,83.3333333333333,2|2,0:0|0:0,0:0:0:0:
208,116,228410,1,8,0:0:0:0:
168,190,228660,70,0,P|157:217|153:238,1,50,4|8,0:0|0:0,0:0:0:0:
212,298,229160,2,0,P|240:294|261:286,1,50,2|8,0:0|0:0,0:0:0:0:
326,234,229660,5,4,0:0:0:0:
267,175,229910,1,4,1:2:0:0:
208,116,230160,1,4,1:2:0:0:
