osu file format v13

[General]
AudioFilename: White Prism.mp3
AudioLeadIn: 0
PreviewTime: 67114
Countdown: 0
SampleSet: Soft
StackLeniency: 0.6
Mode: 0
LetterboxInBreaks: 0
WidescreenStoryboard: 1

[Editor]
Bookmarks: 6079,45149,90312
DistanceSpacing: 1.2
BeatDivisor: 4
GridSize: 4
TimelineZoom: 1

[Metadata]
Title:White Prism
TitleUnicode:White Prism
Artist:Chouchou-P feat. Hatsune Miku
ArtistUnicode:蝶々P feat. 初音ミク
Creator:Lach
Version:fuccGGCG
Source:
Tags:papiyon CHAN×CO Fictional World Vocaloid ampzz
BeatmapID:339986
BeatmapSetID:132780

[Difficulty]
HPDrainRate:2
CircleSize:3
OverallDifficulty:3
ApproachRate:4
SliderMultiplier:0.8
SliderTickRate:1

[Events]
//Background and Video events
0,0,"BG.jpg",0,0
//Break Periods
2,23023,32666
2,36977,43829
2,78837,88480
2,100813,110805
//Storyboard Layer 0 (Background)
//Storyboard Layer 1 (Fail)
//Storyboard Layer 2 (Pass)
//Storyboard Layer 3 (Foreground)
//Storyboard Sound Samples
//Background Colour Transformations
3,100,0,0,0

[TimingPoints]
498,348.837209302326,4,2,0,80,1,0
10963,-100,4,2,0,100,0,0
11050,-100,4,2,0,80,0,0
67474,-100,4,1,0,80,0,1
78637,-100,4,2,0,80,0,0
117707,-100,4,1,0,80,0,1
128870,-100,4,2,0,80,0,0

[Colours]
Combo1 : 255,0,0
Combo2 : 128,128,192
Combo3 : 18,124,255
Combo4 : 192,192,192
Combo5 : 95,95,95

[HitObjects]
358,125,6079,6,0,L|382:0,2,120
289,192,7474,1,0,0:0:0:0:
98,172,8172,6,0,P|78:128|129:23,2,160,0|0|0,0:0|1:0|1:0,0:0:0:0:
154,249,9916,1,8,1:0:0:0:
90,320,10265,2,0,L|-3:331,2,80,4|0|8,1:2|1:0|1:0,0:0:0:0:
273,377,11660,6,0,P|318:334|417:321,1,160,4|0,1:0|0:0,0:0:0:0:
498,361,12707,1,0,1:0:0:0:
485,265,13056,2,0,P|499:192|491:133,2,120,2|2|4,0:0|0:0|1:2,0:0:0:0:
392,237,14451,6,0,B|303:227|326:268|230:257,1,160,4|0,1:0|0:0,0:0:0:0:
256,163,15498,1,0,1:0:0:0:
178,106,15846,2,0,L|86:90,1,80,2|4,0:0|1:2,0:0:0:0:
117,186,16544,2,0,L|25:170,1,80,2|4,0:0|1:2,0:0:0:0:
19,266,17242,6,0,P|51:336|200:359,1,240,4|0,1:0|1:0,0:0:0:0:
285,316,18637,2,0,P|345:305|409:338,2,120,2|2|4,0:0|0:0|1:2,0:0:0:0:
206,261,20032,5,4,1:0:0:0:
170,171,20381,1,0,0:0:0:0:
74,176,20730,2,0,P|62:122|70:83,1,80
155,64,21428,2,0,L|249:46,1,80,2|4,0:0|1:2,0:0:0:0:
280,132,22125,2,0,L|257:228,1,80,2|4,0:0|1:2,0:0:0:0:
352,239,22823,5,4,1:0:0:0:
256,192,33986,12,0,36777,0:0:0:0:
39,109,45149,5,0,0:0:0:0:
365,163,45846,2,0,L|407:149,2,40
274,148,46544,2,0,P|266:192|280:312,1,160
369,335,47591,1,0,0:0:0:0:
461,308,47939,5,0,0:0:0:0:
372,137,48637,2,0,L|382:93,2,40
276,128,49335,2,0,P|201:102|54:184,1,240
60,264,50730,5,0,0:0:0:0:
33,73,51428,2,0,L|18:26,2,40
120,112,52125,2,0,L|279:89,1,160
351,151,53172,1,0,0:0:0:0:
443,176,53521,6,0,P|445:136|465:55,2,120
471,267,54916,2,0,L|393:286,1,80
313,54,56311,6,0,L|138:37,2,160
283,145,58056,1,0,0:0:0:0:
375,119,58404,2,0,L|466:112,1,80
433,206,59102,6,0,L|420:251,2,40
336,211,59800,2,0,L|310:300,1,80
236,230,60498,2,0,L|192:386,1,160
106,341,61544,1,0,0:0:0:0:
127,247,61893,6,0,L|102:78,2,160
220,268,63637,2,0,L|212:319,2,40
291,203,64335,1,0,0:0:0:0:
377,244,64684,6,0,P|439:243|465:232,1,80
405,155,65381,2,0,P|436:115|442:73,1,80
345,82,66079,1,0,0:0:0:0:
250,64,66428,1,0,0:0:0:0:
282,154,66777,1,0,0:0:0:0:
95,191,67474,6,2,L|61:107,1,80,4|2,0:0|0:0,0:0:0:0:
160,127,68172,2,2,L|189:48,1,80,0|2,0:0|0:0,0:0:0:0:
249,125,68870,2,2,L|417:98,1,160,2|2,0:0|0:0,0:0:0:0:
320,271,70265,6,2,P|321:321|328:360,1,80,0|2,0:0|0:0,0:0:0:0:
414,313,70963,2,2,P|413:263|406:224,1,80,0|2,0:0|0:0,0:0:0:0:
419,138,71660,2,0,P|351:124|233:245,1,240,6|2,1:2|1:2,0:0:0:0:
234,326,73056,5,4,1:0:0:0:
139,344,73404,2,2,L|93:353,2,40,0|0|2,0:0|0:0|0:0,0:0:0:0:
80,267,74102,2,2,L|26:253,2,40,0|0|2,0:0|0:0|0:0,0:0:0:0:
132,186,74800,1,0,0:0:0:0:
98,96,75149,1,2,0:0:0:0:
276,165,75846,5,4,0:0:0:0:
324,82,76195,1,2,0:0:0:0:
416,54,76544,1,0,0:0:0:0:
504,92,76893,1,2,0:0:0:0:
256,192,77242,12,0,78637,0:0:0:0:
88,195,89800,6,0,P|84:133|76:70,2,120
42,279,91195,1,0,0:0:0:0:
136,295,91544,2,0,L|226:281,1,80
295,336,92242,1,0,0:0:0:0:
389,320,92591,6,0,L|404:247,2,60,0|0|0,0:0|0:0|0:0,0:0:0:0:
510,113,93986,2,0,P|453:50|295:69,1,240
211,59,95381,6,0,P|126:69|85:72,2,120
287,117,96777,1,0,0:0:0:0:
217,182,97125,2,0,L|200:271,1,80
254,341,97823,1,0,0:0:0:0:
158,347,98172,6,0,P|113:347|38:382,1,120
28,136,99567,2,0,P|93:156|240:74,1,240
75,186,112125,6,0,L|55:102,2,80,4|0|0,1:0|1:0|0:0,0:0:0:0:
151,308,113346,2,2,P|229:299|328:375,1,200,0|2,0:0|0:0,0:0:0:0:
415,197,114916,6,0,P|415:146|431:110,1,80,4|0,1:0|1:0,0:0:0:0:
507,170,115614,1,0,0:0:0:0:
470,30,116137,2,2,P|424:69|280:55,1,200,4|2,1:0|0:0,0:0:0:0:
290,254,117707,6,2,L|319:339,1,80,4|2,0:0|0:0,0:0:0:0:
225,362,118404,2,2,L|136:344,1,80,0|2,0:0|0:0,0:0:0:0:
167,252,119102,2,2,L|271:113,1,160
457,113,120498,6,2,P|487:139|510:187,1,80,0|2,0:0|0:0,0:0:0:0:
415,205,121195,2,2,P|425:246|422:296,1,80,0|2,0:0|0:0,0:0:0:0:
330,262,121893,2,0,P|304:309|130:379,1,240,6|2,0:2|1:2,0:0:0:0:
61,325,123288,5,4,0:0:0:0:
30,233,123637,2,2,L|17:188,2,40,0|0|2,0:0|0:0|0:0,0:0:0:0:
112,182,124335,2,2,L|125:137,2,40,0|0|2,0:0|0:0|0:0,0:0:0:0:
45,112,125032,1,0,0:0:0:0:
104,36,125381,1,2,0:0:0:0:
288,89,126079,5,4,0:0:0:0:
316,180,126428,1,2,0:0:0:0:
265,261,126777,1,0,0:0:0:0:
169,261,127125,1,2,0:0:0:0:
256,192,127474,12,0,128870,0:0:0:0:
