osu file format v9

[General]
AudioFilename: Chouco - When the First Love Ends.mp3
AudioLeadIn: 0
PreviewTime: 89580
Countdown: 0
SampleSet: Soft
StackLeniency: 0.4
Mode: 0
LetterboxInBreaks: 1

[Editor]
Bookmarks: 24577
DistanceSpacing: 1
BeatDivisor: 4
GridSize: 8

[Metadata]
Title:When the First Love Ends (Short ver.)
Artist:Choucho
Creator:l3lueskyiiz
Version:Normal
Source:Supercell
Tags:hatsune miku termerys net45291

[Difficulty]
HPDrainRate:4
CircleSize:3
OverallDifficulty:4
ApproachRate:4
SliderMultiplier:0.9
SliderTickRate:2

[Events]
//Background and Video events
0,0,"192988.jpg"
//Break Periods
//Storyboard Layer 0 (Background)
//Storyboard Layer 1 (Fail)
//Storyboard Layer 2 (Pass)
//Storyboard Layer 3 (Foreground)
//Storyboard Sound Samples
//Background Colour Transformations
3,100,192,192,192

[TimingPoints]
24270,333.333333333333,4,2,1,60,1,0
42603,-100,4,2,2,60,0,0
42686,-100,4,2,1,60,0,0
43270,-100,4,2,2,60,0,0
43353,-100,4,2,1,60,0,0
47270,-100,4,2,2,60,0,0
47353,-100,4,2,1,60,0,0
48603,-100,4,2,2,60,0,0
48686,-100,4,2,1,60,0,0
49936,-100,4,2,2,60,0,0
50020,-100,4,2,1,60,0,0
51270,-100,4,2,2,60,0,0
51353,-100,4,2,1,60,0,0
53186,-100,4,2,2,60,0,0
53353,-100,4,2,1,60,0,0
58520,-100,4,2,2,60,0,0
58686,-100,4,2,1,60,0,0
61186,-100,4,2,2,60,0,0
61353,-100,4,2,1,60,0,0
66519,-100,4,2,2,60,0,0
66686,-100,4,2,1,60,0,0
66826,-100,4,1,0,25,0,0
66993,-100,4,1,0,30,0,0
67186,-100,4,1,0,36,0,0
67353,-100,4,1,0,41,0,0
67519,-100,4,1,0,46,0,0
67686,-100,4,1,0,50,0,0
67853,-100,4,1,0,55,0,0
68019,-100,4,1,0,60,0,0
68186,-100,4,2,1,60,0,0
77519,-100,4,1,1,60,0,0
78686,-100,4,2,1,60,0,0
79186,-100,4,2,2,60,0,0
79353,-100,4,2,1,60,0,0
88186,-100,4,1,0,24,0,0
88353,-100,4,1,0,24,0,0
88519,-100,4,1,0,31,0,0
88686,-100,4,1,0,35,0,0
88853,-100,4,1,0,40,0,0
89019,-100,4,1,0,45,0,0
89186,-100,4,1,0,51,0,0
89353,-100,4,1,0,55,0,0
89519,-100,4,1,0,60,0,0
89603,-100,4,2,1,60,0,1
92519,-100,4,2,2,60,0,1
92686,-100,4,2,1,60,0,1
95186,-100,4,2,2,60,0,1
95353,-100,4,2,1,60,0,1
96519,-100,4,2,2,60,0,1
96686,-100,4,2,1,60,0,1
99436,-100,4,2,1,60,0,0
100269,-100,4,2,1,60,0,1
102519,-100,4,2,2,60,0,1
102686,-100,4,2,1,60,0,1
103186,-100,4,2,2,60,0,1
103353,-100,4,2,1,60,0,1
105853,-100,4,2,2,60,0,1
106019,-100,4,2,1,60,0,1
107186,-100,4,2,2,60,0,1
107353,-100,4,2,1,60,0,1
109853,-100,4,2,2,60,0,1
110019,-100,4,2,1,60,0,1
110519,-100,4,2,2,60,0,1
110686,-100,4,2,1,60,0,1
112519,-100,4,2,2,60,0,1
112686,-100,4,2,1,60,0,1
113853,-100,4,2,2,60,0,1
114019,-100,4,2,1,60,0,1
115603,-117.647058823529,4,2,1,60,0,1
116269,-100,4,2,1,60,0,0
118853,-100,4,2,1,0,0,0
119019,-100,4,2,1,59,0,0

[Colours]
Combo1 : 117,203,39
Combo2 : 48,196,252
Combo3 : 106,87,181

[HitObjects]
176,104,24603,1,0
176,104,24936,2,0,B|176:288,2,180
256,56,26603,1,0
336,104,26936,2,0,B|336:288,2,180
448,240,28936,2,0,B|448:328,2,90
448,240,29936,1,0
360,256,30269,6,0,B|360:144|488:144,2,180
256,288,31936,1,0
152,256,32269,2,0,B|152:144|24:144,2,180
152,256,33936,1,0
152,344,34269,2,0,B|96:344,1,45
256,336,34936,1,4
256,152,35603,6,0,B|256:96,2,45,8|8|8
256,240,36269,1,4
256,192,36353,12,0,38936
256,192,39603,5,0
184,144,39936,1,8
104,192,40270,2,0,B|48:320,1,135,2|2
49,315,41103,1,2
184,320,41603,1,4
360,280,42270,6,0,B|400:184|352:88,2,180,0|0|0
288,232,43936,1,8
256,152,44270,1,4
256,328,44936,1,4
256,152,45603,1,4
208,80,45936,1,0
296,80,46270,2,0,B|384:104,1,90,4|0
400,192,46936,6,0,B|360:280|256:288,1,180,4|0
288,200,47936,1,8
256,120,48270,2,0,B|200:64|128:96,2,135,0|0|8
176,168,49603,2,0,B|112:352,1,180
208,320,50603,1,8
296,344,50936,2,0,B|392:336|448:240,1,180
360,216,51936,5,8
360,216,52270,2,0,B|328:120,1,90,4|8
256,72,52936,2,0,B|160:72|96:160,1,180
176,208,53936,2,0,B|176:296,2,90,8|0|8
176,208,54936,1,0
264,304,55436,2,0,B|416:304,1,135,0|8
352,224,56270,1,0
304,144,56603,1,8
392,144,56936,2,0,B|480:144,2,90,0|8|4
232,160,58270,6,0,B|144:160|64:240,1,180
71,232,59270,1,8
120,312,59603,2,0,B|216:312,3,90,0|8|0|8
240,224,60936,2,0,B|344:240|360:344,1,180
448,320,61936,1,8
424,232,62270,1,0
360,168,62603,1,8
360,168,62936,1,4
184,200,63603,6,0,B|112:280,2,90,0|8|0
104,160,64603,1,8
24,112,64936,2,0,B|88:32,2,90,0|8|0
104,160,65936,1,8
104,160,66270,2,0,B|48:240|104:344,1,180
97,331,67270,2,0,B|201:331,3,90,0|0|0|4
304,248,68770,6,0,B|408:248,2,90
408,168,69936,1,0
344,104,70270,1,0
264,152,70603,1,0
184,192,70936,2,0,B|192:296|280:336,2,180,0|0|0
272,192,72603,2,0,B|368:192,1,90
360,280,73270,2,0,B|456:280,1,90,0|4
448,280,74270,5,0
448,192,74603,1,0
448,192,74936,2,0,B|408:128|320:120,2,135
352,224,76270,2,0,B|352:328|168:328|168:224,1,270
256,192,77603,2,0,B|256:136,6,45,4|0|0|4|0|0|4
168,80,78936,6,0,B|56:96|32:208,1,180,4|0
112,232,79936,1,8
32,280,80269,2,0,B|32:368,2,90,0|8|0
120,312,81269,1,8
200,336,81603,2,0,B|304:336|368:264,1,180,4|4
362,270,82603,1,0
344,184,82936,2,0,B|456:184|456:312,2,180,4|0|4
176,184,84936,6,0,B|64:184|64:312,2,180,4|4|4
256,344,86936,2,0,B|256:144,2,180,4|4|0
256,344,88603,1,0
256,344,88936,1,0
256,344,89269,1,0
256,344,89603,5,4
344,320,89936,2,0,B|424:272|448:168,1,180,8|8
376,120,90936,1,0
328,192,91269,2,0,B|224:192,2,90,8|0|8
376,120,92269,2,0,B|304:56|200:72,1,180
120,72,93269,1,8
120,72,93436,2,0,B|32:72,3,90,2|2|2|2
48,248,94936,6,0,B|80:344|184:352,1,180,4|0
256,304,95936,1,8
331,351,96269,2,0,B|432:344|464:248,1,180
463,248,97269,1,8
376,224,97603,2,0,B|376:128,2,90,0|8|0
288,224,98603,2,0,B|192:200|160:96,1,180,8|2
88,64,99603,1,2
32,136,99936,1,2
88,208,100269,5,4
176,208,100603,1,8
248,264,100936,2,0,B|184:344,1,90,0|8
280,336,101603,2,0,B|344:264,1,90,0|8
320,184,102269,2,0,B|432:184|432:312,2,180
256,128,103936,1,8
256,128,104103,2,0,B|256:40,3,90,2|2|2|2
256,200,105603,6,0,B|240:304|128:328,1,180,4|0
64,280,106603,1,8
136,224,106936,2,0,B|32:208|8:96,1,180,0|0
80,56,107936,1,8
160,104,108269,2,0,B|264:104,2,90,0|8|0
160,104,109269,1,8
160,192,109603,2,0,B|200:272|336:256,2,180,0|0|4
216,120,111269,6,0,B|216:24,2,90,8|0|8
296,168,112269,2,0,B|384:168|384:256,1,135,4|0
256,304,113269,1,8
168,280,113603,2,0,B|80:280|80:368,2,135,4|0|8
144,168,114936,1,0
192,88,115269,1,8
232,168,115603,2,0,B|392:168,1,152.999993616343,0|4
256,192,116353,12,0,118936
