osu file format v9

[General]
AudioFilename: Chouco - When the First Love Ends.mp3
AudioLeadIn: 0
PreviewTime: 89580
Countdown: 0
SampleSet: Soft
StackLeniency: 0.4
Mode: 0
LetterboxInBreaks: 1

[Editor]
DistanceSpacing: 2
BeatDivisor: 4
GridSize: 8

[Metadata]
Title:When the First Love Ends (Short ver.)
Artist:Choucho
Creator:l3lueskyiiz
Version:Insane
Source:Supercell
Tags:hatsune miku termerys net45291

[Difficulty]
HPDrainRate:7
CircleSize:5
OverallDifficulty:8
ApproachRate:8
SliderMultiplier:1.4
SliderTickRate:2

[Events]
//Background and Video events
0,0,"192988.jpg"
//Break Periods
//Storyboard Layer 0 (Background)
//Storyboard Layer 1 (Fail)
//Storyboard Layer 2 (Pass)
//Storyboard Layer 3 (Foreground)
//Storyboard Sound Samples
//Background Colour Transformations
3,100,192,192,192

[TimingPoints]
24270,333.333333333333,4,2,1,50,1,0
66826,-100,4,1,0,25,0,0
66993,-100,4,1,0,30,0,0
67160,-100,4,1,0,36,0,0
67326,-100,4,1,0,41,0,0
67493,-100,4,1,0,46,0,0
67660,-100,4,1,0,50,0,0
67826,-100,4,1,0,55,0,0
67993,-100,4,1,0,60,0,0
68160,-100,4,2,1,60,0,0
77493,-100,4,1,1,60,0,0
78660,-100,4,2,1,60,0,0
88160,-100,4,1,0,24,0,0
88326,-100,4,1,0,24,0,0
88493,-100,4,1,0,31,0,0
88660,-100,4,1,0,35,0,0
88826,-100,4,1,0,40,0,0
88993,-100,4,1,0,50,0,0
89326,-100,4,1,0,55,0,0
89493,-100,4,1,0,60,0,0
89577,-100,4,2,1,60,0,1
90576,-100,4,2,2,60,0,1
90660,-100,4,2,1,60,0,1
91243,-100,4,2,2,60,0,1
91326,-100,4,2,1,60,0,1
99410,-100,4,2,1,60,0,0
100243,-100,4,2,1,60,0,1
115160,-100,4,1,0,60,0,1
116244,-100,4,2,1,60,0,0
118910,-100,4,2,1,0,0,0
118993,-100,4,2,1,59,0,0

[Colours]
Combo1 : 117,203,39
Combo2 : 48,196,252
Combo3 : 106,87,181

[HitObjects]
40,248,24603,6,0,B|56:328|152:344,1,140
133,341,25103,1,0
160,280,25269,1,0
176,152,25603,2,0,B|176:64|272:64,1,140,2|0
352,152,26269,2,0,B|352:240|256:240,1,140,2|0
176,153,26936,2,0,B|80:152,2,70,2|0|0
248,152,27436,1,0
248,224,27603,2,0,B|192:272|304:320|224:376,2,140,2|0|2
384,248,28603,6,0,B|384:328,2,70,0|0|2
384,120,29269,1,0
384,248,29603,1,2
496,184,29936,2,0,B|496:256,1,70
440,288,30269,2,0,B|440:360,1,70,2|0
328,296,30769,1,0
328,296,30936,2,0,B|323:216|241:167,1,140,2|0
259,179,31436,2,0,B|195:220|192:295,1,140
256,320,31936,5,0
256,177,32269,2,0,B|256:25,1,140,2|0
256,40,32769,1,0
136,112,33103,1,0
136,256,33436,1,0
256,320,33769,1,0
376,256,34103,1,0
376,112,34436,1,0
376,112,34936,5,4
376,112,35103,1,4
256,192,35603,1,8
256,192,35686,1,8
256,192,35769,1,8
256,192,35936,2,0,B|256:336,1,140,8|4
256,192,36353,12,0,38936
200,176,39270,5,8
256,136,39436,1,0
312,176,39603,1,0
256,304,39936,1,8
256,304,40020,1,0
256,304,40103,1,0
256,304,40186,1,0
256,304,40270,2,0,B|256:208,1,70,2|0
104,88,40770,5,2
384,88,41103,1,2
256,304,41603,5,4
344,192,41936,2,0,B|344:280,1,70,8|0
384,320,42270,2,0,B|480:320|480:208,1,140,0|8
480,168,42770,1,0
456,104,42936,1,0
392,72,43103,1,0
320,72,43270,2,0,B|240:72,2,70,8|0|0
256,192,43936,5,8
256,264,44103,1,0
256,272,44186,1,0
256,280,44270,1,4
456,336,44770,2,0,B|456:256,1,70,0|4
56,336,45436,2,0,B|56:256,1,70,0|4
104,216,45770,1,0
176,216,45936,1,8
184,216,46020,1,8
192,216,46103,1,8
256,88,46270,5,4
304,216,46436,1,0
184,136,46603,1,8
112,136,46770,5,0
64,80,46936,2,0,B|8:152|80:232,1,140,4|8
104,280,47436,2,0,B|16:280,1,70
72,360,47770,2,0,B|168:360,2,70,0|8|0
208,280,48270,2,0,B|208:232|312:232|312:288,1,140,0|8
256,328,48770,1,0
392,352,49103,1,0
408,280,49270,1,8
464,328,49436,1,0
392,352,49603,2,0,B|312:336|312:232,1,140,0|8
208,152,50103,5,0
304,256,50270,1,0
216,144,50436,1,0
216,248,50603,2,0,B|168:248|152:296,1,70,8|0
312,152,50936,2,0,B|360:152|376:104,1,70
312,80,51270,5,8
264,32,51436,2,0,B|176:32|120:96,1,140
160,216,51936,1,8
135,79,52103,1,0
32,168,52270,6,0,B|24:256|80:320,1,140,4|8
136,288,52770,1,0
120,360,52936,2,0,B|216:360|216:264,1,140,0|8
215,279,53436,1,0
304,216,53603,5,0
304,216,53770,1,0
376,208,53936,1,8
416,264,54103,1,0
344,272,54270,2,0,B|304:344,2,70,0|0|8
408,144,54770,5,0
408,144,54936,2,0,B|368:80|272:72,1,140,0|8
256,136,55436,1,0
224,72,55603,2,0,B|147:77|107:141,1,140,0|8
128,280,56103,5,0
128,280,56270,2,0,B|160:360,1,70
256,312,56603,2,0,B|256:216,1,70,8|0
384,280,56936,2,0,B|352:360,1,70
256,312,57270,1,8
256,312,57353,1,8
256,312,57436,1,8
256,176,57603,5,4
256,176,57770,2,0,B|256:96,1,70,0|8
168,56,58103,1,0
72,104,58270,5,0
168,56,58436,1,0
256,104,58603,1,8
344,104,58770,5,0
344,104,58936,2,0,B|432:104|432:208,1,140,0|8
360,176,59436,2,0,B|360:264,1,70
360,246,59770,1,0
416,296,59936,1,8
304,296,60103,1,0
304,296,60270,2,0,B|256:360|160:360,1,140,0|8
112,360,60770,2,0,B|16:360,1,70
72,296,61103,5,0
72,296,61270,2,0,B|-16:296,1,70,8|0
0,224,61603,1,0
112,160,61936,1,8
112,160,62103,2,0,B|112:112|216:112|216:168,1,140
166,212,62603,2,0,B|166:268,2,35,8|8|8
256,320,62936,6,0,B|336:312|376:216,1,140,4|8
296,216,63436,1,0
328,152,63603,1,0
400,152,63770,1,0
432,216,63936,2,0,B|512:216,1,70,8|0
464,80,64270,6,0,B|368:80,1,70
432,216,64603,2,0,B|352:216,2,70,8|0|0
344,320,65103,1,0
432,216,65270,1,8
344,104,65436,5,0
344,104,65603,2,0,B|272:56|192:112,1,140,0|8
152,128,66103,1,0
88,96,66270,2,0,B|88:240,1,140,0|8
256,288,66936,5,0
224,224,67103,1,0
256,160,67270,1,0
288,224,67436,1,0
184,296,67603,5,0
184,160,67770,1,0
328,160,67936,1,0
328,296,68103,1,0
256,224,68270,5,4
216,16,68603,1,2
216,16,68770,2,0,B|136:32|96:112,2,140
216,16,69603,1,0
360,16,69936,2,0,B|440:16,2,70,2|0|0
288,16,70436,1,0
288,16,70603,2,0,B|288:104|392:104,1,140,2|0
488,192,71270,1,2
488,192,71436,1,0
488,192,71603,2,0,B|488:96|376:96,1,140,0|2
192,280,72270,5,0
328,280,72603,1,2
368,144,72936,1,0
256,56,73270,1,2
144,144,73603,1,4
256,320,74103,5,0
256,320,74270,1,0
256,320,74603,1,2
112,320,74936,2,0,B|112:224|208:224,1,140,0|2
256,192,75436,1,0
320,224,75603,2,0,B|408:224|408:320,1,140,0|2
288,56,76270,2,0,B|288:144,2,70,0|0|2
224,88,76770,1,0
224,88,76936,2,0,B|224:168,2,70,0|0|2
256,224,77603,5,4
256,224,77770,1,0
256,224,77853,1,0
256,224,77936,1,0
176,272,78103,1,4
256,320,78270,1,0
256,320,78353,1,0
256,320,78436,1,0
336,280,78603,1,4
392,160,78936,6,0,B|376:80|280:48,1,140,4|8
256,112,79436,1,0
207,57,79603,2,0,B|136:80|120:160,1,140,0|8
96,224,80103,1,0
144,280,80269,2,0,B|144:368,2,70,0|0|8
192,224,80769,1,0
224,288,80936,1,0
224,288,81103,2,0,B|320:288,1,70,0|8
280,360,81436,2,0,B|368:360,1,70,0|4
464,280,81936,5,0
408,192,82103,1,0
464,104,82269,1,4
464,72,82603,5,0
376,192,82769,1,0
464,312,82936,1,4
256,360,83269,1,0
56,312,83603,1,0
256,360,83936,1,0
128,192,84269,6,0,B|192:248|272:192,1,140,4|0
264,64,84936,2,0,B|208:128|264:208,1,140,4|0
392,208,85603,6,0,B|328:152|248:208,1,140,4|0
256,336,86269,2,0,B|312:272|256:192,1,140,4|0
168,104,86936,6,0,B|173:188|269:205,1,140,4|0
360,120,87603,2,0,B|275:125|258:221,1,140,4|0
246,309,88269,5,0
288,280,88436,1,0
266,240,88603,1,0
226,262,88769,1,0
175,322,88936,5,0
306,360,89103,1,0
346,221,89269,1,0
207,182,89436,1,0
306,360,89603,5,4
376,360,89769,2,0,B|464:360,1,70,0|8
408,296,90103,1,0
448,240,90269,1,0
448,160,90436,2,0,B|496:88|432:8,1,140
400,80,90936,1,0
352,32,91103,2,0,B|302:91|350:163,1,140
448,160,91603,5,0
352,160,91769,1,0
400,232,91936,1,8
352,160,92103,1,0
248,256,92269,6,0,B|160:232|128:144,1,140,0|8
136,104,92769,2,0,B|56:104,2,70
208,104,93269,1,8
208,104,93436,5,2
256,232,93769,1,2
304,104,94103,1,2
184,184,94436,1,2
328,184,94769,1,0
400,184,94936,6,0,B|400:256|336:312,1,140,4|8
280,272,95436,1,0
280,344,95603,2,0,B|200:344,2,70,0|0|8
136,344,96103,5,0
280,272,96269,1,0
136,344,96436,1,0
168,208,96603,6,0,B|88:184|64:80,2,140,8|0|8
200,144,97436,1,0
232,208,97603,2,0,B|312:184|336:80,1,140,0|8
288,56,98103,1,0
360,40,98269,1,0
392,104,98436,1,0
392,104,98603,2,0,B|480:104,2,70,8|0|0
392,176,99103,1,0
152,200,99436,5,2
256,296,99603,1,2
360,200,99769,1,2
256,296,100269,6,0,B|256:144,1,140,4|8
256,88,100769,1,0
128,112,100936,2,0,B|136:160|200:160,1,70,0|0
104,232,101269,2,0,B|96:184|32:184,1,70,8|0
128,112,101603,1,0
104,232,101769,1,0
160,280,101936,5,8
96,312,102103,2,0,B|144:376|224:376,1,140
256,232,102603,5,8
304,376,102769,1,0
352,232,102936,2,0,B|440:232,2,70,0|0|8
256,232,103436,5,0
208,184,103603,1,0
200,104,103769,2,0,B|128:128|112:216,1,140,2|2
312,104,104436,2,0,B|384:128|400:216,1,140,2|2
336,240,104936,5,0
256,232,105103,1,2
256,160,105269,1,8
256,160,105353,1,8
256,160,105436,1,8
256,88,105603,6,0,B|256:16,2,70,4|0|8
104,328,106269,1,0
384,328,106603,1,8
256,160,106936,5,0
168,288,107269,1,8
328,288,107603,1,0
256,240,107936,5,8
256,240,108269,1,0
368,152,108603,5,8
392,216,108769,1,0
368,152,108936,2,0,B|424:96|400:8,2,140,0|8|0
144,152,109936,5,8
120,216,110103,1,0
144,152,110269,2,0,B|88:96|112:8,2,140,0|8|4
208,32,111269,5,8
256,80,111436,1,0
304,32,111603,1,0
328,96,111769,2,0,B|328:168,1,70,0|8
256,176,112103,1,0
317,217,112269,2,0,B|296:264|216:264|200:216,1,140,4|8
168,280,112769,2,0,B|224:336|312:336|376:264,1,210,0|8
408,232,113436,1,0
424,168,113603,1,4
328,64,113936,5,8
328,64,114103,2,0,B|304:152,1,70
256,176,114436,1,0
200,128,114603,2,0,B|168:32,1,70,8|0
104,64,114936,1,0
72,128,115103,1,0
64,200,115269,5,0
64,208,115353,1,0
64,216,115436,1,0
64,224,115519,1,0
64,232,115603,1,0
64,304,115769,1,0
160,352,115936,1,0
160,352,116019,1,0
160,352,116103,1,0
256,312,116269,1,4
256,192,116353,12,0,118936
