osu file format v9

[General]
AudioFilename: Kawaru Mirai (Full Ver.).mp3
AudioLeadIn: 1996
PreviewTime: 51448
Countdown: 0
SampleSet: Normal
StackLeniency: 0.7
Mode: 1
LetterboxInBreaks: 0
EpilepsyWarning: 1

[Editor]
Bookmarks: 17856,40851,52169,89717,112712,124030,147205,175949,198765,234785
DistanceSpacing: 0
BeatDivisor: 4
GridSize: 32

[Metadata]
Title:Kawaru Mirai
Artist:Choucho
Creator:bossandy
Version:Taiko Collab
Source:Kamisama no Memo Chou
Tags:12BARRY21 Sorda S_o_r_d_a yongtw123 spboxer3 KDS

[Difficulty]
HPDrainRate:5
CircleSize:4
OverallDifficulty:4
ApproachRate:7
SliderMultiplier:1.4
SliderTickRate:1

[Events]
//Background and Video events
0,0,"Taiko BG.png"
//Break Periods
//Storyboard Layer 0 (Background)
//Storyboard Layer 1 (Fail)
//Storyboard Layer 2 (Pass)
//Storyboard Layer 3 (Foreground)
Sprite,Foreground,Centre,"Taiko BG.png",320,240 M,0,-2174,,317,373 F,0,-2174,,1 S,0,-2174,,0.6319998 F,0,245744,,1
Sprite,Foreground,Centre,"SB\Black.png",320,240 M,0,-2084,,324,-134 S,0,-2084,,1.18432 M,0,245744,,324,-134
Sprite,Foreground,Centre,"SB\spboxer3.png",320,240 M,0,610,,419,403 S,0,610,,0.9200003 F,0,610,969,0,1 F,0,17497,17856,1,0 F,0,52169,52708,0,1 F,0,89178,89717,0.9777365,0 F,0,112712,113251,0.007255916,1 F,0,123671,124030,0.9760563,0 F,0,198765,199304,0,1 F,0,233438,235234,1,0
Sprite,Foreground,Centre,"SB\KDS.png",320,240 M,0,40851,,422,403 S,0,40851,,0.9839999 F,0,40851,41570,0,1 F,0,51810,52169,0.9888734,0.01749593 F,0,89717,90435,0.05784496,1 F,0,111993,112712,0.9750683,0 F,0,147205,147924,0.005424558,1 F,0,175231,175949,1,0
Sprite,Foreground,Centre,"SB\yongtw123.png",320,240 M,0,17856,,423,403 S,0,17856,,0.8559998 F,0,17856,18575,0,1 F,0,40492,40851,0.9930459,0 F,0,124030,124569,0.0553229,1 F,0,146846,147205,1,0 F,0,175949,176668,0,1 F,0,198226,198765,1,0
//Storyboard Sound Samples
//Background Colour Transformations
3,100,163,162,255

[TimingPoints]
608,359.281437125748,4,1,0,60,1,0
52164,-100,4,1,0,60,0,1
83961,-100,4,1,0,60,0,0
124021,-100,4,1,0,60,0,1
147194,-100,4,1,0,60,0,0
198751,-100,4,1,0,60,0,1
233422,-100,4,1,0,60,0,0

[Colours]
Combo1 : 0,128,255
Combo2 : 166,0,0

[HitObjects]
256,192,608,1,0
256,192,1146,5,8
256,192,1685,5,0
256,192,2045,5,8
256,192,2404,1,8
256,192,2584,5,0
256,192,2943,1,0
256,192,3122,5,8
256,192,3482,1,8
256,192,3661,5,0
256,192,4021,5,8
256,192,4380,5,0
256,192,4739,5,8
256,192,4919,12,0,5997
256,192,6356,5,0
256,192,6536,1,0
256,192,6715,5,8
256,192,6895,5,0
256,192,6985,1,0
256,192,7075,5,8
256,192,7254,5,0
256,192,7434,5,8
256,192,7613,5,0
256,192,7703,1,0
256,192,7793,5,8
256,192,7973,5,0
256,192,8152,5,8
256,192,8332,5,0
256,192,8422,1,0
256,192,8512,5,8
256,192,8691,5,0
256,192,8871,5,8
256,192,8961,5,0
256,192,9051,1,0
256,192,9230,1,0
256,192,9410,1,0
256,192,9590,5,8
256,192,9769,5,0
256,192,9859,1,0
256,192,9949,5,8
256,192,10128,5,0
256,192,10308,5,8
256,192,10488,5,0
256,192,10578,1,0
256,192,10667,5,8
256,192,10847,5,0
256,192,11027,5,8
256,192,11206,5,0
256,192,11296,1,0
256,192,11386,5,8
256,192,11566,5,0
256,192,11745,5,8
256,192,11835,5,0
256,192,11925,1,0
256,192,12015,1,0
256,192,12105,5,8
256,192,12284,5,0
256,192,12464,5,8
256,192,12643,5,0
256,192,12733,1,0
256,192,12823,5,8
256,192,13003,5,0
256,192,13182,5,8
256,192,13362,5,0
256,192,13452,1,0
256,192,13542,5,8
256,192,13721,5,0
256,192,13901,5,8
256,192,14081,5,0
256,192,14170,1,0
256,192,14260,5,8
256,192,14440,5,0
256,192,14530,1,0
256,192,14619,5,8
256,192,14799,1,8
256,192,14979,5,4
256,192,15338,5,8
256,192,15518,5,4
256,192,15877,1,0
256,192,16057,1,0
256,192,16236,5,8
256,192,16596,5,0
256,192,16955,1,0
256,192,17134,5,8
256,192,17224,1,8
256,192,17314,5,0
256,192,17404,1,0
256,192,17494,5,8
256,192,17673,1,8
256,192,17853,5,4
256,192,18212,5,8
256,192,18302,5,0
256,192,18482,1,0
256,192,18572,5,8
256,192,18751,5,0
256,192,18931,1,0
256,192,19110,1,0
256,192,19200,1,0
256,192,19290,5,8
256,192,19470,1,8
256,192,19649,5,0
256,192,19829,5,8
256,192,19919,5,0
256,192,20009,1,0
256,192,20188,5,8
256,192,20368,1,8
256,192,20458,5,0
256,192,20637,1,0
256,192,20727,5,8
256,192,20907,5,0
256,192,21087,5,8
256,192,21176,5,0
256,192,21266,1,0
256,192,21356,1,0
256,192,21446,5,8
256,192,21625,5,0
256,192,21805,1,0
256,192,21985,5,8
256,192,22164,1,8
256,192,22254,5,0
256,192,22344,1,0
256,192,22524,1,0
256,192,22703,5,8
256,192,22883,1,8
256,192,22973,5,0
256,192,23063,1,0
256,192,23242,5,8
256,192,23332,1,8
256,192,23422,5,0
256,192,23512,1,0
256,192,23602,5,8
256,192,23961,5,0
256,192,24051,5,8
256,192,24230,1,8
256,192,24320,5,0
256,192,24500,5,8
256,192,24679,5,0
256,192,24859,1,0
256,192,24949,1,0
256,192,25039,1,0
256,192,25218,5,8
256,192,25398,5,0
256,192,25578,5,8
256,192,25757,5,0
256,192,25937,5,8
256,192,26116,5,0
256,192,26206,1,0
256,192,26296,1,0
256,192,26386,1,0
256,192,26476,5,8
256,192,26655,5,0
256,192,26835,5,8
256,192,26925,5,0
256,192,27105,1,0
256,192,27194,5,8
256,192,27374,5,0
256,192,27554,1,0
256,192,27733,5,8
256,192,27913,1,8
256,192,28003,5,0
256,192,28182,1,0
256,192,28272,5,8
256,192,28452,5,0
256,192,28811,1,0
256,192,28991,5,8
256,192,29081,5,0
256,192,29170,1,0
256,192,29260,1,0
256,192,29350,5,8
256,192,29709,5,0
256,192,29889,1,0
256,192,29979,1,0
256,192,30069,1,0
256,192,30248,5,8
256,192,30428,5,4
256,192,30787,1,0
256,192,30967,1,0
256,192,31057,1,0
256,192,31146,1,0
256,192,31326,1,0
256,192,31506,5,8
256,192,31685,1,8
256,192,31865,5,4
256,192,32224,1,0
256,192,32404,1,0
256,192,32494,1,0
256,192,32584,5,8
256,192,32673,5,0
256,192,32763,1,0
256,192,32853,1,0
256,192,32943,5,8
256,192,33122,5,0
256,192,33302,1,4
256,192,33482,5,8
256,192,33661,5,0
256,192,33841,1,0
256,192,33931,1,0
256,192,34021,5,8
256,192,34200,5,0
256,192,34380,1,0
256,192,34470,1,0
256,192,34560,1,0
256,192,34649,1,0
256,192,34739,5,8
256,192,35099,5,0
256,192,35458,1,0
256,192,35548,5,8
256,192,35727,1,0
256,192,35817,5,8
256,192,35997,1,0
256,192,36176,5,8
256,192,36356,5,0
256,192,36536,5,8
256,192,36715,5,0
256,192,36895,5,8
256,192,36985,5,0
256,192,37075,1,0
256,192,37254,5,8
256,192,37434,5,0
256,192,37613,1,0
256,192,37973,1,0
256,192,38152,1,0
256,192,38332,5,8
256,192,38422,1,8
256,192,38512,5,0
256,192,38602,1,0
256,192,38691,5,8
256,192,38871,5,0
256,192,39051,5,8
256,192,39230,5,0
256,192,39410,5,8
256,192,39769,5,0
256,192,40128,1,0
256,192,40218,1,0
256,192,40308,1,0
256,192,40398,1,0
256,192,40488,5,8
256,192,40578,1,8
256,192,40667,1,8
256,192,40757,1,8
256,192,40847,5,0
256,192,41027,5,8
256,192,41206,5,0
256,192,41296,1,0
256,192,41386,5,8
256,192,41566,5,0
256,192,41745,5,8
256,192,41835,1,8
256,192,41925,5,0
256,192,42105,5,8
256,192,42284,5,0
256,192,42464,5,8
256,192,42554,1,8
256,192,42643,5,0
256,192,42823,5,8
256,192,43003,5,0
256,192,43093,1,0
256,192,43182,1,0
256,192,43362,5,12
256,192,43721,1,8
256,192,43901,1,8
256,192,44081,5,0
256,192,44170,1,0
256,192,44260,5,8
256,192,44440,5,0
256,192,44619,5,8
256,192,44709,1,8
256,192,44799,5,0
256,192,44979,5,8
256,192,45158,5,0
256,192,45338,5,8
256,192,45428,1,8
256,192,45518,5,0
256,192,45697,5,8
256,192,45877,5,0
256,192,46057,5,8
256,192,46236,1,12
256,192,46596,1,12
256,192,46775,5,0
256,192,46955,5,8
256,192,47134,1,12
256,192,47494,1,8
256,192,47673,1,8
256,192,47853,5,0
256,192,48033,5,12
256,192,48212,5,0
256,192,48302,1,0
256,192,48392,5,8
256,192,48572,1,12
256,192,48931,1,8
256,192,49110,1,8
256,192,49290,5,0
256,192,49380,1,0
256,192,49470,5,8
256,192,49649,5,0
256,192,50009,1,4
256,192,50188,1,4
256,192,50368,5,12
256,192,50548,1,12
256,192,50727,1,12
256,192,51087,21,12
256,192,51266,5,12
256,192,51625,1,0
256,192,51715,1,0
256,192,51805,1,0
256,192,52164,1,0
256,192,52344,5,8
256,192,52524,5,0
256,192,52613,1,0
256,192,52703,5,8
256,192,52883,5,0
256,192,53063,5,8
256,192,53242,5,0
256,192,53332,1,0
256,192,53422,5,8
256,192,53602,5,0
256,192,53781,5,8
256,192,54140,1,8
256,192,54320,5,0
256,192,54500,5,8
256,192,54590,1,8
256,192,54679,5,0
256,192,54859,1,0
256,192,54949,1,0
256,192,55039,5,8
256,192,55218,5,0
256,192,55398,5,8
256,192,55578,5,0
256,192,55667,1,0
256,192,55757,5,8
256,192,55937,5,0
256,192,56116,5,8
256,192,56296,5,0
256,192,56386,1,0
256,192,56476,5,8
256,192,56655,5,0
256,192,56835,5,8
256,192,57015,5,0
256,192,57105,1,0
256,192,57194,5,8
256,192,57374,5,0
256,192,57464,1,0
256,192,57554,5,8
256,192,57733,1,8
256,192,57913,1,8
256,192,58093,5,0
256,192,58362,1,0
256,192,58452,5,8
256,192,58631,5,0
256,192,58811,5,8
256,192,58901,5,0
256,192,59081,1,0
256,192,59170,5,8
256,192,59350,1,8
256,192,59530,5,0
256,192,59619,1,0
256,192,59709,1,0
256,192,59799,1,0
256,192,59889,5,8
256,192,60069,5,0
256,192,60248,1,0
256,192,60338,1,0
256,192,60428,5,8
256,192,60608,5,0
256,192,60697,5,8
256,192,60787,1,8
256,192,60967,5,4
256,192,61326,5,12
256,192,61506,5,4
256,192,61865,1,4
256,192,62224,1,4
256,192,62584,1,4
256,192,62763,5,12
256,192,62943,5,0
256,192,63122,5,8
256,192,63302,5,0
256,192,63392,1,0
256,192,63482,5,8
256,192,63661,5,0
256,192,63751,1,0
256,192,63841,5,8
256,192,64021,5,0
256,192,64200,5,8
256,192,64380,5,0
256,192,64470,1,0
256,192,64560,5,8
256,192,64739,5,0
256,192,64919,5,8
256,192,65099,5,0
256,192,65188,1,0
256,192,65278,5,8
256,192,65458,5,0
256,192,65637,5,8
256,192,65817,5,0
256,192,65907,1,0
256,192,65997,5,8
256,192,66176,5,0
256,192,66356,1,0
256,192,66446,1,0
256,192,66536,5,8
256,192,66715,5,0
256,192,66985,1,0
256,192,67075,5,8
256,192,67254,5,0
256,192,67434,5,8
256,192,67613,1,8
256,192,67703,1,8
256,192,67793,5,0
256,192,67973,5,8
256,192,68152,5,0
256,192,68242,5,8
256,192,68422,5,0
256,192,68512,5,8
256,192,68691,5,0
256,192,68871,5,8
256,192,68961,1,8
256,192,69051,5,0
256,192,69230,1,0
256,192,69410,5,8
256,192,69590,6,0,B|408:192,2,140
256,192,70667,1,0
256,192,70847,5,8
256,192,71386,5,0
256,192,71566,5,8
256,192,71925,1,8
256,192,72284,5,0
256,192,72374,1,0
256,192,72464,5,8
256,192,72823,5,0
256,192,73003,5,8
256,192,73542,5,0
256,192,73721,5,8
256,192,74260,1,8
256,192,74440,5,0
256,192,74799,1,0
256,192,74979,5,8
256,192,75338,1,12
256,192,75518,1,12
256,192,75877,5,4
256,192,76236,1,0
256,192,76416,5,8
256,192,76596,5,0
256,192,76685,1,0
256,192,76775,5,8
256,192,77134,1,8
256,192,77314,5,0
256,192,77673,1,0
256,192,77853,5,8
256,192,78212,1,12
256,192,78392,1,12
256,192,78751,5,4
256,192,79110,1,0
256,192,79290,5,8
256,192,79470,5,0
256,192,79649,5,8
256,192,80009,1,8
256,192,80188,5,0
256,192,80548,1,0
256,192,80907,1,0
256,192,81087,1,0
256,192,81266,5,8
256,192,81446,5,0
256,192,81536,1,0
256,192,81625,5,8
256,192,81805,5,0
256,192,81985,5,8
256,192,82164,5,0
256,192,82254,1,0
256,192,82344,5,8
256,192,82524,5,0
256,192,82703,5,8
256,192,82883,5,0
256,192,82973,1,0
256,192,83063,5,8
256,192,83242,5,0
256,192,83332,1,0
256,192,83422,5,8
256,192,83602,5,0
256,192,83691,5,8
256,192,83781,1,8
256,192,83961,5,4
256,192,84500,5,8
256,192,85039,5,0
256,192,85398,1,0
256,192,85937,5,8
256,192,86476,5,0
256,192,86835,1,0
256,192,87194,5,8
256,192,87374,5,0
256,192,87733,1,0
256,192,87913,5,8
256,192,88093,5,0
256,192,88452,1,0
256,192,88542,1,0
256,192,88631,5,8
256,192,88721,1,8
256,192,88811,1,8
256,192,89170,5,4
256,192,89709,1,0
256,192,90069,5,8
256,192,90428,5,0
256,192,90608,5,8
256,192,90967,5,4
256,192,91685,1,0
256,192,91865,5,8
256,192,92045,1,8
256,192,92224,5,0
256,192,92584,1,0
256,192,92943,5,8
256,192,93302,5,0
256,192,93482,5,8
256,192,93841,5,0
256,192,94200,1,0
256,192,94560,5,8
256,192,94739,5,0
256,192,94919,1,0
256,192,95099,5,8
256,192,95278,1,8
256,192,95368,1,8
256,192,95458,5,0
256,192,95817,5,8
256,192,96176,5,0
256,192,96356,5,8
256,192,96715,5,4
256,192,97434,5,8
256,192,97613,5,0
256,192,97793,1,0
256,192,97973,5,8
256,192,98152,5,0
120,192,98332,2,0,B|400:192,1,280
256,192,99410,5,8
256,192,99590,5,0
256,192,99949,1,0
256,192,100128,1,0
256,192,100308,5,12
256,192,100667,5,0
256,192,100847,5,8
256,192,100937,1,8
256,192,101027,1,8
256,192,101116,1,8
256,192,101206,5,0
256,192,101386,1,0
256,192,101566,5,8
256,192,101745,5,0
256,192,101925,1,0
256,192,102015,5,8
256,192,102105,5,0
256,192,102284,5,8
256,192,102464,5,0
256,192,102823,1,0
256,192,103003,5,8
256,192,103182,5,0
256,192,103362,1,0
256,192,103542,1,0
256,192,103721,5,8
256,192,103901,1,8
256,192,103991,1,8
256,192,104081,5,0
256,192,104260,1,0
256,192,104440,5,8
256,192,104619,5,0
256,192,104979,1,0
256,192,105158,5,8
256,192,105338,5,0
256,192,105518,1,0
256,192,105697,1,0
256,192,105787,1,0
256,192,105877,5,8
256,192,106057,5,0
256,192,106416,1,0
256,192,106596,5,8
256,192,106685,1,8
256,192,106775,1,8
256,192,106865,1,8
256,192,106955,5,0
256,192,107134,1,0
256,192,107314,5,8
256,192,107494,5,0
256,192,107673,1,0
256,192,107853,1,0
256,192,107943,5,8
256,192,108033,1,8
256,192,108212,5,0
256,192,108572,1,0
256,192,108751,5,8
256,192,108931,5,0
256,192,109290,1,0
256,192,109470,5,8
256,192,109649,1,8
256,192,109739,1,8
256,192,109829,5,0
256,192,110009,1,0
256,192,110188,5,8
256,192,110368,5,0
256,192,110548,5,8
256,192,110727,5,0
256,192,110817,1,0
256,192,110907,5,8
256,192,111087,1,8
256,192,111446,1,8
256,192,111625,5,0
256,192,111985,1,4
256,192,112344,5,12
256,192,112703,1,12
256,192,113063,1,8
256,192,113242,5,0
256,192,113422,5,8
256,192,113781,5,0
256,192,113961,5,8
256,192,114320,1,8
256,192,114679,1,8
256,192,115039,5,0
256,192,115218,5,8
256,192,115578,5,0
256,192,115937,1,0
256,192,116116,5,8
256,192,116476,5,0
256,192,116655,5,8
256,192,117015,5,0
256,192,117374,1,0
256,192,117733,1,0
256,192,117913,1,0
256,192,118093,5,8
256,192,118452,5,0
256,192,118631,1,0
256,192,118721,1,0
256,192,118811,1,0
256,192,118991,1,0
256,192,119170,5,8
256,192,119350,1,8
256,192,119440,1,8
256,192,119530,1,8
256,192,119709,1,8
256,192,119889,5,0
256,192,120248,1,0
256,192,120428,5,8
256,192,120608,5,0
256,192,120697,1,0
256,192,120787,1,0
256,192,120967,1,0
256,192,121146,5,8
256,192,121506,5,0
256,192,121865,1,0
256,192,121955,1,0
256,192,122045,1,0
256,192,122224,5,8
256,192,122404,5,0
256,192,122584,5,8
256,192,122943,1,12
256,192,123122,1,12
256,192,123482,5,0
256,192,123572,1,0
256,192,123661,1,0
256,192,123841,5,8
256,192,124021,5,4
256,192,124290,5,8
256,192,124380,5,0
256,192,124560,5,8
256,192,124739,5,8
256,192,124919,1,0
256,192,125099,1,0
256,192,125278,5,8
256,192,125458,5,0
256,192,125548,1,0
256,192,125637,5,8
256,192,125817,5,0
256,192,125997,5,8
256,192,126176,5,0
256,192,126356,1,0
256,192,126536,1,0
256,192,126715,5,8
256,192,126895,5,0
256,192,126985,1,0
256,192,127075,5,8
256,192,127254,5,0
256,192,127344,1,0
256,192,127434,5,8
256,192,127524,5,0
256,192,127613,1,0
256,192,127703,1,0
256,192,127793,5,8
256,192,127973,5,0
256,192,128152,1,0
256,192,128332,1,0
256,192,128512,5,8
256,192,128871,1,8
256,192,129051,5,0
256,192,129230,1,0
256,192,129320,1,0
256,192,129410,1,0
256,192,129590,5,8
256,192,129769,5,0
256,192,129859,1,0
256,192,129949,5,8
256,192,130128,5,0
256,192,130308,1,0
256,192,130488,5,8
256,192,130667,5,0
256,192,130847,5,8
256,192,131027,5,0
256,192,131206,5,8
256,192,131386,5,0
256,192,131566,1,0
256,192,131745,5,8
256,192,131925,5,0
256,192,132105,1,0
256,192,132464,5,8
256,192,132554,5,0
256,192,132643,1,0
256,192,132733,1,0
256,192,132823,5,8
256,192,133182,1,8
256,192,133362,5,4
256,192,133721,1,0
256,192,133901,1,0
256,192,134081,1,4
256,192,134440,1,0
256,192,134619,1,4
256,192,134979,1,0
256,192,135069,1,0
256,192,135158,5,8
256,192,135248,5,0
256,192,135338,5,8
256,192,135428,5,0
256,192,135518,5,8
256,192,135608,1,8
256,192,135697,5,0
256,192,135877,5,8
256,192,136057,5,0
256,192,136236,1,0
256,192,136326,1,0
256,192,136416,5,8
256,192,136596,5,0
256,192,136775,5,8
256,192,136955,5,0
256,192,137045,1,0
256,192,137134,5,8
256,192,137494,1,8
256,192,137673,5,0
256,192,137853,1,0
256,192,138033,5,8
256,192,138122,5,0
256,192,138212,5,8
256,192,138302,5,0
256,192,138392,5,8
256,192,138482,5,0
256,192,138572,1,0
256,192,138751,1,0
256,192,138931,5,8
256,192,139110,5,0
256,192,139470,1,0
256,192,139649,1,0
256,192,139829,5,8
256,192,140009,5,0
256,192,140099,1,0
256,192,140188,1,0
256,192,140278,1,0
256,192,140368,5,8
256,192,140548,1,8
256,192,140727,5,0
256,192,140817,1,0
256,192,140907,5,8
256,192,140997,5,0
256,192,141087,1,0
256,192,141266,5,8
256,192,141446,5,0
256,192,141625,1,0
256,192,141715,5,8
256,192,141895,5,0
256,192,141985,5,8
256,192,142075,1,8
256,192,142164,5,0
256,192,142344,1,0
256,192,142524,5,8
256,192,142703,5,0
256,192,142793,1,0
256,192,142883,5,8
256,192,143242,1,8
256,192,143422,1,8
256,192,143602,5,0
256,192,143781,1,0
256,192,143961,5,8
256,192,144140,5,0
256,192,144230,1,0
256,192,144320,5,8
256,192,144679,1,8
256,192,144859,5,0
256,192,145218,1,0
256,192,145398,5,8
256,192,145578,5,0
256,192,145937,1,0
256,192,146116,5,8
256,192,146296,1,8
256,192,146476,5,0
256,192,146566,1,0
256,192,146655,5,8
256,192,146745,1,8
256,192,146835,5,0
256,192,147015,1,0
256,192,147194,5,8
256,192,147733,1,8
256,192,148272,5,0
256,192,148811,1,0
256,192,148991,5,8
256,192,149170,5,0
256,192,149350,5,8
256,192,149530,5,0
256,192,150069,12,0,152584
256,192,152943,5,8
256,192,153482,5,0
256,192,153661,1,0
256,192,153841,5,8
256,192,154200,1,12
256,192,154739,5,0
256,192,154919,1,0
256,192,155099,5,8
256,192,155278,1,8
256,192,155458,5,0
256,192,155817,5,12
256,192,156356,5,0
256,192,156536,5,8
256,192,156715,5,0
256,192,157075,5,8
256,192,157434,1,8
256,192,157793,1,8
256,192,158152,5,0
256,192,158332,5,8
256,192,158512,1,8
256,192,158602,1,8
256,192,158691,5,0
256,192,158871,1,0
256,192,159051,5,8
256,192,159410,5,0
256,192,159590,1,0
256,192,159769,5,8
256,192,160128,5,0
256,192,160308,1,0
256,192,160488,5,8
256,192,160757,1,8
256,192,160847,5,0
256,192,161027,1,0
256,192,161206,5,8
256,192,161566,5,0
256,192,161745,1,0
256,192,161925,5,8
256,192,162105,5,0
256,192,162194,5,8
256,192,162284,5,0
256,192,162464,1,0
256,192,162643,5,8
256,192,163003,5,0
256,192,163182,1,0
256,192,163362,5,8
256,192,163542,5,0
256,192,163631,5,8
256,192,163721,5,0
256,192,163901,1,0
256,192,163991,1,0
256,192,164081,5,8
256,192,164170,1,8
256,192,164260,1,8
256,192,164350,1,8
256,192,164440,5,0
256,192,164619,5,8
256,192,164799,5,0
256,192,164889,1,0
256,192,164979,5,8
256,192,165158,5,0
256,192,165338,5,8
256,192,165518,5,0
256,192,165608,1,0
256,192,165697,5,8
256,192,165877,5,0
256,192,166057,5,8
256,192,166236,5,0
256,192,166326,1,0
256,192,166416,5,8
256,192,166596,5,0
256,192,166775,5,8
256,192,166955,5,0
256,192,167045,1,0
256,192,167134,5,8
256,192,167224,1,8
256,192,167314,5,0
256,192,167494,5,8
256,192,167673,5,0
256,192,167763,5,8
256,192,167853,1,8
256,192,168033,5,0
256,192,168212,5,8
256,192,168392,5,0
256,192,168482,5,8
256,192,168572,1,8
256,192,168751,5,0
256,192,168931,5,8
256,192,169110,5,0
256,192,169200,5,8
256,192,169290,1,8
256,192,169470,5,0
256,192,169649,5,8
256,192,169829,5,0
256,192,169919,5,8
256,192,170009,1,8
256,192,170099,1,8
256,192,170188,5,0
256,192,170368,5,8
256,192,170548,5,0
256,192,170637,1,0
256,192,170727,5,8
256,192,170907,5,0
256,192,171087,5,8
256,192,171266,5,0
256,192,171356,1,0
256,192,171446,5,8
256,192,171625,5,0
256,192,171805,5,8
256,192,171985,5,0
256,192,172075,1,0
256,192,172164,1,0
256,192,172344,5,8
256,192,172524,5,0
256,192,172703,5,8
256,192,172793,1,8
256,192,172883,1,8
256,192,172973,1,8
256,192,173063,5,0
256,192,173422,5,8
256,192,173602,5,0
256,192,173961,1,0
256,192,174320,1,4
256,192,174679,1,4
256,192,174859,1,4
256,192,175218,5,12
256,192,175398,1,12
256,192,175937,21,8
256,192,176476,1,8
256,192,177015,1,8
256,192,177374,5,0
256,192,177554,5,8
256,192,177733,5,0
256,192,177913,1,0
256,192,178093,1,0
256,192,178272,5,8
256,192,178631,5,0
256,192,178811,5,8
256,192,179170,5,0
256,192,179350,1,0
256,192,179709,5,8
256,192,179889,5,0
256,192,180069,5,8
256,192,180428,1,8
256,192,180787,5,0
256,192,180967,1,0
256,192,181146,5,8
256,192,181326,1,8
256,192,181685,5,0
256,192,182045,5,8
256,192,182224,1,8
256,192,182584,1,8
256,192,182943,5,0
256,192,183122,1,0
256,192,183302,1,0
256,192,183482,5,8
256,192,183661,5,0
256,192,183841,1,0
256,192,184200,5,8
256,192,184560,5,0
256,192,184919,5,8
256,192,185099,5,0
256,192,185458,5,8
256,192,185817,5,0
256,192,185997,1,0
256,192,186176,1,0
256,192,186356,5,8
256,192,186536,5,0
256,192,186625,1,0
256,192,186715,5,8
256,192,186895,5,0
256,192,187075,5,8
256,192,187434,5,4
256,192,187793,1,0
256,192,187973,1,0
256,192,188063,1,0
256,192,188152,5,8
256,192,188332,5,0
256,192,188512,1,0
256,192,188691,1,0
256,192,188781,1,0
256,192,188871,1,0
256,192,189051,5,8
256,192,189230,1,8
256,192,189410,5,0
256,192,189590,5,8
256,192,189769,5,0
256,192,189949,1,0
256,192,190128,1,0
256,192,190218,1,0
256,192,190308,5,8
256,192,190488,5,0
256,192,190667,1,0
256,192,190757,1,0
256,192,190847,5,8
256,192,190937,5,0
256,192,191027,5,8
256,192,191206,5,0
256,192,191386,1,0
256,192,191566,5,8
256,192,191745,5,0
256,192,191835,1,0
256,192,191925,5,8
256,192,192105,5,0
256,192,192284,1,0
256,192,192464,5,8
256,192,192643,5,0
256,192,192823,5,8
256,192,192913,5,0
256,192,193003,5,0
256,192,193093,5,0
256,192,193182,1,0
256,192,193542,1,0
256,192,193721,1,0
256,192,193811,1,0
256,192,193901,5,8
256,192,194081,5,0
256,192,194260,1,0
256,192,194440,5,8
256,192,194530,5,0
256,192,194619,1,0
256,192,194799,5,8
256,192,194979,5,0
256,192,195158,1,0
256,192,195338,5,8
256,192,195518,5,0
256,192,195697,1,0
256,192,195877,1,0
256,192,195967,1,0
256,192,196057,5,8
256,192,196416,5,0
256,192,196596,1,4
256,192,196955,5,8
256,192,197314,5,4
256,192,197673,1,0
256,192,197853,1,4
256,192,198212,1,0
256,192,198302,1,0
256,192,198392,1,0
256,192,198482,1,0
256,192,198572,1,0
256,192,198751,1,4
256,192,198931,5,8
256,192,199110,5,0
256,192,199200,5,8
256,192,199290,5,0
256,192,199470,5,8
256,192,199649,5,0
256,192,199829,1,0
256,192,199919,1,0
256,192,200009,5,8
256,192,200188,5,0
256,192,200368,5,8
256,192,200727,1,8
256,192,200907,5,0
256,192,200997,1,0
256,192,201087,5,8
256,192,201266,1,8
256,192,201356,1,8
256,192,201446,5,0
256,192,201625,5,8
256,192,201805,5,0
256,192,201985,5,8
256,192,202164,5,0
256,192,202254,1,0
256,192,202344,5,8
256,192,202524,5,0
256,192,202703,5,8
256,192,202883,5,0
256,192,202973,5,8
256,192,203063,1,8
256,192,203242,5,0
256,192,203422,5,8
256,192,203602,5,0
256,192,203691,1,0
256,192,203781,5,8
256,192,203961,5,0
256,192,204051,1,0
256,192,204140,5,8
256,192,204320,5,0
256,192,204410,1,0
256,192,204500,5,8
256,192,204590,5,0
256,192,204679,5,8
256,192,204949,5,0
256,192,205039,5,8
256,192,205218,5,0
256,192,205308,1,0
256,192,205398,5,8
256,192,205488,5,0
256,192,205667,1,0
256,192,205757,5,8
256,192,205937,1,8
256,192,206116,5,0
256,192,206386,1,0
256,192,206476,5,8
256,192,206655,5,0
256,192,206835,1,0
256,192,206925,1,0
256,192,207015,5,8
256,192,207194,5,0
256,192,207284,5,8
256,192,207374,1,8
256,192,207554,5,4
256,192,207913,5,12
256,192,208093,5,4
256,192,208452,1,4
256,192,208811,1,4
256,192,209170,1,4
256,192,209350,5,12
256,192,209530,5,0
256,192,209709,5,8
256,192,209889,5,0
256,192,209979,1,0
256,192,210069,5,8
256,192,210248,5,0
256,192,210338,1,0
256,192,210428,5,8
256,192,210608,5,0
256,192,210787,5,8
256,192,210967,5,0
256,192,211057,1,0
256,192,211146,5,8
256,192,211326,1,0
256,192,211506,5,0
256,192,211685,5,8
256,192,211775,5,0
256,192,211865,5,8
256,192,212045,1,8
256,192,212224,5,0
256,192,212404,1,0
256,192,212494,5,8
256,192,212584,1,8
256,192,212763,5,8
256,192,212943,5,0
256,192,213033,1,0
256,192,213122,5,8
256,192,213302,1,8
256,192,213572,1,8
256,192,213661,5,0
256,192,213841,5,8
256,192,214021,5,0
256,192,214200,1,0
256,192,214290,1,0
256,192,214380,5,8
256,192,214560,5,0
256,192,214739,5,8
256,192,214829,5,0
256,192,215009,1,0
256,192,215099,5,8
256,192,215278,1,8
256,192,215368,5,0
256,192,215548,1,0
256,192,215637,5,8
256,192,215817,1,8
256,192,215997,5,0
256,192,216176,6,8,B|408:192,2,140
256,192,217254,1,0
256,192,217434,5,8
256,192,217613,5,0
256,192,217703,1,0
256,192,217793,1,0
256,192,217973,1,0
256,192,218152,1,0
256,192,218332,1,0
256,192,218512,1,0
256,192,218602,1,0
256,192,218691,5,8
256,192,218871,1,0
256,192,218961,1,0
256,192,219051,5,8
256,192,219410,5,0
256,192,219590,5,8
256,192,219769,1,0
256,192,219859,1,0
256,192,220128,1,8
256,192,220308,5,0
256,192,220488,5,0
256,192,220578,1,0
256,192,220757,1,0
256,192,220847,5,8
256,192,221027,1,8
256,192,221386,1,8
256,192,221566,5,0
256,192,221925,5,12
256,192,222105,1,12
256,192,222464,5,4
256,192,222823,1,0
256,192,223003,5,8
256,192,223182,5,0
256,192,223272,1,0
256,192,223362,5,8
256,192,223721,1,8
256,192,223901,5,0
256,192,224260,1,0
256,192,224440,5,8
256,192,224799,1,12
256,192,224979,1,12
256,192,225338,5,4
256,192,225697,1,0
256,192,225877,5,8
256,192,226057,5,0
256,192,226146,1,0
256,192,226236,5,8
256,192,226596,1,8
256,192,226775,5,0
256,192,226955,1,0
256,192,227045,1,0
256,192,227134,1,0
256,192,227314,5,8
256,192,227494,1,8
256,192,227673,5,0
256,192,227853,5,8
256,192,228033,5,0
256,192,228122,1,0
256,192,228212,5,8
256,192,228392,5,0
256,192,228572,5,8
256,192,228751,5,0
256,192,228841,5,8
256,192,228931,1,8
256,192,229110,5,0
256,192,229290,5,8
256,192,229470,5,0
256,192,229560,1,0
256,192,229649,5,8
256,192,229829,5,0
256,192,229919,5,8
256,192,230009,1,8
256,192,230188,5,0
256,192,230278,1,0
256,192,230368,5,8
256,192,230548,5,0
256,192,230907,1,0
256,192,231087,5,8
256,192,231446,5,0
256,192,231625,5,8
256,192,231985,5,0
256,192,232164,5,8
256,192,232344,5,0
256,192,232524,1,0
256,192,232703,5,8
256,192,232883,5,0
256,192,233063,1,0
256,192,233152,1,0
256,192,233242,5,8
256,192,233422,12,0,235128
