osu file format v9

[General]
AudioFilename: Kawaru Mirai (Full Ver.).mp3
AudioLeadIn: 1996
PreviewTime: 51448
Countdown: 0
SampleSet: Soft
StackLeniency: 0.7
Mode: 0
LetterboxInBreaks: 0
EpilepsyWarning: 1

[Editor]
DistanceSpacing: 1.3
BeatDivisor: 4
GridSize: 8

[Metadata]
Title:Kawaru Mirai
Artist:Choucho
Creator:bossandy
Version:Normal
Source:Kamisama no Memo Chou
Tags:12BARRY21 Sorda S_o_r_d_a yongtw123 spboxer3 KDS

[Difficulty]
HPDrainRate:3
CircleSize:3
OverallDifficulty:3
ApproachRate:4
SliderMultiplier:0.8
SliderTickRate:1

[Events]
//Background and Video events
0,0,"BG.jpg"
//Break Periods
2,89709,94138
2,147394,149826
2,164640,174617
2,187434,195994
//Storyboard Layer 0 (Background)
Sprite,Background,Centre,"SB\b\1.jpg",320,240 F,0,5280,,1 F,0,9233,,1
Sprite,Background,Centre,"SB\b\2.jpg",320,240 F,0,6358,7796,0,1 F,0,9233,,1
Sprite,Background,Centre,"SB\b\3.jpg",320,240 F,0,7796,9233,0,1 F,0,12107,,0.9909534
Sprite,Background,Centre,"SB\white.png",320,240 F,0,9233,12107,0,1 F,0,12107,12466,1 F,0,17497,17856,1,0
Sprite,Background,Centre,"SB\bg6.jpg",320,240 F,0,40851,,1 S,0,40851,52169,1.17408,1.04096 R,0,40851,52169,0.1433603,-0.02048004 F,0,52169,,1
Animation,Background,Centre,"SB\b\5\5-.jpg",320,240,17,169,LoopOnce F,0,12107,12466,0,1 F,0,14982,17856,1,0
Sprite,Background,Centre,"SB\bg3.jpg",320,240 F,0,52169,53337,1 M,0,52169,75345,320,125,320,350
Sprite,Background,Centre,"SB\bg4.jpg",320,240 M,0,75345,88818,194,240,446,240
Sprite,Background,Centre,"SB\bg4.jpg",320,240 M,0,221940,233438,445,240,194,240
Sprite,Background,Centre,"SB\bg7.jpg",320,240 F,0,88818,,1 F,0,112712,,1
Sprite,Background,Centre,"SB\bg2.jpg",320,240 S,0,198765,221940,1.01024,0.8054401
Sprite,Background,Centre,"SB\bg5.jpg",320,240 M,0,124030,147205,320,242,320,351
Sprite,Background,Centre,"SB\bg8.jpg",320,240 M,0,112712,124030,320,178,320,255
Sprite,Background,Centre,"SB\bg10.jpg",320,240 F,0,151157,,1 S,0,151157,,1.11264 S,0,152954,175949,1.11264,0.9999999
Sprite,Background,Centre,"SB\bg9.jpg",320,240 F,0,175949,184213,1 S,0,175949,198765,1.21504,1.02048 R,0,175949,198765,0.1433598,8.940697E-10 M,0,182057,,320,240 F,0,184213,198765,1
Sprite,Background,Centre,"SB\pa.png",320,240 M,0,17856,,319,439 C,0,17856,,56,44,75 F,0,17856,18215,0.07327986,1 C,0,40851,,152,216,252 C,0,52169,,69,69,188 F,0,75345,,0 C,0,89717,,116,86,109 F,0,89717,90076,0,1 C,0,112712,,63,66,136 C,0,124030,,101,68,161 F,0,147025,147385,0.6070864,0
Sprite,Background,Centre,"SB\ly\2.png",320,240 M,0,23605,23964,314,424,198,424 F,0,23605,23964,0,1 M,0,23964,29354,198,424,173,424 M,0,29354,29713,173,424,50,424 F,0,29354,29713,1,0
Sprite,Background,Centre,"SB\ly\3.png",320,240 F,0,27917,28276,0,1 M,0,27917,29354,392,424,385,424 M,0,29354,29713,385,424,263,424 F,0,29354,29713,1,0
Sprite,Background,Centre,"SB\ly\4.png",320,240 M,0,29354,29713,394,424,219,424 F,0,29354,29713,0,1 M,0,29713,34743,219,424,205,424 M,0,34743,35103,205,424,51,424 F,0,34743,35103,1,0
Sprite,Background,Centre,"SB\ly\5.png",320,240 M,0,34743,35103,396,424,239,424 F,0,34743,35103,0,1 M,0,35103,40851,239,424,220,424
Sprite,Background,Centre,"SB\ly\6.png",320,240 F,0,41570,41929,0,1 M,0,41570,52169,96,424,138,424
Sprite,Background,Centre,"SB\ly\7.png",320,240 F,0,45343,45702,0,1 M,0,45343,52169,353,453,330,453
Sprite,Background,Centre,"SB\ly\8.png",320,240 F,0,53966,54325,0,1 M,0,53966,57020,180,453,233,453 F,0,56661,57020,1,0
Sprite,Background,Centre,"SB\ly\9.png",320,240 F,0,56840,57200,0,1 M,0,56840,60972,274,424,202,424 F,0,60613,60972,1,0
Sprite,Background,Centre,"SB\ly\10.png",320,240 F,0,60613,60972,0,1 M,0,60613,62769,241,453,273,453 F,0,62410,62769,1,0
Sprite,Background,Centre,"SB\ly\1.png",320,240 F,0,17856,18215,0,1 M,0,17856,23246,219,424,194,424 M,0,23246,23605,194,424,65,424 F,0,23246,23605,0.9442897,0
Sprite,Background,Centre,"SB\ly\11.png",320,240 F,0,62769,63128,0,1 M,0,62769,65643,207,424,155,424 F,0,65284,65643,1,0
Sprite,Background,Centre,"SB\ly\12.png",320,240 F,0,65464,65823,0,1 M,0,65464,70314,170,453,263,453 F,0,69596,70314,1,0
Sprite,Background,Centre,"SB\ly\13.png",320,240 F,0,70314,70674,0,1 M,0,70314,75345,242,424,169,424
Sprite,Background,Centre,"SB\ly\14.png",320,240 F,0,76243,76602,0,1 M,0,76243,78219,465,194,469,220 F,0,78219,78399,1,0 S,0,78219,78399,1,1.620048
Sprite,Background,Centre,"SB\ly\15.png",320,240 F,0,78758,79117,0.3651201,1 M,0,78758,82531,537,217,542,248 F,0,81093,82531,1,0
Sprite,Background,Centre,"SB\ly\16.png",320,240 M,0,83070,,321,329 F,0,83070,83968,0,1 S,0,83070,86124,1,1.265306 F,0,83968,,1 F,0,85225,86124,1,0
Sprite,Background,Centre,"SB\ly\17.png",320,240 F,0,89717,90076,0,1 M,0,89717,95106,219,424,194,424 M,0,95106,95465,194,424,65,424 F,0,95106,95465,0.9442897,0
Sprite,Background,Centre,"SB\ly\18.png",320,240 M,0,95465,95825,373,422,216,424 F,0,95465,95825,0,1 M,0,95825,99777,216,424,194,424 F,0,101035,101214,1,0
Sprite,Background,Centre,"SB\ly\20.png",320,240 M,0,106963,107322,403,422,246,424 F,0,106963,107322,0,1 M,0,107322,112712,246,424,224,424
Sprite,Background,Centre,"SB\ly\19.png",320,240 F,0,101035,101214,0,1 S,0,101035,101214,1.3072,1 M,0,101035,106604,225,424,200,424 M,0,106604,106963,200,424,71,424 F,0,106604,106963,1,0
Sprite,Background,Centre,"SB\ly\21.png",320,240 F,0,113431,113790,0,1 M,0,113431,124030,96,424,138,424
Sprite,Background,Centre,"SB\ly\22.png",320,240 F,0,117203,117563,0,1 M,0,117203,124030,353,453,330,453
Sprite,Background,Centre,"SB\ly\23.png",320,240 M,0,123491,,314,424 F,0,123491,124030,0,1 S,0,123491,124030,1.86016,0.8976001 F,0,125647,126006,1,0
Sprite,Background,Centre,"SB\ly\24.png",320,240 F,0,125827,126186,0,1 M,0,125827,128881,180,453,233,453 F,0,128521,128881,1,0
Sprite,Background,Centre,"SB\ly\25.png",320,240 F,0,128701,129060,0,1 M,0,128701,131755,274,424,218,424 F,0,131396,131755,1,0
Sprite,Background,Centre,"SB\ly\26.png",320,240 F,0,131575,131935,0,1 M,0,131575,134989,241,453,281,453 F,0,134630,134989,1,0
Sprite,Background,Centre,"SB\ly\27.png",320,240 F,0,134630,134989,0,1 M,0,134630,137145,207,424,155,424 F,0,136785,137145,1,0
Sprite,Background,Centre,"SB\ly\28.png",320,240 F,0,137324,137684,0,1 M,0,137324,142175,170,453,263,453 F,0,141456,142175,1,0
Sprite,Background,Centre,"SB\ly\30.png",320,240 F,0,142175,142534,0,1 M,0,142175,147205,242,424,169,424
Sprite,Background,Centre,"SB\ly\32.png",320,240 F,0,169482,170200,0,1 M,0,169482,175949,121,286,122,233
Sprite,Background,Centre,"SB\ly\31.png",320,240 F,0,163733,164452,0,1 M,0,163733,175949,510,203,510,269
Sprite,Background,Centre,"SB\ly\33.png",320,240 M,0,51631,,330,424 F,0,51631,52169,0,1 S,0,51631,52169,1.77824,1 F,0,53786,54146,0.9962825,0
Sprite,Background,Centre,"SB\ly\33.png",320,240 M,0,175231,,433,384 F,0,175231,175949,0,1 F,0,180261,180620,0.9777158,0
Sprite,Background,Centre,"SB\ly\8.png",320,240 M,0,177926,,553,415 F,0,177926,178285,0,1 F,0,180261,180620,0.9860724,0
Sprite,Background,Centre,"SB\ly\9.png",320,240 M,0,180441,,313,381 F,0,180441,180800,0,1 F,0,186369,186728,1,0
Sprite,Background,Centre,"SB\ly\10.png",320,240 M,0,184213,,440,412 F,0,184213,184573,0,1 F,0,186369,186728,0.9629595,0
Sprite,Background,Centre,"SB\ly\11.png",320,240 M,0,186728,,216,317 F,0,186728,187447,0,1 F,0,193914,194274,0.9973651,0
Sprite,Background,Centre,"SB\ly\12.png",320,240 M,0,189064,,376,285 F,0,189064,189423,0,1 F,0,193914,194274,1,0
Sprite,Background,Centre,"SB\ly\34.png",320,240 M,0,194094,,361,241 F,0,194094,194453,0,1 F,0,194453,198765,1,0.9637883
Sprite,Background,Centre,"SB\ly\23.png",320,240 M,0,198226,,124,208 F,0,198226,198765,0,1 S,2,198226,198765,1.39936,1.04096 S,0,198765,200741,1.04096,0.9590399 F,0,200382,200741,0.974026,0
Sprite,Background,Centre,"SB\ly\24.png",320,240 M,0,200562,,212,241 F,0,200562,200921,0,1 S,0,200562,203616,1.09216,1 F,0,203256,203616,1,0
Sprite,Background,Centre,"SB\ly\25.png",320,240 M,0,203436,,122,280 F,0,203436,203795,0,1 S,0,203436,206490,1.09216,1.047399 F,0,203795,,1 F,0,206131,206490,1,0 S,0,206490,,1.047399
Sprite,Background,Centre,"SB\ly\26.png",320,240 M,0,206310,,240,309 F,0,206310,206670,0,1 S,0,206310,209724,1.0512,1 F,0,209365,209724,1,0
Sprite,Background,Centre,"SB\ly\27.png",320,240 M,0,209365,,377,245 F,0,209365,209724,0,1 S,0,209365,212239,1.08192,1 F,0,211880,212239,1,0
Sprite,Background,Centre,"SB\ly\28.png",320,240 M,0,212059,,469,212 F,0,212059,212419,0,1 S,0,212059,216910,1.1024,1 F,0,216191,216910,1,0
Sprite,Background,Centre,"SB\ly\35.png",320,240 M,0,216910,,188,226 F,0,216910,217269,0,1 S,0,216910,221940,1.14336,1
Sprite,Background,Centre,"SB\ly\38.png",320,240 F,0,222838,223198,0.05632,1 M,0,222838,224815,417,218,412,237 F,0,224815,224994,1,0 S,0,224815,224994,1,1.505725
Sprite,Background,Centre,"SB\ly\37.png",320,240 F,0,225353,225713,0,1 M,0,225353,229126,360,295,358,248 F,0,228408,229126,1,0
Sprite,Background,Centre,"SB\ly\36.png",320,240 M,0,229665,,322,187 F,0,229665,230563,0,1 S,0,229665,233438,1,1.16384 F,0,230563,233438,1,0.9899777
Sprite,Background,Centre,"SB\white.png",320,240 F,0,17856,18215,0.2048002,0 F,0,40851,41211,1,0 F,0,52169,52529,1,0 F,0,88818,89178,1,0.0472222 F,0,112712,,1 F,0,112712,113071,1,0 F,0,124030,124389,1,0 F,0,152954,153313,0.4994255,0 F,0,198765,199124,1,0 F,0,221940,222299,1,0 M,0,224815,,320,240 F,0,230923,233438,0,1 F,0,239187,240624,0.9972167,0
Sprite,Background,Centre,"SB\white.png",320,240 F,0,0,610,0,1 F,0,5999,6358,1,0 F,0,75345,75704,1,0 F,0,78219,78399,0.2099202,0 F,0,78758,78938,0.2508801,0 F,0,145768,147205,0,1 F,0,147205,151157,1 F,0,151157,152954,1,0 F,0,175231,175949,0,1 F,0,175949,176309,1,0 F,0,224815,224994,0.1055555,0 F,0,225353,225533,0.22528,0
Sprite,Background,Centre,"SB\wa.png",320,240 M,0,610,,320,240 C,0,610,,246,210,255 F,0,610,969,1,0 S,0,610,969,0.1,1.06256 F,0,969,,0 M,0,2047,,489,325 C,0,2047,,178,191,246 F,0,2047,2406,1,0 S,0,2047,2406,0.1,1.06256 M,0,3484,,78,128 F,0,3484,3843,1,0 S,0,3484,3843,0.1,1.06256 M,0,4203,,471,127 F,0,4203,4562,1,0 S,0,4203,4562,0.1,1.06256
Sprite,Background,Centre,"SB\wa.png",320,240 M,0,4023,,132,148 C,0,4023,,178,191,246 F,0,4023,4382,1,0 F,0,4023,4382,1,0 S,0,4023,4382,0.1,1.06256 S,0,4023,4382,0.1,1.06256 M,0,233977,,164,82 F,0,233977,234336,1,0 S,0,233977,234336,0.1,1.06256 M,0,235145,,320,246 F,0,235145,236672,1,0 S,1,235145,236672,0.1,1.06256
Sprite,Background,Centre,"SB\wa.png",320,240 M,0,3843,,149,355 C,0,3843,,246,210,255 F,0,3843,4203,1,0 S,0,3843,4203,0.1,1.06256 M,0,4741,,317,243 F,0,4741,5999,1,0 S,1,4741,5999,0.1,0.8577574
Sprite,Background,Centre,"SB\choucho.png",320,240 M,0,2047,,488,322 F,0,2047,2406,0,1 F,0,5999,,0
Sprite,Background,Centre,"SB\Black.png",320,240 F,0,148642,151157,0,0.46752 F,0,151157,158703,0.46752,0.4864 F,0,158703,159062,0.4864,0
Sprite,Background,Centre,"SB\title.png",320,240 F,0,610,969,0,1 F,0,5999,,0
Sprite,Background,Centre,"SB\wa.png",320,240 M,0,3664,,498,393 C,0,3664,,246,210,255 F,0,3664,4023,1,0 S,0,3664,4023,0.1,1.06256 F,0,4382,4741,1,0 S,0,4382,4741,0.1,1.06256 M,0,4393,,498,393 F,0,4741,,0 M,0,233438,,238,377 M,0,233438,,238,377 F,0,233438,233797,1,0 S,0,233438,233797,0.1,1.043791 M,0,234516,,527,257 F,0,234516,234875,1,0 S,0,234516,234875,0.1,1.043791
Sprite,Background,Centre,"SB\SB=A=.png",320,240 M,0,147205,,162,395 F,0,147205,147564,0,1 F,0,148642,149361,1,0.0476799
Sprite,Background,Centre,"SB\White.png",320,240 S,0,164452,,0.9999999 F,0,164452,165530,1,0
//Storyboard Layer 1 (Fail)
//Storyboard Layer 2 (Pass)
//Storyboard Layer 3 (Foreground)
//Storyboard Sound Samples
//Background Colour Transformations
3,100,163,162,255

[TimingPoints]
608,359.281437125748,4,2,1,30,1,0
5997,-100,4,1,1,50,0,0
6356,-100,4,2,2,60,0,0
23063,-100,4,2,2,50,0,0
23602,-100,4,2,2,60,0,0
27194,-100,4,2,0,60,0,0
27554,-100,4,2,2,60,0,0
27913,-100,4,2,0,60,0,0
28272,-100,4,2,2,60,0,0
28811,-100,4,2,2,50,0,0
28991,-100,4,2,2,70,0,0
29350,-100,4,2,2,60,0,0
32943,-100,4,2,0,60,0,0
33302,-100,4,2,2,60,0,0
34380,-100,4,2,0,60,0,0
34739,-100,4,2,2,60,0,0
41206,-100,4,2,2,50,0,0
48572,-100,4,2,0,50,0,0
48751,-100,4,2,2,50,0,0
51625,-100,4,2,2,40,0,0
51985,-100,4,1,1,40,0,0
52164,-100,4,1,1,40,0,1
52703,-100,4,2,2,60,0,1
61865,-100,4,2,0,60,0,1
62224,-100,4,2,2,60,0,1
64021,-100,4,2,0,60,0,1
64200,-100,4,2,2,60,0,1
70308,-100,4,2,0,60,0,1
70667,-100,4,2,2,60,0,1
71745,-100,4,2,0,60,0,1
72105,-100,4,2,2,60,0,1
75248,-100,4,2,2,60,0,0
75338,-100,4,2,2,60,0,1
76775,-100,4,2,0,60,0,1
78122,-100,4,2,2,60,0,0
78212,-100,4,2,2,60,0,1
79649,-100,4,2,0,60,0,1
81446,-100,4,2,2,60,0,1
83961,-100,4,2,2,60,0,0
86835,-100,4,1,1,50,0,0
88272,-100,4,2,0,70,0,0
89709,-100,4,1,2,40,0,0
101206,-100,4,2,2,60,0,0
104799,-100,4,2,0,60,0,0
105158,-100,4,2,2,60,0,0
112703,-100,4,1,2,50,0,0
118452,-100,4,2,2,60,0,0
123482,-100,4,2,0,60,0,0
123841,-100,4,2,2,60,0,0
124021,-100,4,1,1,60,0,1
124110,-100,4,2,2,60,0,1
135697,-100,4,1,1,60,0,1
135787,-100,4,2,2,60,0,1
144320,-100,4,2,2,80,0,1
144679,-100,4,2,2,60,0,1
147194,-100,4,2,1,60,0,0
170548,-100,4,2,0,60,0,0
176655,-100,4,2,0,30,0,0
198751,-100,4,1,1,60,0,1
198841,-100,4,2,2,60,0,1
221835,-100,4,2,2,60,0,0
221925,-100,4,2,2,60,0,1
224709,-100,4,2,2,60,0,0
224799,-100,4,2,2,60,0,1
228392,-100,4,2,0,60,0,1
228751,-100,4,2,2,60,0,1
230548,-100,4,2,2,60,0,0
231985,-100,4,2,2,50,0,0
232344,-100,4,2,2,40,0,0
232703,-100,4,2,2,30,0,0

[Colours]
Combo1 : 228,228,228
Combo2 : 166,0,0
Combo3 : 153,77,0
Combo4 : 96,255,255

[HitObjects]
256,192,3482,12,8,5997
256,192,6356,6,0,B|296:232|360:232|400:192,2,160,0|0|0
168,240,8152,1,8
64,240,8512,2,0,B|64:144,1,80,0|8
40,56,9230,6,0,B|208:56,1,160,0|0
312,56,10308,2,0,B|360:56,2,40,8|0|0
312,160,11027,1,8
352,256,11386,1,0
416,176,11745,1,8
312,160,12105,6,0,B|144:160,2,160
384,240,13901,1,8
456,320,14260,2,0,B|512:320,2,40,0|0|8
256,192,14979,12,0,17134
256,80,17853,5,4
360,80,18212,1,8
440,152,18572,2,0,B|448:192|448:192|440:240,1,80,0|8
368,304,19290,2,0,B|200:304,2,160
440,232,21087,5,8
440,232,21266,2,0,B|440:144,1,80
440,96,21805,2,0,B|440:40,2,40,8|0|0
336,112,22524,1,8
336,112,22703,2,0,B|240:112,1,80
200,112,23242,2,0,B|144:112,2,40,8|0|0
88,192,23961,5,8
88,296,24320,2,0,B|136:296|136:296|192:328|192:328|248:328,1,160,0|0
336,288,25398,1,8
432,248,25757,2,0,B|488:248,2,40,0|0|8
360,168,26476,5,0
416,80,26835,2,0,B|352:40|304:80|304:80|256:40|192:80,1,240,8|0
48,32,28452,2,0,B|32:112,1,80
80,136,28991,2,0,B|96:216,1,80,8|0
120,312,29709,6,0,B|208:312,1,80,8|0
304,312,30428,1,8
384,240,30787,1,0
328,152,31146,2,0,B|318:110|282:86,1,80,8|0
216,168,31865,1,8
224,272,32224,6,0,B|160:272|112:232|96:152|144:88,1,240,0|8
216,168,33661,2,0,B|170:213|108:218|40:184|29:94,1,240,0|8
136,104,35099,5,2
240,80,35458,2,0,B|288:88|304:136,2,80,8|2|8
136,104,36536,2,0,B|176:184|256:216,2,160,2|2|2
80,192,38332,5,8
80,296,38691,2,0,B|128:296,1,40,2|8
224,296,39230,2,0,B|224:240,1,40,8|2
304,192,39769,1,8
408,192,40128,1,2
304,192,40488,1,8
256,96,40847,6,0,B|176:96,1,80,4|8
72,96,41566,1,0
112,192,41925,1,8
32,256,42284,1,0
128,296,42643,2,0,B|168:304|224:296,2,80,8|0|8
112,192,43721,6,0,B|48:186|21:127|42:73,1,160
144,104,44799,1,8
216,168,45158,2,0,B|280:168|312:224|296:280,2,160
192,272,46955,6,0,B|136:272,1,40,8|0
64,144,47673,1,8
64,144,48033,2,0,B|176:144,2,100,0|0|0
56,248,49290,2,0,B|48:296|80:328|128:328,1,120,8|0
224,328,50188,2,0,B|248:280,3,40,0|0|8|8
160,224,51087,2,8,B|184:176,1,40
280,216,51625,6,0,B|416:216,1,120,0|4
400,64,52703,5,8
296,64,53063,2,0,B|216:72|216:72|128:64,2,160
296,168,54859,1,8
400,168,55218,6,0,B|488:168,3,80,0|8|0|8
432,264,56655,2,0,B|272:264,2,160,0|0|4
440,160,58452,6,0,B|440:112|400:88,2,80,8|0|8
336,176,59530,1,0
232,192,59889,2,0,B|232:240|272:264,2,80,8|0|8
128,216,60967,5,4
104,64,61506,2,4,B|134:57|134:57|232:88|232:88|264:80,1,160
360,80,62584,6,0,B|408:80,1,40,4|0
408,184,63122,1,4
408,184,63302,1,0
376,280,63661,6,0,B|240:280,1,120,0|8
152,280,64560,1,0
152,280,64919,1,8
48,280,65278,2,0,B|16:200,1,80,0|8
112,152,65997,2,0,B|160:80,1,80,0|8
256,128,66715,5,0
256,128,67075,1,8
200,216,67434,2,0,B|208:280|312:276|316:208,2,160
96,216,69230,1,8
32,296,69590,6,0,B|72:336|160:320|188:264|188:264|200:288|240:296|248:288,1,240,0|8
256,192,71027,2,0,B|272:112|144:48|80:136,1,240,0|8
160,200,72464,6,0,B|160:264|232:312|280:280,3,160
368,272,74979,1,8
424,192,75338,6,0,B|424:56,1,120,4|4
272,120,76416,1,4
272,120,76775,2,0,B|96:120,2,160,0|0|4
352,184,78572,6,0,B|408:184,1,40,8|4
256,264,79290,1,4
160,304,79649,2,0,B|112:248|112:248|80:168,2,160,0|0|4
256,264,81446,6,0,B|344:264,2,80,8|0|8
184,184,82524,1,0
112,104,82883,2,0,B|16:104,2,80,8|0|8
256,192,83961,12,0,85398
256,112,86835,5,0
256,112,87554,1,0
328,248,88093,2,0,B|288:288|224:288|184:248,1,160,0|2
184,192,95458,5,8
256,120,95817,1,2
288,216,96176,1,0
288,216,96356,1,2
216,296,96715,1,2
448,80,97793,2,0,B|448:136,1,40,8|8
376,192,98332,5,0
304,120,98691,1,2
304,120,98871,1,0
200,120,99230,2,0,B|104:120,1,80,2|8
448,280,100847,1,2
448,176,101206,6,0,B|448:120|448:120|424:80|432:8,2,160,4|0|0
352,224,103003,1,8
256,184,103362,1,0
256,184,103721,1,8
272,288,104081,6,0,B|192:288|192:288|120:320|120:320|40:320,1,240,0|8
40,216,105518,2,0,B|40:120,1,80,0|8
144,144,106236,2,0,B|144:64,2,80,0|8|0
232,200,107314,5,8
232,200,107673,2,0,B|400:200,2,160
168,280,109470,2,0,B|80:280,1,80,8|0
24,200,110188,5,8
120,152,110548,1,0
80,56,110907,1,8
184,64,111266,2,0,B|256:96|256:96|332:64,2,160,0|0|4
352,192,113422,6,0,B|416:256,2,80,2|0|0
256,232,114500,1,0
256,232,114859,1,2
128,320,115578,6,0,B|72:312|40:264|64:192,1,160,0|2
256,128,117015,2,0,B|176:128,2,80,0|0|2
392,288,118452,6,0,B|224:288,2,160,4|0|0
392,184,120248,1,8
392,184,120428,2,0,B|392:96,1,80,0|8
288,104,121146,1,8
184,104,121506,1,0
184,104,121685,1,8
88,136,122045,6,0,B|48:168|64:216,1,80,0|8
72,256,122584,1,4
160,208,122943,1,8
160,208,123122,2,0,B|264:176|224:296|344:272,1,200,8|4
416,144,124560,6,0,B|424:104|416:64,2,80,8|0|8
320,184,125637,1,0
216,160,125997,2,0,B|176:152|136:160,2,80,8|0|8
256,256,127075,6,0,B|192:296|192:296|104:296,2,160
360,256,128871,1,8
440,192,129230,2,0,B|440:88,2,80,0|8|0
336,152,130308,5,8
248,96,130667,2,0,B|216:88|216:88|168:112|124:88|124:88|88:96,2,160
256,200,132464,1,8
256,200,132823,5,4
360,312,133362,2,0,B|440:312,1,80,4|0
440,208,134081,1,4
360,144,134440,1,4
256,264,134979,1,4
160,304,135338,1,8
112,208,135697,6,0,B|104:160|104:160|120:96|120:96|112:48,1,160,4|0
32,120,136775,1,8
32,120,137134,2,0,B|112:136|112:136|192:136,1,160
296,136,138212,1,8
392,96,138572,5,0
392,96,138931,1,8
448,184,139290,2,0,B|428:272,1,80,0|8
328,248,140009,2,0,B|296:296|208:296|184:236,2,160,0|0|0
328,144,141805,6,0,B|312:104|328:56,2,80,8|0|8
432,128,142883,1,0
480,224,143242,1,8
408,296,143602,1,0
312,248,143961,1,8
328,144,144320,6,0,B|294:77|192:48,3,160,4|0|0|0
136,136,146835,1,8
40,104,147194,1,4
256,192,151146,12,4,152943
256,320,153661,6,0,B|88:320,2,160,2|0|2
96,192,155817,5,0
96,192,156176,1,0
96,192,156536,1,2
256,32,157254,1,0
256,32,157613,1,0
256,32,157973,2,0,B|432:32,1,160,2|4
416,136,159051,5,2
416,240,159410,2,0,B|336:240,1,80,0|2
296,336,160128,2,0,B|216:336,3,80,0|2|0|2
176,240,161566,6,0,B|96:240,1,80,0|2
96,136,162284,1,0
96,136,162643,1,2
184,72,163003,2,0,B|224:32|288:32|328:72,2,160,0|2|4
112,264,175937,6,0,B|152:224|216:224|256:264,1,160,0|2
344,320,177015,1,0
448,312,177374,2,0,B|456:264|448:232|424:216|400:208|368:200|336:200|320:176|304:152|288:128|304:92|344:56,1,320
120,72,179530,1,2
16,72,179889,1,0
120,72,180248,2,0,B|288:72,2,160,0|2|0
112,280,182404,5,2
216,256,182763,1,0
320,232,183122,1,0
264,32,183841,2,0,B|288:72|288:128|224:80|224:144|264:176,1,160,2|0
216,320,185099,2,0,B|304:320,3,80,2|0|0|2
152,192,197314,5,4
256,192,197673,2,0,B|296:152,1,40,0|4
384,136,198212,2,0,B|457:130|476:214,1,120,0|4
376,320,199290,5,8
272,320,199649,2,0,B|256:272|296:208|368:216,2,160
168,344,201446,1,8
72,312,201805,6,0,B|16:248,1,80,0|8
120,232,202524,2,0,B|168:168,1,80,0|8
72,136,203242,2,0,B|72:88|72:88|128:48|128:48|176:64,1,160
256,120,204320,1,8
192,200,204679,6,0,B|116:224|116:224|32:224,2,160
256,280,206476,2,0,B|176:304,2,80,8|0|8
360,304,207554,5,4
464,304,207913,2,0,B|464:264,1,40,0|4
400,184,208452,1,0
488,136,208811,1,0
488,136,209170,2,0,B|488:88,1,40,4|0
384,72,209709,2,0,B|304:72,1,80,2|8
256,168,210428,6,0,B|96:168,2,160,4|0|0
360,168,212224,1,8
464,168,212584,1,0
360,168,212943,1,8
288,240,213302,6,0,B|232:304|232:304|144:304,1,160,0|0
56,304,214380,1,8
88,208,214739,2,0,B|88:120|88:120|40:56,1,160
144,32,215817,1,8
248,56,216176,6,0,B|336:56|336:56|400:104,1,160
360,200,217254,1,10
256,192,217613,2,0,B|256:352,2,160
360,192,219410,5,8
360,88,219769,1,0
256,72,220128,1,8
152,88,220488,2,0,B|56:88,1,80,0|8
32,120,221027,2,0,B|28:160|32:208,1,80
80,216,221566,1,8
32,304,221925,5,4
184,344,222464,1,4
256,208,223003,6,0,B|256:112,2,80,4|0|0
320,288,224081,1,0
320,288,224440,1,0
424,288,224799,5,4
424,136,225338,1,4
280,192,225877,5,4
216,112,226236,2,0,B|128:112,1,80,0|0
120,216,226955,2,0,B|32:256,1,80,0|8
96,344,227673,6,0,B|416:344,1,320
440,240,229470,1,8
352,184,229829,1,0
376,80,230188,1,8
256,192,230548,12,0,233422
