osu file format v9

[General]
AudioFilename: Choucho - Kawaru Mirai (TV Size).mp3
AudioLeadIn: 500
PreviewTime: 51317
Countdown: 0
SampleSet: Soft
StackLeniency: 0.7
Mode: 0
LetterboxInBreaks: 0

[Editor]
Bookmarks: 5688,29042,51856
DistanceSpacing: 1
BeatDivisor: 4
GridSize: 8

[Metadata]
Title:Kawaru Mirai (TV Size)
Artist:Choucho
Creator:winber1
Version:Insane
Source:Kamisama no Memo Chou
Tags:Onosakihito opening

[Difficulty]
HPDrainRate:6
CircleSize:4
OverallDifficulty:7
ApproachRate:8
SliderMultiplier:2
SliderTickRate:2

[Events]
//Background and Video events
0,0,"bg.jpg"
//Break Periods
//Storyboard Layer 0 (Background)
//Storyboard Layer 1 (Fail)
//Storyboard Layer 2 (Pass)
//Storyboard Layer 3 (Foreground)
//Storyboard Sound Samples
//Background Colour Transformations
3,100,163,162,255

[TimingPoints]
4611,359.281437125748,4,2,0,30,1,0
6048,-100,4,1,1,60,0,0
6148,-100,4,2,1,60,0,0
17542,-100,4,2,1,50,0,0
29042,-100,4,2,1,70,0,0
49880,-100,4,2,1,70,0,0
50958,-100,4,1,1,70,0,0
51317,-100,4,2,1,40,0,0
51856,-83.3333333333333,4,1,1,100,0,1
51946,-83.3333333333333,4,2,1,80,0,1
54910,-83.3333333333333,4,1,1,80,0,1
55000,-83.3333333333333,4,2,1,80,0,1
57784,-83.3333333333333,4,1,1,80,0,1
57874,-83.3333333333333,4,2,1,80,0,1
60658,-83.3333333333333,4,1,1,100,0,1
60748,-83.3333333333333,4,2,1,80,0,1
63533,-83.3333333333333,4,1,1,100,0,1
63622,-83.3333333333333,4,2,1,80,0,1
66407,-83.3333333333333,4,1,1,100,0,1
66497,-83.3333333333333,4,2,1,80,0,1
69281,-83.3333333333333,4,1,1,100,0,1
69371,-83.3333333333333,4,2,1,80,0,1
72155,-83.3333333333333,4,1,1,100,0,1
72245,-83.3333333333333,4,2,1,80,0,1
74670,-83.3333333333333,4,2,1,80,0,0
75030,-100,4,1,1,100,0,1
75209,-100,4,2,1,80,0,1
75569,-100,4,1,1,80,0,1
75748,-100,4,2,1,80,0,1
76108,-100,4,1,1,80,0,1
76287,-100,4,2,1,80,0,1
76377,-100,4,1,1,80,0,1
76557,-100,4,2,1,80,0,1
77006,-100,4,1,1,80,0,1
77365,-100,4,2,1,80,0,1
77545,-100,4,2,1,80,0,0
77904,-100,4,1,1,100,0,1
77994,-100,4,2,1,80,0,1
78443,-100,4,1,1,100,0,1
78533,-100,4,2,1,80,0,1
78982,-100,4,1,1,100,0,1
79072,-100,4,2,1,80,0,1
79341,-83.3333333333333,4,2,1,80,0,1
80060,-83.3333333333333,4,2,1,50,0,1
80778,-83.3333333333333,4,2,1,60,0,1
82215,-83.3333333333333,4,1,1,100,0,1
82305,-83.3333333333333,4,2,1,60,0,1
84012,-200,4,2,1,60,0,0
85000,-200,4,2,1,20,0,0
85090,-200,4,2,1,20,0,0
86418,-83.3333333333333,4,2,1,30,0,0

[Colours]
Combo1 : 12,176,194
Combo2 : 3,70,143
Combo3 : 92,50,116
Combo4 : 239,61,154

[HitObjects]
256,48,5688,1,8
64,120,6048,6,0,B|56:180|104:208,1,100,4|0
192,168,6407,2,0,B|200:108|152:80,1,100,8|0
80,304,6766,5,8
164,356,6946,1,0
264,356,7125,1,8
344,296,7305,1,0
372,200,7485,5,8
320,76,7664,1,0
444,24,7844,1,8
496,148,8024,1,0
480,248,8203,6,0,B|437:279|432:336,1,100,8|0
372,200,8563,2,0,B|415:169|420:112,1,100,8|0
288,168,8922,6,0,B|224:152|156:196|88:176,1,200,8|8
304,80,9461,1,0
304,80,9640,2,0,B|396:103|399:212|329:248,1,200,8|8
272,304,10179,1,0
120,336,10359,5,8
120,336,10449,2,0,B|120:232,1,100
120,184,10718,2,0,B|120:80,1,100,8|0
256,24,11078,5,8
256,24,11167,1,0
392,136,11347,1,0
392,136,11437,1,8
232,192,11616,1,0
120,336,11796,6,0,B|164:304|216:320,1,100,8|0
312,344,12155,2,0,B|365:354|405:317,1,100,8|0
504,344,12515,2,0,B|384:320|392:176,1,200,8|8
400,104,13054,1,0
200,136,13233,6,0,B|96:136,1,100,8|0
232,40,13593,2,0,B|128:40,1,100,8|0
312,248,13952,6,0,B|416:248,1,100,8|0
280,344,14311,2,0,B|384:344,1,100,8|0
128,288,14670,5,8
68,140,14850,1,0
176,216,15030,1,8
204,60,15209,1,0
256,188,15389,1,8
360,68,15569,1,0
340,208,15748,1,8
496,168,15928,5,8
488,184,16287,1,2
480,200,16646,1,2
472,216,17006,1,8
352,320,17185,1,8
344,320,17275,1,0
336,320,17365,1,0
328,320,17455,1,0
320,320,17545,6,0,B|216:320,1,100,6|0
120,320,17904,2,0,B|96:272|120:224,1,100,2|0
168,140,18263,1,0
320,224,18443,2,0,B|432:192|440:80,2,200,2|2|0
320,224,19341,6,0,B|320:328,1,100,2|0
242,185,19700,2,0,B|242:289,1,100
168,140,20060,2,0,B|152:196|96:208,1,100,2|0
24,240,20419,6,0,B|47:295|118:290,1,100
137,365,20778,2,0,B|192:342|183:279,1,100,2|0
265,253,21137,2,0,B|242:197|183:198,1,100,0|0
152,120,21497,2,0,B|99:142|100:204,1,100,2|0
64,64,21856,5,0
160,32,22036,1,0
256,64,22215,1,2
352,32,22395,1,0
464,336,22754,1,0
464,336,22934,2,0,B|400:256|272:280,1,200,2|0
88,328,23652,6,0,B|88:224,1,100,2|0
184,56,24012,2,0,B|184:160,1,100
296,192,24371,1,2
296,192,24551,2,0,B|352:152|432:232|488:192,1,200
464,288,25090,1,2
464,288,25179,1,0
464,288,25269,2,0,B|408:288|376:336,1,100
296,280,25628,2,0,B|244:288|192:280,1,100,0|2
104,240,25988,1,0
296,280,26167,6,0,B|320:168|440:168,1,200,0|2
440,72,26706,1,0
256,32,26886,1,0
256,32,26976,1,0
256,32,27066,1,0
72,72,27245,1,2
256,112,27425,1,0
104,184,27605,5,0
104,184,27694,2,0,B|104:240|104:288,1,100
128,328,27964,2,0,B|160:288|216:288,1,100,2|0
352,320,28323,1,0
352,320,28413,2,0,B|401:325|464:320,1,100
480,280,28682,1,8
496,232,28772,1,0
488,184,28862,1,0
456,144,28952,1,0
416,120,29042,6,0,B|312:144|216:120,1,200,4|8
120,144,29581,1,0
88,240,29760,2,0,B|85:300|144:320,1,100,2|0
120,144,30119,2,0,B|123:84|64:64,1,100,8|0
192,216,30479,6,0,B|296:216,1,100,2|0
392,240,30838,1,8
408,144,31018,2,0,B|357:132|290:160|264:249|320:308,1,200,2|2
248,352,31557,2,0,B|200:344|144:352,1,100,8|0
64,296,31916,6,0,B|64:184,1,100,2|0
64,196,32275,1,8
248,352,32455,2,0,B|272:240|392:240,1,200,2|2
488,272,32994,1,8
488,272,33173,1,2
160,56,33533,1,2
160,56,33712,1,8
160,56,33892,2,0,B|164:154|160:256,1,200,2|2
216,336,34431,2,0,B|256:304|312:304,1,100,8|0
408,312,34790,5,2
429,104,34970,1,0
416,208,35149,6,0,B|357:195|327:251,1,100,8|0
408,312,35509,1,2
429,104,35688,2,0,B|365:88|277:128|253:184,2,200,8|8|2
152,136,36587,2,0,B|176:184|192:232,1,100,8|0
176,336,36946,5,2
400,272,37125,1,0
336,48,37305,1,8
112,112,37485,1,0
304,168,37664,6,0,B|345:128|398:151,1,100,2|0
368,248,38024,2,0,B|326:287|273:264,1,100,8|0
112,112,38383,6,0,B|152:208,1,100,2|0
32,208,38742,2,0,B|72:304,1,100,8|0
160,360,39102,5,2
176,264,39281,1,0
248,336,39461,1,8
264,208,39640,1,0
336,304,39820,1,2
352,152,40000,1,0
424,272,40179,1,8
440,96,40359,1,0
512,240,40539,5,2
336,304,40718,1,0
424,272,40898,1,8
248,336,41078,1,0
152,304,41257,6,0,B|97:274|104:208,1,100,2|0
136,128,41616,2,0,B|142:65|84:33,1,100,8|0
40,120,41976,5,2
136,128,42155,1,0
232,96,42335,1,8
336,96,42515,1,0
424,152,42694,1,2
480,240,42874,1,0
424,152,43054,1,8
336,96,43233,1,0
232,96,43413,6,0,B|216:184|288:240,1,150,2|0
296,280,43772,2,0,B|245:285|200:304,1,100,8|0
104,344,44131,5,2
104,344,44221,2,0,B|80:248,1,100
104,200,44491,2,0,B|80:96,1,100,8|0
160,40,44850,5,2
160,40,44940,1,0
160,40,45030,1,0
208,128,45209,1,8
400,120,45389,5,2
400,120,45479,1,0
400,120,45569,1,0
360,208,45748,1,0
248,312,45928,6,0,B|200:296,2,50,8|0|0
328,368,46287,6,0,B|424:304|408:192,1,200,2|8
280,48,46826,2,0,B|184:112|200:224,1,200
136,296,47365,1,8
72,224,47545,2,0,B|128:176|223:201|232:288,1,200,2|2
320,320,48084,1,8
368,232,48263,1,0
368,232,48353,1,0
368,232,48443,2,0,B|320:128,2,100,2|0|8
464,256,48982,2,0,B|428:304|448:368,1,100,0|2
320,320,49341,2,0,B|272:216|272:216|224:208|200:144,1,200,8|2
104,80,49880,5,8
368,40,50060,1,2
408,304,50239,1,8
144,344,50419,1,12
256,56,50778,5,2
256,328,50958,1,4
160,192,51317,5,0
256,192,51497,1,0
272,192,51587,1,0
288,192,51676,1,0
304,192,51766,1,0
320,192,51856,6,0,B|392:200|416:136,1,120.000002861023,4|2
320,72,52215,1,0
200,72,52395,1,8
200,72,52485,1,0
200,72,52575,2,0,B|128:64|104:128,1,120.000002861023,0|2
64,240,52934,1,0
144,328,53113,2,0,B|192:280|264:312,1,120.000002861023,8|0
448,232,53473,6,0,B|400:280|328:248,1,120.000002861023,4|0
240,184,53832,1,8
120,160,54012,1,0
376,176,54191,6,0,B|358:241|288:248,1,120.000002861023,2|0
171,238,54551,1,8
55,277,54730,1,0
96,104,54910,5,4
171,238,55090,1,0
256,104,55269,1,8
341,238,55449,1,0
416,104,55628,1,2
312,40,55808,2,0,B|256:0|200:40,1,120.000002861023,0|8
256,192,56167,1,0
464,232,56347,5,4
464,232,56437,1,0
464,232,56527,2,0,B|404:257|403:340,1,120.000002861023,0|8
288,304,56886,1,0
176,344,57066,1,2
176,344,57155,2,0,B|72:288,1,120.000002861023,8|0
32,240,57425,2,0,B|80:192|72:120,1,120.000002861023,8|0
176,64,57784,5,4
256,152,57964,1,0
372,188,58143,1,8
492,172,58323,1,0
336,64,58503,5,2
256,152,58682,1,0
140,188,58862,1,8
20,172,59042,1,0
80,272,59221,6,0,B|136:296|160:360,1,120.000002861023,4|0
320,248,59581,2,0,B|352:192|320:128,1,120.000002861023,8|0
192,134,59940,2,0,B|160:190|192:254,1,120.000002861023,2|0
432,272,60299,2,0,B|376:296|352:360,1,120.000002861023,8|0
176,328,60658,5,4
80,256,60838,1,0
112,136,61018,2,0,B|106:83|112:16,1,120.000002861023,8|0
336,328,61377,5,2
432,256,61557,1,0
400,136,61736,2,0,B|405:83|400:16,1,120.000002861023,8|0
256,48,62096,5,4
296,176,62275,1,2
256,304,62455,1,8
216,176,62634,1,0
80,72,62814,5,2
104,112,62904,1,0
104,160,62994,1,2
88,208,63084,1,0
88,256,63173,1,8
112,296,63263,1,0
160,312,63353,1,10
208,304,63443,1,8
240,272,63533,6,0,B|308:242|360:296,1,120.000002861023,4|0
448,264,63892,1,8
448,264,63982,1,0
448,264,64072,2,0,B|450:199|448:144,1,120.000002861023,0|2
344,80,64431,1,0
224,104,64611,1,8
224,104,64700,1,0
224,104,64790,1,0
48,56,64970,6,0,B|19:123|72:168,1,120.000002861023,4|0
176,224,65329,2,0,B|226:264|205:334,1,120.000002861023,8|0
89,291,65688,2,0,B|112:221|181:223,1,120.000002861023,2|0
296,251,66048,2,0,B|359:254|391:188,1,120.000002861023,8|0
316,86,66407,5,4
316,86,66497,1,0
316,86,66587,2,0,B|252:82|220:148,1,120.000002861023,0|8
104,184,66946,1,0
152,288,67125,1,2
264,336,67305,1,0
384,304,67485,1,8
448,208,67664,1,0
272,232,67844,6,0,B|200:224|192:152,1,120.000002861023,4|0
24,110,68203,2,0,B|96:118|104:190,1,120.000002861023,8|0
72,304,68563,6,0,B|200:304,1,120.000002861023,2|0
224,64,68922,2,0,B|352:64,1,120.000002861023,8|8
344,64,69191,1,8
344,64,69282,6,0,B|344:168|432:216,1,180.000004291535,4|0
480,232,69640,2,0,B|414:236|383:297,1,120.000002861023,8|0
256,272,70000,1,2
256,272,70090,1,0
256,272,70179,2,0,B|228:331|160:340,1,120.000002861023,0|8
56,288,70539,1,0
96,168,70718,5,4
96,168,70808,2,0,B|177:80,1,120.000002861023
192,24,71078,2,0,B|227:79|295:76,1,120.000002861023,8|0
288,200,71437,1,2
288,200,71527,1,0
288,200,71616,2,0,B|327:147|395:154,1,120.000002861023,0|8
496,216,71976,1,0
424,312,72155,5,4
400,312,72245,1,0
376,312,72335,1,0
288,312,72515,1,2
336,200,72694,5,8
312,200,72784,1,0
288,200,72874,1,0
200,200,73054,1,2
248,96,73233,5,8
224,96,73323,1,0
200,96,73413,1,0
112,328,73593,5,4
80,128,73772,1,0
272,96,73952,1,8
304,296,74131,1,2
448,360,74311,5,0
464,312,74401,1,0
448,264,74491,1,2
464,216,74581,1,0
448,176,74670,1,8
464,136,74760,1,0
448,96,74850,1,8
464,56,74940,1,8
448,16,75030,5,4
72,168,75389,1,2
72,168,75569,1,4
384,312,75928,1,2
384,312,76108,1,4
312,240,76287,1,2
376,160,76467,6,0,B|360:272|256:312,1,200,4|2
136,224,77006,2,0,B|152:112|256:72,1,200,0|2
456,24,77545,2,0,B|456:72,3,50
456,104,77904,5,4
456,136,77994,1,0
456,168,78084,1,0
456,256,78263,1,2
352,152,78443,5,4
336,179,78533,1,0
320,207,78622,1,0
276,283,78802,1,2
224,152,78982,5,4
196,167,79072,1,0
168,183,79161,1,0
139,197,79251,1,0
110,212,79341,6,0,B|136:272|128:352,1,120.000002861023,2|0
402,172,79700,2,0,B|376:112|384:32,1,120.000002861023,8|0
232,80,80060,6,8,B|208:48|160:40,2,80.0000019073487
280,80,80419,2,8,B|304:48|352:40,2,80.0000019073487
256,128,80778,6,0,B|212:192|300:304|256:360,1,240.000005722046,4|8
40,200,81497,1,2
72,88,81676,1,2
72,88,81766,1,0
72,88,81856,2,0,B|120:40|192:48,1,120.000002861023,8|0
296,80,82215,6,0,B|362:92|417:46,1,120.000002861023,4|0
464,160,82575,2,0,B|432:207|416:272,1,120.000002861023,8|0
48,160,82934,2,0,B|79:207|96:272,1,120.000002861023,2|0
256,360,83293,1,8
348,332,83473,2,0,B|320:264|256:248|192:264|164:332,1,240.000005722046,2|2
144,136,84012,6,0,B|152:64|280:76|256:136|232:196|360:208|368:136,1,300,8|0
256,192,85179,12,2,86527
