osu file format v9

[General]
AudioFilename: Choucho - Kawaru Mirai (TV Size).mp3
AudioLeadIn: 500
PreviewTime: 51317
Countdown: 0
SampleSet: Soft
StackLeniency: 0.7
Mode: 0
LetterboxInBreaks: 0

[Editor]
Bookmarks: 5688,29042,51856
DistanceSpacing: 1
BeatDivisor: 4
GridSize: 4

[Metadata]
Title:Kawaru Mirai (TV Size)
Artist:Choucho
Creator:winber1
Version:Hard
Source:Kamisama no Memo Chou
Tags:Onosakihito opening

[Difficulty]
HPDrainRate:6
CircleSize:4
OverallDifficulty:6
ApproachRate:7
SliderMultiplier:1.5
SliderTickRate:2

[Events]
//Background and Video events
0,0,"bg.jpg"
//Break Periods
//Storyboard Layer 0 (Background)
//Storyboard Layer 1 (Fail)
//Storyboard Layer 2 (Pass)
//Storyboard Layer 3 (Foreground)
//Storyboard Sound Samples
//Background Colour Transformations
3,100,163,162,255

[TimingPoints]
4611,359.281437125748,4,2,0,30,1,0
6048,-100,4,1,1,60,0,0
6148,-100,4,2,1,60,0,0
17542,-100,4,2,1,50,0,0
29042,-100,4,2,1,70,0,0
49880,-100,4,2,1,70,0,0
50958,-100,4,1,1,70,0,0
51317,-200,4,2,1,40,0,0
51856,-83.3333333333333,4,1,1,100,0,1
51946,-83.3333333333333,4,2,1,80,0,1
54910,-83.3333333333333,4,1,1,80,0,1
55000,-83.3333333333333,4,2,1,80,0,1
57784,-83.3333333333333,4,1,1,80,0,1
57874,-83.3333333333333,4,2,1,80,0,1
60658,-83.3333333333333,4,1,1,100,0,1
60748,-83.3333333333333,4,2,1,80,0,1
63533,-83.3333333333333,4,1,1,100,0,1
63622,-83.3333333333333,4,2,1,80,0,1
66407,-83.3333333333333,4,1,1,100,0,1
66497,-83.3333333333333,4,2,1,80,0,1
69281,-83.3333333333333,4,1,1,100,0,1
69371,-83.3333333333333,4,2,1,80,0,1
72155,-83.3333333333333,4,1,1,100,0,1
72245,-83.3333333333333,4,2,1,80,0,1
74670,-83.3333333333333,4,2,1,80,0,0
75030,-83.3333333333333,4,1,1,100,0,1
75209,-83.3333333333333,4,2,1,80,0,1
75569,-83.3333333333333,4,1,1,80,0,1
75748,-83.3333333333333,4,2,1,80,0,1
76108,-83.3333333333333,4,1,1,80,0,1
76287,-83.3333333333333,4,2,1,80,0,1
76377,-83.3333333333333,4,1,1,80,0,1
76557,-83.3333333333333,4,2,1,80,0,1
77006,-83.3333333333333,4,1,1,80,0,1
77365,-83.3333333333333,4,2,1,80,0,1
77545,-83.3333333333333,4,2,1,80,0,0
77904,-83.3333333333333,4,1,1,100,0,1
77994,-83.3333333333333,4,2,1,80,0,1
78443,-83.3333333333333,4,1,1,100,0,1
78533,-83.3333333333333,4,2,1,80,0,1
78982,-83.3333333333333,4,1,1,100,0,1
79072,-83.3333333333333,4,2,1,80,0,1
79341,-83.3333333333333,4,2,1,80,0,1
80060,-83.3333333333333,4,2,1,50,0,1
80778,-83.3333333333333,4,2,1,60,0,1
82215,-83.3333333333333,4,1,1,100,0,1
82305,-83.3333333333333,4,2,1,60,0,1
84012,-200,4,2,1,60,0,0
86418,-83.3333333333333,4,2,1,30,0,0

[Colours]
Combo1 : 12,176,194
Combo2 : 3,70,143
Combo3 : 92,50,116
Combo4 : 239,61,154

[HitObjects]
72,40,5688,1,8
64,192,6048,6,0,B|56:288,1,75,4|0
128,296,6407,2,0,B|136:216,1,75,8|0
168,152,6766,2,0,B|244:122|312:168,1,150,8|8
310,167,7305,1,0
356,228,7485,5,8
324,296,7664,1,0
356,228,7844,1,8
324,296,8024,1,0
372,352,8203,6,0,B|452:352,1,75,8|0
496,292,8563,2,0,B|496:212,1,75,8|0
468,148,8922,6,0,B|412:132|380:164|320:148,1,150,8|8
252,116,9461,1,0
252,116,9640,2,0,B|204:176|116:168,1,150,8|8
64,220,10179,1,0
128,340,10359,6,0,B|156:268,1,75,8|0
256,360,10718,2,0,B|256:276,1,75,8|0
384,340,11078,2,0,B|356:268,1,75,8|0
220,208,11437,2,0,B|256:188|292:208,1,75,8|0
328,140,11796,6,0,B|256:104|184:140,1,150,8|8
183,140,12335,1,0
184,216,12515,2,0,B|256:252|328:216,1,150,8|8
328,215,13054,1,0
400,252,13233,6,0,B|432:252|432:252|444:248|444:248|476:248,1,75,8|0
328,140,13593,2,0,B|344:112|344:112|346:99|346:99|362:72,1,75,8|0
184,140,13952,2,0,B|168:112|168:112|158:103|158:103|142:76,1,75,8|0
112,252,14311,2,0,B|80:252|80:252|68:256|68:256|36:256,1,75,8|0
80,176,14670,6,0,B|136:156|192:192|192:248,1,150,8|8
432,176,15389,2,0,B|376:156|320:192|320:248,1,150,8|8
256,192,15928,5,8
256,208,16287,1,2
256,224,16646,1,2
256,240,17006,1,8
256,316,17185,1,0
256,316,17545,6,0,B|180:316,1,75,6|0
112,348,17904,2,0,B|100:296|128:252|112:200,1,150,2|0
56,148,18443,2,0,B|76:200|152:208|188:160,2,150,2|2|0
56,72,19341,5,2
68,72,19700,1,0
80,72,20060,1,2
92,72,20419,6,0,B|172:72,1,75
216,16,20778,2,0,B|176:84|204:168,1,150,2|0
264,204,21317,1,0
340,204,21498,1,2
340,204,21676,2,0,B|416:176|484:216,1,150,0|0
492,292,22215,1,2
436,344,22395,1,0
340,204,22754,1,0
340,204,22934,2,0,B|288:268|192:252,1,150,2|0
80,176,23652,5,2
80,176,23832,2,0,B|136:236|108:316,1,150
168,360,24371,1,2
224,308,24551,2,0,B|276:296|320:324|372:308,1,150,0|0
428,260,25090,5,2
428,248,25449,1,0
428,236,25808,1,2
428,228,26167,6,0,B|428:152,1,75
356,124,26527,2,0,B|356:208,1,75,2|0
300,248,26887,2,0,B|300:292,2,37.5
244,200,27245,2,0,B|244:125,1,75,2|0
176,92,27605,6,0,B|128:128|48:108,1,112.5
48,144,27964,2,0,B|68:216,1,75
92,288,28323,1,0
152,344,28503,1,0
152,344,28593,1,0
152,344,28682,1,10
216,296,28862,1,0
316,340,29042,6,0,B|380:292|464:308,1,150,4|8
484,236,29581,1,0
448,172,29760,2,0,B|448:88,2,75,2|0|8
380,140,30299,2,0,B|296:120|216:184,1,150,2|2
168,144,30838,1,8
100,180,31018,2,0,B|160:228|160:280|133:354|48:352,1,225,2|10
224,336,31916,6,0,B|224:260,1,75,2|0
280,212,32275,1,8
340,256,32455,2,0,B|364:172|452:176,1,150,2|2
492,112,32994,2,0,B|476:36,1,75,8|2
236,80,33533,2,0,B|212:160,1,75,2|8
148,184,33892,2,0,B|232:192|256:272,1,150,2|2
256,272,34431,1,8
120,332,34790,5,2
44,204,35149,2,0,B|44:124,1,75,8|0
88,68,35509,1,2
132,128,35688,2,0,B|152:200|240:220,2,150,8|8|2
176,68,36587,1,8
176,68,36766,1,2
324,68,37125,2,0,B|340:28|376:12,2,75,2|8|0
316,144,37664,6,0,B|360:148|388:112,1,75,2|0
244,176,38024,2,0,B|262:216|307:222,1,75,8|0
180,128,38383,2,0,B|154:164|171:206,2,75,2|0|8
188,48,38922,2,0,B|244:56|280:116|244:176,1,150,2|2
212,224,39461,6,0,B|172:288,1,75,8|0
256,304,39820,2,0,B|256:384,1,75,2|0
300,224,40179,2,0,B|340:288,1,75,8|0
256,192,40539,12,8,41616
292,184,41796,6,0,B|340:112|428:120,1,150,2|2
452,188,42335,2,0,B|404:260|316:252,1,150,8|2
256,112,43054,1,8
120,48,43413,6,0,B|136:136|64:192,1,150,2|8
20,236,43952,1,0
20,236,44042,1,2
20,236,44131,2,0,B|24:312,1,75,0|2
80,360,44491,2,0,B|112:336|152:344,1,75,8|0
172,272,44850,6,0,B|252:296|308:232,1,150,2|8
348,172,45388,2,0,B|287:229|314:309,1,150,2|8
348,376,45928,2,0,B|328:294|245:278,2,150,2|8|8
424,364,46826,2,0,B|414:280|487:236,1,150,2|2
440,176,47365,1,8
372,144,47545,2,0,B|304:152|304:152|264:132|220:148,1,150,2|2
164,188,48084,1,8
140,260,48263,1,0
140,260,48353,1,0
140,260,48443,2,0,B|180:352,2,75,2|0|8
72,224,48982,5,8
440,160,49341,1,8
212,120,49880,5,8
328,148,50060,1,2
300,264,50239,1,8
184,236,50419,1,4
256,192,50778,5,2
256,192,50958,1,4
256,40,51317,5,0
256,117,51497,2,4,B|256:197,1,75,0|4
256,284,52036,6,0,B|284:328|336:320,1,90.0000021457673,2|0
256,284,52395,2,0,B|228:328|176:320,1,90.0000021457673,8|0
184,232,52754,1,2
184,232,52844,1,0
184,232,52934,2,0,B|168:144,1,90.0000021457673,0|8
236,84,53293,2,0,B|252:172,1,90.0000021457673,0|4
328,220,53652,5,0
388,152,53832,2,0,B|428:180|476:168,1,90.0000021457673,8|0
440,84,54191,1,2
352,72,54371,2,0,B|312:164|200:144,1,180.000004291535,8|2
132,88,54910,6,0,B|196:164|140:264,1,180.000004291535,4|8
56,264,55449,2,0,B|-8:188|48:88,1,180.000004291535,2|2
96,172,55988,1,8
132,88,56167,1,2
284,188,56527,5,2
368,156,56706,1,8
456,184,56886,1,0
424,268,57066,2,0,B|464:360,1,90.0000021457673,2|0
368,356,57425,2,0,B|276:308|196:380,1,180.000004291535,8|4
132,316,57964,5,2
100,232,58143,1,8
132,316,58323,1,2
132,136,58682,5,2
164,52,58861,1,8
132,136,59041,1,2
224,136,59221,6,0,B|276:144|292:200,1,90.0000021457673,4|0
280,280,59581,2,0,B|228:272|212:216,1,90.0000021457673,8|0
124,232,59940,2,0,B|220:188|208:68,1,180.000004291535,2|8
332,220,60658,6,0,B|384:128|484:144,1,180.000004291535,4|8
424,212,61197,2,0,B|319:194|300:95,1,180.000004291535,2|2
216,64,61736,1,8
160,136,61916,2,0,B|188:324,1,180.000004291535,2|2
272,340,62455,1,8
332,272,62634,1,0
256,220,62814,6,0,B|220:256|172:248,1,90.0000021457673,2|2
84,244,63173,1,8
52,160,63353,1,10
52,160,63443,1,8
52,160,63533,6,0,B|104:144|116:84,1,90.0000021457673,4|0
204,92,63892,2,0,B|288:36|392:88,1,180.000004291535,8|2
432,152,64431,1,2
432,152,64521,1,0
432,152,64610,2,0,B|420:248,1,90.0000021457673,8|0
448,328,64970,6,0,B|352:292|276:360,1,180.000004291535,4|8
196,328,65509,1,0
196,328,65688,1,2
196,328,65868,2,8,B|172:264|224:216|196:152,1,180.000004291535
116,108,66407,6,0,B|208:152|288:96,1,180.000004291535,4|8
212,40,66946,2,0,B|120:-4|40:60,1,180.000004291535,2|2
20,144,67485,1,8
88,200,67664,2,8,B|64:264|116:312|88:376,1,180.000004291535,2|2
172,344,68203,1,8
260,364,68383,6,0,B|304:276|408:276,1,180.000004291535,2|2
460,204,68922,1,8
392,144,69102,1,8
392,144,69191,1,8
392,144,69282,6,0,B|315:214|220:183,1,180.000004291535,4|8
48,196,70000,1,2
48,196,70179,2,0,B|72:292,1,90.0000021457673,0|8
40,368,70539,2,0,B|80:344|128:352,1,90.0000021457673,0|4
200,300,70898,1,0
204,208,71078,2,0,B|104:192|88:88,1,180.000004291535,8|2
148,24,71616,2,0,B|244:24,1,90.0000021457673,0|8
320,68,71976,1,0
396,116,72155,6,0,B|364:208|424:292,1,180.000004291535,4|2
472,212,72694,2,0,B|380:180|296:240,1,180.000004291535,8|2
228,292,73233,1,8
148,248,73413,2,0,B|180:156|120:72,1,180.000004291535,2|2
208,40,73952,1,8
236,124,74131,2,0,B|68:196,1,180.000004291535,2|2
52,284,74670,1,8
128,336,74850,1,8
128,336,74940,1,8
128,336,75030,6,0,B|184:260|288:272,1,180.000004291535,4|2
344,344,75569,2,0,B|316:160,1,180.000004291535,4|2
392,116,76108,2,0,B|408:232,1,90.0000021457673,4|2
472,264,76467,6,0,B|372:224|304:296,1,180.000004291535,0|2
205,293,77005,2,0,B|140:224|40:264,1,180.000004291535,0|2
52,172,77545,2,0,B|52:80,1,90.0000021457673
128,36,77904,5,4
432,64,78263,1,2
432,64,78443,1,4
256,300,78802,1,2
256,300,78982,1,4
256,300,79161,1,0
188,240,79341,6,0,B|120:152|256:16|392:152|324:240,1,360.000008583069,8|8
284,280,80179,2,8,B|253:268|224:280,2,60.0000014305115
256,192,80778,12,4,82215
212,216,82575,2,0,B|224:312,2,90.0000021457673,8|2|0
300,168,83114,2,0,B|288:72,1,90.0000021457673,0|8
168,196,83472,2,0,B|212:220|256:192|296:164|344:188,1,180.000004291535,2|2
256,276,84013,1,8
256,192,84191,12,2,86527
