osu file format v9

[General]
AudioFilename: Choucho - Kawaru Mirai (TV Size).mp3
AudioLeadIn: 500
PreviewTime: 51317
Countdown: 0
SampleSet: Soft
StackLeniency: 0.7
Mode: 0
LetterboxInBreaks: 0

[Editor]
Bookmarks: 5688,29042,51856
DistanceSpacing: 1
BeatDivisor: 2
GridSize: 4

[Metadata]
Title:Kawaru Mirai (TV Size)
Artist:Choucho
Creator:winber1
Version:Easy
Source:Kamisama no Memo Chou
Tags:Onosakihito opening

[Difficulty]
HPDrainRate:1
CircleSize:3
OverallDifficulty:2
ApproachRate:3
SliderMultiplier:0.9
SliderTickRate:2

[Events]
//Background and Video events
0,0,"bg.jpg"
//Break Periods
//Storyboard Layer 0 (Background)
//Storyboard Layer 1 (Fail)
//Storyboard Layer 2 (Pass)
//Storyboard Layer 3 (Foreground)
//Storyboard Sound Samples
//Background Colour Transformations
3,100,163,162,255

[TimingPoints]
4611,359.281437125748,4,2,0,30,1,0
6048,-100,4,1,1,60,0,0
6148,-100,4,2,1,60,0,0
17545,-100,4,2,1,50,0,0
29042,-100,4,2,1,60,0,0
49880,-100,4,2,1,80,0,0
50958,-100,4,1,1,80,0,0
51856,-100,4,1,1,100,0,1
51946,-100,4,2,1,80,0,1
54910,-100,4,1,1,80,0,1
55000,-100,4,2,1,80,0,1
57784,-100,4,1,1,80,0,1
57874,-100,4,2,1,80,0,1
60658,-100,4,1,1,100,0,1
60748,-100,4,2,1,80,0,1
63353,-100,4,1,1,100,0,1
63622,-100,4,2,1,80,0,1
72155,-100,4,1,1,100,0,1
72245,-100,4,2,1,80,0,1
74670,-100,4,2,1,80,0,0
75030,-100,4,1,1,100,0,1
76557,-100,4,2,1,80,0,1
77365,-100,4,2,1,80,0,1
77545,-100,4,2,1,80,0,0
77904,-100,4,1,1,100,0,1
79341,-100,4,2,1,80,0,1
80778,-100,4,2,1,80,0,1
82215,-100,4,1,1,100,0,1
82305,-100,4,2,1,80,0,1
84012,-100,4,2,1,80,0,0
84191,-100,4,2,1,30,0,0

[Colours]
Combo1 : 12,176,194
Combo2 : 3,70,143
Combo3 : 92,50,116
Combo4 : 239,61,154

[HitObjects]
328,128,5689,1,8
388,204,6048,6,0,B|288:216|248:328,1,180,4|8
88,244,7485,2,0,B|68:56,1,180,8|8
196,192,8922,2,0,B|236:104|348:108,1,180,8|8
424,268,10359,2,0,B|384:356|272:352,1,180,8|8
192,324,11437,1,2
104,328,11796,6,0,B|136:148,1,180,8|8
280,44,13233,2,0,B|340:120|444:104,1,180,8|8
468,284,14670,5,8
380,308,15030,1,2
292,284,15389,1,8
236,212,15748,1,8
256,192,15928,12,4,17545
176,104,18263,6,0,B|176:180|104:208,2,135,2|0|2
256,60,19700,2,0,B|344:88,1,90,0|2
416,140,20419,2,0,B|440:71|506:37,2,135,0|2|2
412,228,21855,2,0,B|252:256,1,135,0|2
200,296,22754,2,0,B|144:308,1,45,2|0
68,328,23293,5,0
48,240,23652,2,0,B|72:104,1,135,2|0
148,156,24550,2,0,B|208:200|284:176,1,135,2|2
340,242,25449,1,0
340,242,25808,1,2
403,305,26167,2,0,B|447:173,1,135,0|2
328,52,28143,6,0,B|280:112|192:96,1,135,2|2
124,68,29042,5,4
124,68,29401,2,0,B|84:252,1,180,2|8
144,312,30479,1,0
232,292,30838,2,0,B|304:228|404:240,1,180,2|8
432,324,31916,6,0,B|456:144,1,180,2|2
396,76,32994,1,8
312,108,33353,2,0,B|288:288,1,180,2|2
216,344,34431,1,8
144,288,34790,5,0
144,288,35149,2,0,B|176:180|92:116,1,180,2|8
24,168,36227,1,0
48,256,36587,2,0,B|220:200,1,180,2|8
308,216,37664,2,0,B|480:160,1,180,2|2
436,80,38742,1,8
348,64,39102,6,0,B|256:96,1,90,2|0
172,84,39820,2,0,B|208:124|192:172,1,90,2|8
124,224,40539,6,0,B|224:200|296:272,1,180,4|2
376,232,41616,1,8
308,172,41976,2,0,B|211:206|189:305,1,180,0|2
108,336,43054,1,8
40,276,43413,6,0,B|32:124,2,135,0|2|8
140,24,45569,2,0,B|168:64|216:72,1,90,2|8
296,36,46287,6,0,B|276:172,2,135,2|2|8
380,68,47724,2,0,B|364:180,3,90,2|0|2|8
440,212,49161,2,0,B|404:304|296:332,1,180,2|8
188,268,50419,5,8
152,184,50778,2,0,B|100:184,1,45,2|0
296,60,51856,6,0,B|280:208,1,135,4|8
340,260,52754,2,0,B|388:248|424:276,1,90,2|8
368,344,53473,1,2
280,324,53832,2,0,B|104:288,1,180,8|8
72,204,54911,6,0,B|73:128|48:64,2,135,4|8|8
152,164,56347,2,0,B|240:184,1,90,2|8
304,120,57066,2,0,B|392:140,1,90,2|8
460,80,57784,6,0,B|416:168|444:256,1,180,4|2
400,332,58862,1,8
328,280,59221,2,0,B|240:308,1,90,2|8
156,340,59940,1,2
156,340,60299,1,8
84,284,60658,6,0,B|86:204|40:156,1,135,4|8
96,84,61557,1,0
184,88,61916,2,0,B|272:72,1,90,8|8
408,56,62814,6,0,B|408:108,1,45,4|2
492,136,63354,6,0,B|392:192|384:332,1,225,4|2
296,340,64610,1,8
236,272,64970,2,0,B|292:92,1,180,2|2
224,36,66048,1,8
140,76,66407,6,0,B|96:124|8:112,2,135,2|2|8
216,128,67843,2,0,B|256:188|252:264,1,135,2|8
240,344,68743,1,8
256,192,69101,12,2,70539
292,72,71258,6,0,B|336:200,1,135,2|8
320,288,72155,2,0,B|368:344|440:340,2,135,4|8|8
236,256,73593,2,0,B|140:280,1,90,2|8
96,204,74311,2,0,B|192:180,1,90,2|8
224,100,75030,6,0,B|280:52|356:60,2,135,4|4|4
296,156,76467,2,0,B|356:376,1,225,0|8
232,316,77904,6,0,B|176:364|100:356,2,135,4|4|4
204,232,79341,2,0,B|164:88,2,135,8|8|8
256,192,80778,12,4,82215
416,216,82933,2,0,B|360:172|264:180,1,135,8|8
228,244,83832,2,0,B|236:300,1,45,2|8
256,192,84191,12,2,86527
