osu file format v9

[General]
AudioFilename: Kawaru Mirai.mp3
AudioLeadIn: 2000
PreviewTime: 51477
Countdown: 0
SampleSet: Soft
StackLeniency: 0.7
Mode: 0
LetterboxInBreaks: 0

[Editor]
DistanceSpacing: 1
BeatDivisor: 4
GridSize: 4

[Metadata]
Title:Kawaru Mirai (TV Size)
Artist:Choucho
Creator:kusano
Version:Insane
Source:Kamisama no Memo Chou
Tags:opening Kitsuneko climbb65588 Climbb

[Difficulty]
HPDrainRate:7
CircleSize:4
OverallDifficulty:7
ApproachRate:8
SliderMultiplier:1.74
SliderTickRate:1

[Events]
//Background and Video events
Video,0,"kamimemo op.avi"
0,0,"c0138336_4dc97b5f0f406.jpg"
//Break Periods
//Storyboard Layer 0 (Background)
//Storyboard Layer 1 (Fail)
//Storyboard Layer 2 (Pass)
//Storyboard Layer 3 (Foreground)
//Storyboard Sound Samples
//Background Colour Transformations
3,100,163,162,255

[TimingPoints]
460,359.281437125748,4,2,1,60,1,0
5759,-100,4,2,1,40,0,0
6118,-100,4,2,1,75,0,0
51747,-100,4,2,1,30,0,0
52016,-100,4,2,1,90,0,1
75100,-100,4,2,1,90,0,0
75190,-100,4,2,1,90,0,1
75549,-100,4,2,1,90,0,0
75729,-100,4,2,1,90,0,1
76088,-100,4,2,1,90,0,0
76268,-100,4,2,1,90,0,1
77974,-100,4,2,1,90,0,0
78064,-100,4,2,1,90,0,1
78424,-100,4,2,1,90,0,0
78603,-100,4,2,1,90,0,1
78962,-100,4,2,1,90,0,0
79142,-100,4,2,1,90,0,1
83813,-100,4,2,1,90,0,0
84172,-200,4,2,1,60,0,0
84891,-200,4,2,1,40,0,0
85070,-200,4,2,1,5,0,0
86687,-200,4,2,1,50,0,0

[Colours]
Combo1 : 193,255,132
Combo2 : 188,188,188
Combo3 : 255,170,255
Combo4 : 255,179,102
Combo5 : 185,220,255

[HitObjects]
96,112,459,2,0,B|168:52|280:84,1,174,2|0
284,188,998,2,0,B|212:248|100:216,1,174,0|0
184,120,1537,2,0,B|208:232,1,87,2|0
352,272,1897,6,0,B|408:248|408:144|344:128,1,174,2|2
288,200,2436,2,0,B|216:144|112:176,1,174,2|0
56,228,2974,2,0,B|44:272|56:320,1,87
132,272,3334,6,0,B|232:272,2,87,2|0|0
56,228,3873,1,2
256,36,4232,1,0
456,228,4591,1,2
256,36,5849,5,0
104,312,6208,6,0,B|16:256|56:144,1,174,4|8
152,208,6747,2,0,B|224:144|352:176,1,174,2|0
404,172,7286,2,0,B|444:200|452:252,1,87,8|0
368,344,7645,6,0,B|328:316|320:264,2,87,2|0|8
456,344,8184,1,0
456,256,8364,2,0,B|480:212|448:152,1,87,2|0
336,120,8723,2,0,B|312:164|344:224,1,87,8|0
256,288,9082,6,0,B|184:240|72:256,2,174,4|8|0
320,348,9980,1,0
408,356,10160,2,0,B|456:344|476:304,1,87,8|0
376,248,10519,6,0,B|401:205|387:163,1,87,2|0
276,184,10879,2,0,B|263:135|223:116,1,87,8|0
112,116,11238,1,2
80,140,11328,1,0
60,172,11418,1,0
48,208,11507,1,0
48,248,11597,1,8
56,288,11687,1,0
76,324,11777,1,0
112,344,11867,1,0
152,348,11957,6,0,B|197:361|260:344,1,87,4|0
328,256,12316,2,0,B|282:242|220:260,1,87,8|0
332,348,12675,2,0,B|428:348,2,87,2|0|8
244,348,13214,1,0
156,348,13394,6,0,B|136:304|160:252,1,87,2|0
248,172,13753,2,0,B|268:216|244:268,1,87,8|0
156,164,14112,2,0,B|156:72,2,87,2|0|8
156,252,14651,1,0
256,192,14831,12,2,16088
312,104,16448,6,0,B|356:88|412:108,1,87,0|8
252,180,16807,2,0,B|210:164|166:180,1,87,0|2
308,264,17166,2,0,B|349:279|393:263,2,87,0|8|0
228,296,17705,6,0,B|184:312|136:292,1,87,4|0
60,192,18064,2,0,B|104:176|152:196,1,87,2|0
228,296,18424,2,0,B|248:340|320:344,1,87
372,296,18783,1,2
300,248,18962,6,0,B|244:224|244:120|312:104,1,174
408,208,19501,2,0,B|424:252|408:296,1,87,2|0
192,248,19861,2,0,B|176:204|192:160,1,87
312,116,20220,2,0,B|328:160|312:204,1,87,2|0
190,162,20579,6,0,B|120:104|16:128,1,174,0|2
28,212,21118,1,0
28,300,21298,1,0
28,300,21388,1,0
28,300,21477,2,0,B|124:300,1,87,0|2
196,268,21837,6,0,B|268:212|372:236,1,174
444,256,22376,2,0,B|480:224|488:180,1,87,2|0
420,60,22735,2,0,B|384:92|376:136,1,87,0|0
304,180,23094,1,2
304,180,23184,1,0
304,180,23274,1,0
196,268,23454,6,0,B|144:264|120:208,1,87,4|0
160,96,23813,2,0,B|212:100|236:156,1,87,2|0
108,192,24172,2,0,B|216:192,1,87
284,192,24531,1,2
460,192,24711,1,0
372,192,24891,6,0,B|376:136|420:116,1,87
416,268,25250,2,0,B|412:324|368:344,1,87,2|0
296,300,25609,2,0,B|204:300,1,87
120,300,25968,1,2
120,300,26058,1,0
120,300,26148,1,0
212,208,26328,6,0,B|236:164|212:120,1,87
92,76,26687,1,2
92,76,26777,2,0,B|68:120|92:164,1,87
120,192,27046,2,0,B|120:288,1,87
120,368,27406,1,2
120,192,27585,1,0
216,280,27765,5,0
216,280,27855,2,0,B|260:296|308:280,1,87
324,244,28124,2,0,B|416:244,2,87,2|0|0
248,200,28663,1,0
136,200,28843,1,2
100,188,28933,1,0
72,164,29022,1,0
56,128,29112,1,0
56,88,29202,6,0,B|84:44|144:28,1,87,4|0
200,80,29561,2,0,B|244:68|296:92,1,87,8|0
292,176,29921,2,0,B|336:163|396:180,1,87,2|0
376,264,30280,2,0,B|331:276|272:260,1,87,8|0
204,248,30639,5,0
116,320,30819,1,2
116,176,30998,1,8
116,320,31178,1,0
32,248,31358,2,0,B|8:292|32:336,1,87,2|0
204,248,31717,2,0,B|228:204|204:160,1,87,8|0
116,320,32076,6,0,B|100:276|116:236,1,87,2|0
228,216,32436,2,0,B|247:173|287:156,1,87,8|0
364,240,32795,2,0,B|408:224|448:240,2,87,2|0|8
304,304,33334,6,0,B|232:248|120:272,1,174,2|0
60,304,33873,1,8
60,216,34052,2,0,B|44:172|64:128,1,87,0|2
148,120,34412,1,0
232,60,34591,1,10
272,60,34681,1,0
308,72,34771,1,0
332,104,34861,1,0
336,144,34951,6,0,B|336:256,1,87,4|0
212,324,35310,2,0,B|212:212,1,87,8|0
100,236,35669,2,0,B|84:188|104:144,1,87,2|0
212,236,36028,2,0,B|249:253|297:237,1,87,8|0
256,132,36388,6,0,B|256:304,2,174,2|8|2
256,44,37286,1,0
180,180,37465,2,0,B|132:188|84:148,1,87,8|0
332,100,37825,6,0,B|380:92|428:132,1,87,2|0
372,228,38184,2,0,B|411:256|417:318,1,87,8|0
312,348,38543,1,2
256,228,38723,1,0
204,348,38903,1,8
204,348,39082,6,0,B|108:348|56:272,1,174,2|0
44,184,39621,2,0,B|44:132|88:100,1,87,8|0
180,156,39980,2,0,B|216:119|270:127,1,87,2|0
324,220,40340,6,0,B|392:160|512:200,2,174,8|4|8
292,300,41238,1,0
216,336,41418,2,0,B|184:300|132:296,1,87,2|0
64,336,41777,2,0,B|64:228,1,87,8|0
64,160,42136,5,2
64,160,42226,1,0
64,160,42316,2,0,B|72:112|112:88,2,87,0|8|0
144,264,42855,2,0,B|181:241|189:193,1,87,2|0
192,108,43214,2,0,B|292:108,1,87,8|0
316,188,43573,6,0,B|336:240|448:240|464:184,2,174,4|8|2
384,124,44471,1,0
316,188,44651,2,0,B|266:174|266:62|316:44,1,174,8|2
384,124,45190,2,0,B|420:160|408:220,1,87,0|8
232,160,45549,1,0
168,68,45729,5,2
132,80,45819,1,0
100,104,45909,1,0
80,136,45998,1,0
68,172,46088,1,10
64,212,46178,1,0
72,252,46268,1,0
88,288,46358,1,0
116,316,46448,6,0,B|192:376|284:344,1,174,4|8
308,264,46986,2,0,B|412:264,2,87,2|0|0
228,232,47525,1,8
148,268,47705,1,0
68,232,47885,6,0,B|44:188|72:140,1,87,4|0
188,104,48244,2,0,B|212:148|184:196,1,87,8|0
148,268,48603,2,0,B|168:312|224:324,1,87
300,324,48962,1,8
256,248,49142,6,0,B|256:160,1,87,4|0
360,200,49501,2,0,B|384:159|420:138,2,87,0|8|0
336,284,50040,1,4
256,148,50220,1,0
176,284,50400,1,8
256,248,50579,5,4
256,24,50939,5,8
256,24,51118,1,8
256,336,51477,1,0
256,336,51657,2,0,B|256:249,1,87
104,292,52016,6,0,B|44:220|64:120,1,174,6|0
100,52,52555,1,8
172,100,52735,2,0,B|216:72|292:84,1,87
340,96,53094,1,0
380,112,53184,1,0
412,140,53274,2,0,B|432:180|428:232,1,87,8|0
356,312,53633,6,0,B|280:260|160:284,1,174,4|8
112,316,54172,1,0
32,280,54352,2,0,B|16:232|36:176,1,87,0|0
80,124,54711,1,8
204,76,54891,6,0,B|220:124|200:180,2,87,0|4|0
80,124,55430,1,8
80,124,55609,2,0,B|288:124,1,174
340,124,56148,1,8
432,192,56328,1,0
340,256,56507,5,4
340,256,56597,1,0
340,256,56687,1,0
172,256,56867,1,8
172,256,57046,2,0,B|192:208|260:200,1,87,0|0
292,324,57406,2,0,B|272:372|204:380,2,87,0|8|0
268,212,57945,6,0,B|268:112,1,87,4|0
188,92,58304,2,0,B|160:48|92:48,2,87,8|0|0
140,240,58843,2,0,B|92:236|68:196,1,87,0|8
188,92,59202,6,0,B|236:96|260:136,1,87,0|0
260,264,59561,1,0
260,264,59651,1,0
260,264,59741,2,0,B|360:264,1,87,8|0
436,264,60100,1,2
348,136,60280,1,0
348,292,60460,1,10
436,164,60639,1,0
256,164,60819,6,0,B|156:164,2,87,4|0|8
344,164,61358,2,0,B|364:208|344:252,1,87,4|0
168,340,61717,2,0,B|148:296|168:252,1,87,0|8
344,296,62076,1,4
344,296,62166,1,0
344,296,62256,6,0,B|304:320|248:292,1,87,0|0
168,136,62615,2,0,B|208:112|264:140,1,87,8|0
388,216,62974,1,2
376,252,63064,1,0
356,284,63154,1,0
328,312,63244,1,0
296,336,63334,1,10
260,348,63424,1,0
220,352,63513,1,0
180,348,63603,1,0
140,340,63693,6,0,B|64:288|72:184,1,174,6|8
184,184,64232,2,0,B|248:120|360:144,1,174,2|2
416,192,64771,2,0,B|376:216|360:272,1,87,8|0
304,320,65130,6,0,B|240:256|128:280,1,174,4|8
56,296,65669,1,0
176,196,65849,1,2
64,184,66028,2,0,B|64:132|112:104,1,87,0|8
176,196,66388,1,0
168,308,66567,6,0,B|252:352|352:328,1,174,4|8
420,308,67106,2,0,B|448:268|448:208,1,87
316,225,67465,2,0,B|316:184|344:144,1,87,2|8
452,104,67825,6,0,B|400:28|288:44,1,174,4|0
216,68,68364,1,8
132,40,68543,2,0,B|60:100|60:232,1,174,4|0
84,280,69082,1,8
84,280,69172,1,0
84,280,69262,1,0
160,236,69442,6,0,B|240:188|356:220,1,174,4|8
396,268,69980,1,0
468,216,70160,2,0,B|492:172|468:132,1,87,2|0
344,88,70519,2,0,B|320:132|344:172,1,87,8|0
396,268,70879,6,0,B|360:300|288:292,1,87,0|0
236,260,71238,2,0,B|196:236|140:244,1,87,8|0
68,260,71597,1,0
68,260,71687,1,0
68,260,71777,2,0,B|68:168,2,87,0|8|0
152,360,72316,6,0,B|152:240,1,87,4|0
152,184,72675,1,8
224,272,72855,2,0,B|300:224|400:252,1,174,4|0
448,316,73394,1,8
320,336,73573,6,0,B|292:156,1,174,4|0
280,80,74112,1,8
212,132,74292,2,0,B|88:132,2,87,4|0|0
364,80,74831,1,8
404,80,74921,1,0
436,100,75010,1,0
452,136,75100,1,0
444,176,75190,6,0,B|264:176,1,174,4|8
124,268,75729,2,0,B|232:268,2,87,4|0|0
36,268,76268,2,0,B|16:224|36:184,1,87,4|0
124,176,76627,6,0,B|124:68,1,87,2|0
232,128,76986,1,10
232,128,77166,2,0,B|260:84|332:80,1,87,2|0
332,192,77525,2,0,B|382:180|436:228,1,87,2|8
184,260,77885,1,0
168,296,77974,1,0
184,332,78064,6,0,B|364:332,1,174,4|8
464,196,78603,2,0,B|348:196,2,87,4|0|0
215,254,79142,2,0,B|256:276|304:252,1,87,4|0
256,180,79501,6,0,B|256:80,1,87,2|0
152,136,79861,1,10
152,136,79951,1,0
152,136,80040,1,2
360,136,80220,2,0,B|404:164|416:220,1,87,0|2
360,304,80579,2,0,B|264:304,1,87,8|2
152,304,80939,6,0,B|80:248|88:148,1,174,4|8
100,64,81477,1,0
172,116,81657,2,0,B|208:136|260:115,1,87,2|0
344,20,82016,2,0,B|300:8|256:20,1,87,8|0
256,116,82376,6,0,B|256:216,1,87,4|0
256,292,82735,1,8
164,224,82915,1,0
164,224,83004,1,0
164,224,83094,2,0,B|64:224,2,87,4|0|8
256,156,83633,1,0
348,224,83813,2,0,B|364:268|348:308,1,87,4|0
256,330,84172,6,0,B|256:150,1,174
256,192,85070,12,2,86687
