osu file format v9

[General]
AudioFilename: Kawaru Mirai.mp3
AudioLeadIn: 2000
PreviewTime: 51477
Countdown: 0
SampleSet: Soft
StackLeniency: 0.7
Mode: 0
LetterboxInBreaks: 0

[Editor]
DistanceSpacing: 1
BeatDivisor: 4
GridSize: 4

[Metadata]
Title:Kawaru Mirai (TV Size)
Artist:Choucho
Creator:kusano
Version:Easy
Source:Kamisama no Memo Chou
Tags:opening Kitsuneko climbb65588 Climbb

[Difficulty]
HPDrainRate:2
CircleSize:3
OverallDifficulty:2
ApproachRate:3
SliderMultiplier:0.899999999999999
SliderTickRate:1

[Events]
//Background and Video events
Video,0,"kamimemo op.avi"
0,0,"c0138336_4dc97b5f0f406.jpg"
//Break Periods
//Storyboard Layer 0 (Background)
//Storyboard Layer 1 (Fail)
//Storyboard Layer 2 (Pass)
//Storyboard Layer 3 (Foreground)
//Storyboard Sound Samples
//Background Colour Transformations
3,100,163,162,255

[TimingPoints]
460,359.281437125748,4,2,1,60,1,0
5759,-100,4,2,1,20,0,0
6118,-100,4,2,1,75,0,0
52016,-100,4,2,1,90,0,1
75100,-100,4,2,1,90,0,0
75190,-100,4,2,1,90,0,1
75549,-100,4,2,1,90,0,0
75729,-100,4,2,1,90,0,1
76088,-100,4,2,1,90,0,0
76268,-100,4,2,1,90,0,1
77974,-100,4,2,1,90,0,0
78064,-100,4,2,1,90,0,1
78424,-100,4,2,1,90,0,0
78603,-100,4,2,1,90,0,1
78962,-100,4,2,1,90,0,0
79142,-100,4,2,1,90,0,1
83813,-100,4,2,1,90,0,0
84172,-200,4,2,1,5,0,0
86687,-200,4,2,1,50,0,0

[Colours]
Combo1 : 193,255,132
Combo2 : 188,188,188
Combo3 : 255,170,255
Combo4 : 255,179,102
Combo5 : 185,220,255

[HitObjects]
96,120,459,2,0,B|176:68|272:96,1,180,2|2
376,240,1897,2,0,B|300:296|200:264,2,180,2|0|2
384,104,3873,2,0,B|280:104,2,89.9999999999999,2|0|2
124,284,5849,6,0,B|220:284,1,89.9999999999999,4|4
304,284,6567,2,0,B|356:288|412:264,1,89.9999999999999,8|2
464,216,7286,2,0,B|464:120|384:52,1,180,8|8
300,52,8364,2,0,B|108:52,1,180,0|2
28,204,9801,6,0,B|220:204,1,180,0|8
364,292,11238,2,0,B|428:212|368:120,1,180,2|4
212,44,12675,2,0,B|148:124|208:216,2,180,2|8|2
256,192,14831,12,2,16268
368,68,16986,6,0,B|408:100|420:160,1,89.9999999999999,2|8
416,232,17705,2,0,B|368:308|256:324,1,180,4|0
88,316,19142,2,0,B|72:268|88:212,1,89.9999999999999,0|2
108,140,19861,2,0,B|128:92|184:64,1,89.9999999999999,0|2
256,60,20579,6,0,B|344:40|456:64,1,180,0|2
464,240,22016,2,0,B|376:260|264:236,1,180,0|2
168,104,23454,6,0,B|124:128|108:184,1,89.9999999999999,4|2
108,260,24172,2,0,B|128:304|168:324,1,89.9999999999999,0|2
260,328,24891,2,0,B|348:296|448:328,2,180,0|2|2
80,324,27046,6,0,B|51:235|83:147,1,180,0|2
144,80,28124,2,0,B|236:64|328:80,1,180,2|2
412,80,29202,6,0,B|448:116|452:180,1,89.9999999999999,4|8
396,232,29921,2,0,B|396:282|353:330,1,89.9999999999999,2|8
276,300,30639,1,2
96,300,31358,2,0,B|96:196,2,89.9999999999999,2|8|2
248,204,32795,6,0,B|248:112,1,89.9999999999999,0|8
336,136,33513,2,0,B|388:60,1,89.9999999999999,0|8
440,136,34232,2,0,B|492:212,2,89.9999999999999,0|8|4
280,52,35669,6,0,B|188:16|96:52,1,180,2|2
48,120,36747,2,0,B|8:204|32:296,1,180,8|8
116,260,37825,6,0,B|160:248|212:260,1,89.9999999999999,2|8
268,324,38543,2,0,B|312:336|364:324,1,89.9999999999999,0|8
440,288,39262,2,0,B|440:180,1,89.9999999999999,2|8
352,196,39980,2,0,B|352:96,1,89.9999999999999,2|8
272,64,40699,6,0,B|184:28|88:64,2,180,4|8|2
360,84,42495,2,0,B|440:144|436:248,1,180,8|8
400,320,43573,6,0,B|300:320,1,89.9999999999999,2|8
220,324,44292,2,0,B|172:324|128:304,1,89.9999999999999,0|8
68,244,45010,2,0,B|68:140,3,89.9999999999999,0|8|0|8
72,64,46448,6,0,B|152:24|264:48,1,180,4|8
384,160,47885,2,0,B|304:200|192:176,1,180,2|2
128,136,48962,6,0,B|92:168|80:224,1,89.9999999999999,8|2
76,304,49681,2,0,B|168:304,1,89.9999999999999,8|2
256,300,50400,1,8
256,300,50579,2,0,B|256:156,1,135,4|4
256,76,51477,6,0,B|320:48|392:80,1,135,2|4
456,192,52555,6,0,B|468:236|452:292,1,89.9999999999999,8|2
392,348,53274,2,0,B|348:360|292:344,1,89.9999999999999,8|4
212,344,53992,1,8
120,344,54352,6,0,B|48:284|48:176,2,180,2|4|8
256,228,56507,2,0,B|348:260|440:224,1,180,4|0
456,140,57585,6,0,B|464:92|432:52,1,89.9999999999999,8|4
260,100,58663,2,0,B|68:100,1,180,8|4
76,276,60100,6,0,B|118:296|168:276,1,89.9999999999999,2|8
244,240,60819,2,0,B|384:240,1,135,4|4
456,76,62076,2,0,B|360:76,1,89.9999999999999,4|2
232,76,62974,6,0,B|128:76|72:172,1,180,2|4
112,336,64412,2,0,B|216:336|272:240,1,180,2|4
360,100,65849,6,0,B|404:116|424:164,2,89.9999999999999,2|8|4
180,100,67286,2,0,B|88:100,2,89.9999999999999,2|8|4
132,272,68723,6,0,B|220:308|312:272,1,180,8|4
400,120,70160,2,0,B|312:84|220:120,1,180,8|2
44,124,71597,2,0,B|44:212,1,89.9999999999999,2|8
44,304,72316,6,0,B|144:304,1,89.9999999999999,4|8
224,304,73034,2,0,B|300:304|360:244,2,135,4|2|8
180,224,74471,1,2
184,44,75190,5,4
300,112,75729,1,4
416,40,76268,2,0,B|444:124|416:228,1,180,4|2
372,296,77346,1,2
192,292,78064,5,4
100,192,78603,1,4
196,96,79142,2,0,B|284:56|388:96,2,180,4|8|8
104,100,80939,6,0,B|64:188|100:284,1,180,4|8
264,344,82376,2,0,B|304:256|268:160,2,180,4|8|4
256,192,84172,12,2,86687
