osu file format v9

[General]
AudioFilename: ii.mp3
AudioLeadIn: 1996
PreviewTime: -1
Countdown: 1
SampleSet: Soft
StackLeniency: 0.2
Mode: 0
LetterboxInBreaks: 1

[Editor]
DistanceSpacing: 1
BeatDivisor: 2
GridSize: 8

[Metadata]
Title:Kawaru Mirai (TV Size)
Artist:Choucho
Creator:akarina
Version:Easy
Source:Kamisama no memo chou
Tags:

[Difficulty]
HPDrainRate:2
CircleSize:3
OverallDifficulty:3
ApproachRate:3
SliderMultiplier:0.999999999999999
SliderTickRate:1

[Events]
//Background and Video events
Video,0,"Kamisama no memo chou OP.avi"
0,0,"BG.jpg"
//Break Periods
//Storyboard Layer 0 (Background)
//Storyboard Layer 1 (Fail)
//Storyboard Layer 2 (Pass)
//Storyboard Layer 3 (Foreground)
//Storyboard Sound Samples
//Background Colour Transformations
3,100,163,162,255

[TimingPoints]
460,359.281437125748,4,2,0,65,1,0
6195,-100,4,2,1,65,0,0
52016,-100,4,2,1,65,0,1

[Colours]
Combo1 : 255,128,0
Combo2 : 0,128,255
Combo3 : 255,255,128
Combo4 : 255,128,192

[HitObjects]
120,256,460,1,2
256,328,998,1,0
384,256,1537,1,2
384,152,1897,2,0,B|384:88|384:88|144:88,1,300,2|0
48,88,3334,6,0,B|48:264,1,150,2|0
152,240,4232,1,0
152,240,4591,1,2
272,64,5849,5,0
368,96,6208,2,0,B|410:194|370:290,1,200,8|0
280,256,7286,1,8
184,256,7645,2,0,B|72:256,1,99.9999999999999
88,160,8364,6,0,B|296:160,1,200,8|0
392,160,9442,1,8
392,64,9801,1,0
296,64,10160,1,8
200,64,10519,2,0,B|144:152|200:280,1,200,2|0
384,296,11957,6,0,B|288:336|184:296,2,200,8|2|8
320,104,14112,2,2,B|220:65|124:105,1,200,2|0
256,192,15190,12,2,17705
208,112,18064,6,0,B|320:112,2,99.9999999999999,2|8|8
104,112,19142,1,2
104,208,19501,1,0
104,312,19861,1,8
104,312,20220,1,2
192,264,20579,6,0,B|288:296|400:264,1,200,0|2
384,168,21657,1,8
384,168,22016,2,0,B|288:136|176:168,1,200,2|0
88,168,23094,2,0,B|88:280,1,99.9999999999999,2|12
192,272,23813,5,0
288,272,24172,2,0,B|360:272|360:272|360:136,1,200,2|0
256,144,25250,1,8
256,48,25609,1,0
168,96,25968,1,8
64,96,26328,2,0,B|16:192|64:304,2,200,2|0|8
144,152,28124,5,8
232,104,28483,2,0,B|336:64|432:112,1,200,2|4
432,208,29561,1,0
432,312,29921,2,0,B|328:352|232:304,1,200,8|0
168,232,30998,2,0,B|48:232,1,99.9999999999999,2|0
72,128,31717,5,8
168,128,32076,1,0
272,128,32436,2,0,B|224:216|280:336,2,200,8|2|0
352,72,34232,2,0,B|456:72,1,99.9999999999999,2|4
456,176,34951,1,8
456,272,35310,6,0,B|360:320|256:272,2,200,0|2|0
456,272,37106,1,2
456,176,37465,2,0,B|456:72,1,99.9999999999999,8|0
352,72,38184,2,0,B|352:280,2,200,8|0|2
256,72,39980,1,2
152,72,40340,1,0
152,72,40699,1,12
152,168,41058,6,0,B|152:296,1,99.9999999999999
256,264,41777,2,0,B|360:304|464:264,2,200,2|0|8
256,168,43573,2,0,B|96:168,2,150
360,168,45010,1,8
360,272,45370,6,0,B|260:233|165:273,1,200
64,280,46448,2,0,B|24:184|64:80,1,200,2|0
160,112,47525,2,0,B|256:144|360:112,1,200,2|0
440,168,48603,2,0,B|440:280,2,99.9999999999999,2|0|0
344,160,49681,1,8
248,152,50040,2,0,B|208:248|248:352,1,200
344,344,51118,1,6
96,112,52016,5,12
96,264,52555,2,0,B|192:296|192:296|296:264|296:264|384:296,1,300,2|0
464,232,53992,1,8
464,128,54352,2,0,B|344:128,1,99.9999999999999,2|0
264,128,55070,5,8
264,232,55430,1,0
168,232,55789,1,8
72,232,56148,2,0,B|72:344,2,99.9999999999999,2|0|4
72,128,57226,6,0,B|168:160|280:128,1,200,2|0
368,120,58304,2,0,B|408:224|368:328,2,200,2|8|0
272,120,60100,1,2
272,120,60459,1,12
272,224,60819,6,0,B|176:280|64:224,2,200,2|0|4
344,296,62615,1,2
432,240,62974,2,0,B|432:136,1,99.9999999999999
344,96,63693,6,0,B|248:47|152:96,2,200,12|0|0
344,192,65489,1,8
344,296,65849,2,0,B|248:344|144:296,1,200,2|0
80,232,66927,2,0,B|80:128,1,99.9999999999999,8|2
176,136,67645,6,0,B|392:136,2,200,0|0|8
176,240,69442,1,0
272,240,69801,1,8
272,336,70160,1,0
368,336,70519,2,0,B|456:336|456:336|456:120,1,300,12|0
352,120,71957,1,8
352,216,72316,6,0,B|136:216,2,200,2|0|0
352,120,74112,2,0,B|144:120,1,200,2|8
48,120,75190,1,4
48,272,75729,1,4
144,272,76088,2,0,B|216:248|296:272,1,150,2|0
392,272,76986,2,0,B|424:176|392:72,1,200,2|4
296,72,78064,5,4
296,224,78603,1,2
200,224,78962,2,0,B|120:256|40:216,1,150,0|2
64,120,79861,2,0,B|168:64|264:128,1,200,2|0
352,128,80939,5,8
448,128,81298,1,0
448,224,81657,2,0,B|448:336,1,99.9999999999999,2|0
344,320,82376,2,0,B|208:320,1,99.9999999999999,8|0
144,320,83094,2,0,B|184:224|144:112,1,200,8|0
256,192,84172,12,2,86687
