osu file format v9

[General]
AudioFilename: Kami memo OP.mp3
AudioLeadIn: 0
PreviewTime: 51463
Countdown: 0
SampleSet: Normal
StackLeniency: 0.7
Mode: 0
LetterboxInBreaks: 1

[Editor]
DistanceSpacing: 1.2
BeatDivisor: 4
GridSize: 8

[Metadata]
Title:Kawaru Mirai (TV Size)
Artist:Choucho
Creator:S o r d a
Version:Insane
Source:Kamisama no memo chou
Tags:saymun

[Difficulty]
HPDrainRate:7
CircleSize:4
OverallDifficulty:7
ApproachRate:8
SliderMultiplier:1.8
SliderTickRate:1

[Events]
//Background and Video events
0,0,"BG.jpg"
Video,0,"Kamisama no memo chou OP.avi"
//Break Periods
//Storyboard Layer 0 (Background)
//Storyboard Layer 1 (Fail)
//Storyboard Layer 2 (Pass)
//Storyboard Layer 3 (Foreground)
//Storyboard Sound Samples
//Background Colour Transformations
3,100,163,162,255

[TimingPoints]
446,359.281437125748,4,1,0,60,1,0
43831,-133.333333333333,4,1,0,60,0,0
52182,-100,4,1,0,60,0,1
74817,-100,4,1,0,60,0,0

[Colours]
Combo1 : 255,128,255
Combo2 : 0,255,255
Combo3 : 170,170,255

[HitObjects]
144,96,6194,2,0,B|80:176|112:288,1,180
214,270,6733,1,0
322,270,6913,2,0,B|418:214|386:110,1,180
176,88,7632,1,0
96,152,7811,1,0
96,264,7991,1,0
272,144,8350,6,0,B|320:128|352:184,2,90
56,136,9069,2,0,B|24:224|88:320,1,180
180,266,9608,1,0
249,183,9787,1,0
357,183,9967,1,0
425,266,10147,1,0
304,352,10326,1,0
304,352,10506,2,0,B|304:160,1,180
200,200,11045,2,0,B|144:152,2,45,0|0|2
176,304,11404,2,0,B|224:352,2,45,0|0|2
336,208,11943,6,0,B|312:104|184:80,1,180
152,176,12482,1,0
96,264,12662,2,0,B|120:368|248:392,1,180
248,352,13111,1,0
264,312,13200,1,0
320,240,13380,1,0
312,192,13470,1,0
280,160,13560,1,0
208,112,13739,1,0
120,128,13919,5,0
80,152,14009,1,0
64,192,14099,1,0
48,232,14189,1,0
48,280,14278,1,0
136,272,14458,1,0
280,160,14817,2,0,B|312:96,6,45
232,88,15536,1,0
192,160,15715,2,0,B|96:184|112:304,1,180
273,299,16254,2,0,B|369:259|329:147,1,180
416,88,16973,5,0
436,117,17063,1,0
444,152,17153,1,0
448,187,17242,1,0
436,221,17332,1,0
421,254,17422,1,0
396,280,17512,1,0
366,300,17602,1,0
331,311,17692,1,0
92,227,18051,6,0,B|62:189|56:137,1,90
152,195,18410,2,0,B|182:233|188:285,1,90,0|0
259,196,18769,1,0
345,130,18949,1,0
242,95,19129,1,0
64,267,19488,1,0
279,284,19847,1,0
331,272,19937,1,0
362,227,20027,1,0
266,177,20206,1,0
175,116,20386,1,0
87,179,20566,6,0,B|43:266|111:357,1,180
180,271,21105,1,0
287,261,21284,1,0
320,158,21464,1,0
424,128,21644,2,0,B|408:82|364:54,1,90
321,158,22003,2,0,B|216:186|163:102,2,180
243,229,22901,1,0
143,186,23081,1,0
100,218,23171,1,0
96,271,23260,1,0
57,169,23440,6,0,B|77:108|112:83,1,90,0|0
198,140,23799,2,0,B|219:200|207:241,2,90
303,116,24338,1,0
288,223,24518,1,0
379,279,24697,1,0
452,199,24877,1,0
254,21,25236,1,0
46,82,25596,6,0,B|34:197|107:254,1,180
146,272,26045,1,0
195,294,26135,1,0
215,153,26314,2,0,B|309:164|329:291,2,180
172,53,27212,1,0
117,52,27302,1,0
68,76,27392,1,0
47,126,27482,1,0
56,179,27572,1,0
74,229,27662,1,0
124,247,27751,1,0
379,69,28290,6,0,B|462:109|429:234,1,180
323,238,28829,2,0,B|272:259|256:324,1,90
156,277,29189,1,0
156,277,29278,1,0
156,277,29368,1,0
129,172,29548,2,0,B|148:112|194:81,1,90
281,118,29907,5,0
212,201,30087,1,0
148,113,30266,1,0
41,130,30446,2,0,B|-4:178|7:220,1,90
113,214,30805,2,0,B|161:184|169:144,2,90
416,88,31703,5,0
264,248,32063,1,0
144,72,32422,1,0
144,72,32602,1,0
440,200,33141,1,0
376,288,33320,2,0,B|272:240|272:144,1,180
272,152,33859,1,0
176,103,34038,5,0
134,137,34128,1,0
119,189,34218,1,0
110,242,34308,1,0
121,294,34398,1,0
228,302,34578,1,0
426,100,35296,6,0,B|390:56|352:42,1,90
271,111,35656,1,0
167,139,35835,2,0,B|167:240|287:295|287:294,1,180
442,160,36554,2,0,B|485:185|500:237,2,90
240,96,37451,1,0
184,192,37631,1,0
72,192,37811,1,0
256,296,38170,6,0,B|296:280|304:224,1,90
264,64,38529,2,0,B|224:80|216:136,1,90
432,112,39068,2,0,B|480:192|480:312|336:360,1,270
216,192,39966,1,0
64,32,40326,1,0
272,80,40685,1,0
224,96,40775,1,0
176,128,40865,1,0
152,176,40954,1,0
144,232,41044,1,0
152,288,41134,1,0
192,328,41224,1,0
240,344,41314,1,0
296,360,41404,1,0
272,144,41763,5,0
180,87,41942,1,0
117,175,42122,1,0
299,290,42481,1,0
341,190,42661,1,0
258,120,42841,1,0
63,214,43200,2,0,B|22:251|24:299,1,90
132,296,43559,2,0,B|291:259|262:82,2,269.999991953373
