osu file format v9

[General]
AudioFilename: Choucho- Kawaru Mirai (TV Size).mp3
AudioLeadIn: 0
PreviewTime: 51219
Countdown: 0
SampleSet: Soft
StackLeniency: 0.7
Mode: 0
LetterboxInBreaks: 1

[Editor]
Bookmarks: 69721
DistanceSpacing: 1
BeatDivisor: 4
GridSize: 4

[Metadata]
Title:Kawaru Mirai (TV Size)
Artist:Choucho
Creator:Kenezz
Version:Easy
Source:Kamisama no Memo Chou
Tags:opening kenezzedward astom ignacio heatkai elements garden

[Difficulty]
HPDrainRate:1
CircleSize:3
OverallDifficulty:1
ApproachRate:2
SliderMultiplier:0.8
SliderTickRate:1

[Events]
//Background and Video events
0,0,"BGmoe.jpg"
Video,0,"Kawaru Mirai.avi"
//Break Periods
//Storyboard Layer 0 (Background)
//Storyboard Layer 1 (Fail)
//Storyboard Layer 2 (Pass)
//Storyboard Layer 3 (Foreground)
//Storyboard Sound Samples
//Background Colour Transformations
3,100,163,162,255

[TimingPoints]
6041,359.281437125748,4,2,1,80,1,0
17538,-100,4,2,1,60,0,0
29035,-100,4,2,1,80,0,0
51849,-100,4,2,1,100,0,1
74663,-100,4,2,1,100,0,0
75023,-100,4,2,1,100,0,1
77358,-100,4,2,1,100,0,0
77897,-100,4,2,1,100,0,1
80771,-100,4,2,1,100,0,0
86430,-100,4,2,1,30,0,0

[Colours]
Combo1 : 0,128,255
Combo2 : 0,128,128
Combo3 : 128,0,255
Combo4 : 255,0,128

[HitObjects]
103,237,6041,2,0,B|125:322|210:344,2,160,4|8|8
256,192,8196,1,2
408,146,8915,2,0,B|386:61|301:39,2,160,8|8|8
256,192,11070,5,8
180,332,11789,2,0,B|256:356|256:356|332:332,1,160,4|8
336,172,13226,1,8
176,172,13945,1,8
256,192,14663,12,4,17538
256,344,18256,5,2
312,196,18975,2,0,B|396:172|420:88,2,160,2|2|2
256,48,21130,1,2
92,88,21849,2,0,B|116:172|200:196,1,160,2|0
256,140,22927,1,2
412,168,23645,6,0,B|387:229|424:280|424:280|364:262|312:309,1,240,2|2
256,252,25082,2,0,B|256:172,2,80,0|2|0
199,309,26160,2,0,B|147:262|87:280|87:280|124:229|100:168,1,240,2|2
256,48,28316,5,0
256,128,28675,1,2
256,208,29035,6,0,B|228:264|256:284|288:308|256:360,2,160,4|0|0
336,192,30831,2,0,B|424:184|472:260,2,160,8|8|8
296,260,32627,5,0
216,260,32987,1,8
176,192,33346,2,0,B|88:184|40:260,2,160,2|8|2
176,112,35142,6,0,B|260:104|296:20,1,160,8|8
216,20,36220,2,0,B|252:104|336:112,1,160,2|0
396,168,37298,1,8
352,236,37657,6,0,B|312:284|312:284|256:260|200:284|200:284|160:236,2,240,2|8|0
396,168,40172,1,8
332,120,40532,6,0,B|256:164|180:120,1,160,4|0
128,180,41609,1,8
180,240,41969,2,0,B|176:308|256:348|336:308|332:240,1,240,2|8
344,160,43406,6,0,B|272:156|256:92|256:92|240:156|168:160,1,240,2|8
280,324,45382,2,0,B|240:324,2,40,0|2|0
332,216,46280,6,0,B|256:172|180:216,2,160,4|0|0
412,228,48076,1,8
444,156,48436,1,0
432,74,48795,2,0,B|373:47|316:72,1,120,8|2
196,72,49873,6,0,B|139:47|79:75,1,120,0|4
76,156,50771,2,4,B|96:196,1,40
52,260,51310,2,0,B|76:292,1,40,0|2
156,276,51849,6,0,B|356:276,1,200,4|2
436,268,53106,2,0,B|432:228|392:204,1,80,8|0
316,176,53825,2,0,B|328:136|372:124,1,80,8|0
412,56,54543,1,8
332,52,54903,6,0,B|256:24|256:24|180:52,2,160,2|0|0
216,168,57058,1,0
296,168,57418,1,8
304,248,57777,6,0,B|296:288|256:308|256:308|216:288|208:248,2,160,4|2|0
452,192,59933,2,0,B|404:128,1,80,0|8
352,68,60651,6,0,B|296:80|296:80|256:52|216:80|216:80|160:68,1,200,4|0
108,128,61909,2,0,B|60:192,1,80,4|4
76,312,62807,1,2
180,192,63526,6,0,B|224:220|256:196|284:172|336:192,2,160,4|0|0
256,332,65681,1,2
408,280,66400,2,0,B|456:344,2,80,2|8|0
340,180,67657,6,0,B|344:92|256:52|168:92|172:180,1,280,2|8
180,260,69274,2,0,B|256:304|332:260,1,160,2|0
392,204,70352,1,8
332,148,70711,2,0,B|256:104|180:148,2,160,2|0|2
320,228,72508,6,0,B|280:232|256:272|256:272|232:232|192:228,2,160,8|8|8
296,152,74304,2,0,B|216:152,1,80,0|8
136,132,75023,6,0,B|40:56,2,120,4|4|8
92,200,76460,2,0,B|136:296|256:288,1,200
376,252,77897,6,0,B|472:328,2,120,4|4|8
420,184,79334,2,0,B|376:88|256:96,1,200
188,192,80771,6,0,B|200:260|260:280|260:280|320:260|332:192,2,240,4|8|0
256,148,83286,1,8
256,68,83645,1,4
256,192,84005,12,2,86520
208,228,87058,6,0,B|216:272|256:284|296:272|304:228,1,140,0|2
