osu file format v9

[General]
AudioFilename: Kawaru Mirai [TV size].mp3
AudioLeadIn: 0
PreviewTime: 51827
Countdown: 0
SampleSet: Soft
StackLeniency: 0.7
Mode: 0
LetterboxInBreaks: 0

[Editor]
Bookmarks: 9430
DistanceSpacing: 1
BeatDivisor: 2
GridSize: 8

[Metadata]
Title:Kawaru Mirai (TV Size)
Artist:Choucho
Creator:Fight69
Version:Normal
Source:Kamisama no Memo chou
Tags:Mustaash Tony LRJ opening

[Difficulty]
HPDrainRate:4
CircleSize:4
OverallDifficulty:4
ApproachRate:5
SliderMultiplier:0.8
SliderTickRate:1

[Events]
//Background and Video events
0,0,"bgoriginal.jpg"
Video,-300,"Kawaru Mirai.avi"
//Break Periods
//Storyboard Layer 0 (Background)
//Storyboard Layer 1 (Fail)
//Storyboard Layer 2 (Pass)
//Storyboard Layer 3 (Foreground)
//Storyboard Sound Samples
//Background Colour Transformations
3,100,163,162,255

[TimingPoints]
4575,359.281437125748,4,2,1,69,1,0
51820,-100,4,2,1,69,0,1
62778,-100,4,2,1,69,0,0
63497,-100,4,2,1,69,0,1
74994,-100,4,2,1,69,0,0

[Colours]
Combo1 : 128,0,255
Combo2 : 0,255,255
Combo3 : 5,5,240
Combo4 : 128,128,255

[HitObjects]
168,312,6012,2,0,B|104:312|80:240,2,120,4|0|2
216,248,7449,1,0
272,304,7808,1,0
304,232,8167,1,0
368,280,8527,1,2
416,216,8886,6,0,B|472:152|432:64,1,160,0|2
280,56,10323,2,0,B|224:120|264:208,1,160,0|2
384,96,11760,5,0
416,168,12119,1,0
360,224,12479,1,2
288,184,12838,1,0
296,104,13197,2,0,B|240:40|152:48,2,160,0|2|0
256,192,14814,12,2,16072
256,80,17509,5,4
184,120,17868,2,0,B|112:152|88:240,2,160,0|2|0
240,176,19664,1,0
312,136,20024,1,2
360,200,20383,2,0,B|424:184|440:112,2,120,0|0|2
288,240,21820,2,0,B|224:256|208:328,2,120,0|0|2
360,280,23257,5,4
408,216,23616,1,0
368,144,23976,1,0
408,72,24335,1,2
328,72,24694,2,0,B|256:16|168:64,1,160
232,120,25772,1,2
176,176,26131,2,0,B|248:232|336:184,2,160,0|0|2
232,336,29006,6,0,B|144:336,2,80,4|0|0
296,280,30083,1,8
216,256,30443,2,0,B|160:192,1,80
216,136,31161,2,0,B|268:196,1,80,0|8
344,232,31880,2,0,B|408:208|408:136,2,120,0|0|8
264,256,33317,2,0,B|200:280|200:352,2,120,0|0|8
280,176,34754,1,4
200,192,35113,6,0,B|144:256,1,80
72,216,35832,2,0,B|124:155,1,80,8|0
192,112,36551,2,0,B|244:51,2,80,0|0|8
264,144,37628,5,0
336,104,37988,1,0
408,144,38347,2,0,B|416:192,1,40
384,256,38886,2,0,B|337:312|273:284,1,120
224,224,39784,1,0
216,144,40143,1,2
256,72,40503,6,0,B|344:48|408:112,1,160,4|0
432,184,41580,1,0
432,184,41760,2,0,B|383:224|319:208,1,120
280,136,42658,1,0
208,176,43018,1,2
248,248,43377,2,0,B|208:304|128:288,2,120,0|0|2
328,224,44814,5,0
360,296,45173,1,0
288,336,45533,1,0
216,296,45892,1,2
240,224,46251,6,0,B|272:168|224:88,2,120,0|0|2
168,184,47688,1,0
96,224,48048,1,0
96,224,48227,2,0,B|64:256|80:312,1,80
144,336,48946,2,0,B|176:304|160:248,1,80
272,304,49844,2,0,B|272:176,1,120,0|4
272,104,50742,1,4
272,104,50922,1,4
224,304,51820,6,0,B|152:320|96:256,1,120,4|8
56,216,52718,1,0
88,136,53077,1,8
168,128,53437,2,0,B|208:56,1,80,0|8
286,59,54155,2,0,B|247:129,1,80,0|8
208,200,54874,2,0,B|144:216|128:280,2,120,0|0|8
264,256,56311,2,0,B|328:240|344:176,2,120,0|0|8
280,336,57748,6,0,B|376:376|456:296|432:200,2,240,4|8|0
280,248,60263,1,8
216,296,60622,2,0,B|96:296,1,120,4|4
40,240,61521,1,4
72,168,61880,1,4
136,216,62239,1,4
256,208,62778,6,0,B|256:88,1,120,0|4
376,64,63856,1,8
424,128,64215,1,0
400,208,64574,1,8
320,216,64934,2,0,B|240:224,1,80,0|8
192,288,65652,6,0,B|128:320|72:272,2,120,0|0|8
224,264,66910,1,0
280,208,67269,1,0
336,265,67628,2,0,B|424:177,1,120,0|8
448,152,68347,1,0
496,88,68706,1,0
416,72,69066,6,0,B|320:0|232:88,1,200
160,64,70323,1,8
160,144,70682,2,0,B|216:184|208:256,2,120,0|0|8
80,128,72119,2,0,B|40:264|176:320,2,240,4|8|0
160,136,74634,1,8
192,64,74994,6,0,B|240:24|304:40,2,120,4|4|4
368,304,77868,6,0,B|320:344|256:328,2,120,4|4|4
256,248,80742,6,0,B|256:344,2,80
200,192,81820,1,2
256,136,82179,2,0,B|256:56,2,80
312,192,83257,1,2
256,248,83616,1,4
256,192,83796,12,2,86491
