osu file format v9

[General]
AudioFilename: Kawaru Mirai [TV size].mp3
AudioLeadIn: 0
PreviewTime: 51827
Countdown: 0
SampleSet: Soft
StackLeniency: 0.7
Mode: 0
LetterboxInBreaks: 0

[Editor]
Bookmarks: 9430
DistanceSpacing: 1.2
BeatDivisor: 4
GridSize: 8

[Metadata]
Title:Kawaru Mirai (TV Size)
Artist:Choucho
Creator:Fight69
Version:Insane
Source:Kamisama no Memo chou
Tags:Mustaash Tony LRJ opening

[Difficulty]
HPDrainRate:7
CircleSize:4
OverallDifficulty:7
ApproachRate:8
SliderMultiplier:1.6
SliderTickRate:2

[Events]
//Background and Video events
0,0,"bgoriginal.jpg"
Video,-300,"Kawaru Mirai.avi"
//Break Periods
//Storyboard Layer 0 (Background)
//Storyboard Layer 1 (Fail)
//Storyboard Layer 2 (Pass)
//Storyboard Layer 3 (Foreground)
//Storyboard Sound Samples
//Background Colour Transformations
3,100,163,162,255

[TimingPoints]
4575,359.281437125748,4,2,1,69,1,0
15802,-100,4,2,1,80,0,0
16161,-100,4,2,1,69,0,0
16521,-100,4,2,1,50,0,0
17419,-100,4,2,1,69,0,0
40309,-200,4,2,1,69,0,0
44620,-100,4,2,1,69,0,0
51820,-100,4,2,1,69,0,1
59455,-100,4,2,2,69,0,1
59634,-100,4,2,1,69,0,1
62778,-100,4,2,1,69,0,0
63497,-100,4,2,1,69,0,1
68796,-100,4,2,2,69,0,1
68976,-100,4,2,1,69,0,1
74994,-100,4,2,1,69,0,0

[Colours]
Combo1 : 128,0,255
Combo2 : 0,255,255
Combo3 : 5,5,240
Combo4 : 128,128,255

[HitObjects]
240,304,6012,6,0,B|168:256,1,80,4|0
173,259,6371,1,2
88,304,6551,2,0,B|71:219,1,80
72,225,6910,1,0
160,168,7089,2,0,B|208:96|304:104,2,160,2|0|2
248,208,7988,6,0,B|272:248|320:248,1,80
441,215,8347,2,0,B|417:175|376:176,1,80,0|2
296,120,8706,1,0
384,320,8886,2,0,B|296:344|232:296,1,160,0|2
232,64,9604,2,0,B|296:15|384:39,1,160,0|2
504,192,10323,2,0,B|392:304|320:128|208:224,2,320
416,144,11940,6,0,B|344:104,1,80,0|2
264,56,12299,1,0
264,56,12479,2,0,B|192:112,1,80,0|0
120,56,12838,1,2
120,144,13018,1,0
120,144,13197,2,0,B|192:200,1,80,0|0
264,144,13557,1,2
264,240,13736,1,0
264,240,13916,2,0,B|192:296,1,80,0|0
120,240,14275,1,2
120,336,14455,1,0
200,289,14634,1,0
256,192,14724,12,0,15533
256,80,15892,5,2
256,96,16251,1,2
256,112,16610,1,0
256,128,16970,1,0
256,144,17329,5,0
192,216,17509,2,0,B|128:160,2,80,4|0|0
232,304,18048,2,0,B|280:288|288:240,1,80
368,304,18407,2,0,B|390:272|368:227,1,80,0|2
448,168,18766,2,0,B|416:88|328:72,1,160
336,168,19305,6,0,B|288:184|272:216,1,80
144,208,19664,2,0,B|192:192|208:160,1,80
264,48,20024,1,2
264,304,20383,6,0,B|192:344|104:304,1,160
112,208,20922,2,0,B|194:245|266:205,1,160
344,152,21461,1,2
288,72,21640,2,0,B|359:32|441:69,1,160
392,152,22179,1,0
440,232,22359,2,0,B|357:269|286:229,1,160
328,320,22898,2,0,B|245:312|189:248,1,160,2|0
232,64,23616,5,0
320,104,23796,1,0
240,160,23976,1,0
152,120,24155,2,0,B|64:144|32:232,2,160,2|0|0
160,216,25054,2,0,B|232:264,1,80
216,352,25413,2,0,B|300:335,1,80
320,248,25772,2,0,B|392:296,1,80,2|0
480,328,26131,2,0,B|512:240|456:176,1,160
360,176,26670,2,0,B|305:113|337:25,1,160
337,26,27209,1,2
176,128,27569,1,0
256,352,28107,6,0,B|256:192,1,160
256,96,28646,1,0
152,176,28826,1,0
360,208,29006,1,4
192,296,29365,6,0,B|120:352,2,80
264,232,29904,1,0
264,232,30083,1,8
280,328,30263,2,0,B|376:344|424:272,1,160
464,192,30802,6,0,B|488:152|472:112,1,80
376,48,31161,2,0,B|352:88|368:128,1,80
264,192,31521,2,0,B|288:152|272:112,1,80,8|0
176,48,31880,2,0,B|128:128|176:208,1,160
176,296,32419,2,0,B|94:275|71:185,1,160
88,96,32958,1,8
160,160,33137,2,0,B|241:139|264:49,1,160
264,50,33676,1,0
360,48,33856,2,0,B|416:208,1,160
412,199,34395,1,8
96,192,34754,1,0
96,192,35113,5,0
168,104,35293,1,0
192,280,35473,1,0
304,192,35652,2,0,B|360:288,2,80,0|8|0
256,104,36191,1,0
256,104,36371,1,0
208,192,36551,5,0
304,192,36730,2,0,B|384:160|384:64,1,160
383,65,37269,1,8
296,96,37449,1,0
272,16,37628,2,0,B|192:48|192:144,1,160
192,142,38167,6,0,B|192:232,2,80
112,192,38706,1,8
112,96,38886,2,0,B|112:16,2,80
32,152,39425,2,0,B|32:312,2,160,0|0|8
168,288,40503,6,0,B|304:312|368:192,1,240,4|0
304,136,41760,2,0,B|280:200|208:208,1,120
56,216,42658,1,0
24,56,43018,1,2
56,216,43377,2,0,B|119:223|149:283,2,120,0|0|2
256,48,45353,6,0,B|256:128,2,80
432,264,46251,6,0,B|344:264|296:176,1,160
320,88,46790,2,0,B|320:176|232:224,1,160
241,218,47329,1,2
216,128,47509,2,0,B|137:170|137:258,1,160
200,328,48048,2,0,B|248:328|272:288,1,80
392,272,48407,2,0,B|344:272|320:232,1,80
400,176,48766,1,2
488,144,48946,2,0,B|448:56|344:88,2,160
472,240,49844,1,0
400,176,50024,1,0
328,240,50203,1,0
256,176,50383,1,4
256,48,50742,5,4
256,304,50922,1,4
256,304,51820,5,4
176,248,52000,1,0
264,208,52179,1,0
184,152,52359,1,8
264,104,52539,2,0,B|240:56,2,40
344,152,52898,2,0,B|392:216,1,80,0|8
440,136,53257,5,0
512,200,53437,1,0
424,232,53616,1,0
496,296,53796,1,8
424,360,53976,2,0,B|376:296,1,80
279,296,54335,2,0,B|327:360,1,80,0|8
232,376,54694,1,0
160,312,54874,6,0,B|104:248|144:160,1,160,0|8
232,200,55413,2,0,B|317:238|381:182,1,160,0|0
296,136,55952,1,8
376,88,56131,2,0,B|312:32|226:71,1,160,0|0
136,96,56670,2,0,B|80:160,1,80,8|0
83,252,57030,2,0,B|139:316,1,80,0|8
200,240,57389,1,8
256,320,57569,1,0
336,264,57748,6,0,B|416:224|408:128,1,160,4|8
328,80,58287,2,0,B|336:128|320:168,1,80
224,160,58646,2,0,B|211:128|219:80,1,80,0|8
136,136,59006,2,0,B|128:227|208:267,2,160
112,40,59904,2,0,B|40:200,1,160,0|8
160,336,60622,5,4
336,256,60982,1,0
336,256,61161,1,4
160,184,61521,1,0
336,104,61880,1,4
160,40,62239,1,0
160,40,62598,1,0
88,104,62778,2,0,B|88:200,1,80,4|0
264,264,63317,5,0
360,240,63497,2,0,B|401:247|433:215,1,80,4|0
360,152,63856,2,0,B|392:120|440:128,1,80,8|0
496,56,64215,2,0,B|464:24|416:32,2,80,0|0|8
496,152,64754,2,0,B|512:232,1,80
416,200,65113,2,0,B|392:304,1,80,0|8
301,277,65473,2,0,B|283:199,1,80
192,160,65832,1,0
192,256,66012,1,8
101,225,66191,6,0,B|21:177|45:81,1,160
43,88,66730,1,8
192,32,66910,2,0,B|272:80|248:176,1,160
152,168,67449,1,8
200,248,67628,2,0,B|177:336|257:384,1,160
312,304,68167,1,8
408,320,68347,2,0,B|430:231|350:183,2,160
312,304,69245,5,0
272,216,69425,2,0,B|192:184,1,80,0|8
128,120,69784,1,0
72,200,69964,1,0
64,296,70143,2,0,B|144:264,1,80,0|8
224,312,70503,2,0,B|312:320|352:232,1,160
304,152,71042,1,8
264,64,71221,2,0,B|176:56|136:144,1,160
137,141,71760,1,8
120,312,72119,6,0,B|184:376|272:328,1,160,4|8
370,266,72658,2,0,B|306:202|224:248,1,160
224,247,73197,1,8
136,208,73377,2,0,B|192:144|288:144,1,160
368,168,73916,1,8
456,128,74095,2,0,B|400:64|304:64,1,160
314,64,74634,1,8
120,104,74994,6,0,B|192:152,1,80,4|0
256,80,75353,1,2
392,160,75533,2,0,B|320:208,1,80,4|0
256,136,75892,1,0
256,296,76072,1,4
256,192,76251,12,2,77509
120,280,77868,6,0,B|192:232,1,80,4|0
256,304,78227,1,2
392,224,78407,2,0,B|320:176,1,80,4|0
256,248,78766,1,0
256,88,78946,1,4
256,192,79125,12,2,80383
161,77,80742,5,4
184,168,80922,2,0,B|144:184|104:156,2,80,0|2|0
268,128,81461,2,0,B|294:164|277:203,1,80,0|0
212,332,81820,2,0,B|185:295|202:256,1,80,2|0
312,280,82179,5,0
376,208,82359,2,0,B|416:224|424:272,2,80,0|2|0
280,184,82898,2,0,B|287:139|327:123,1,80
464,80,83257,2,0,B|456:124|416:140,1,80,2|0
256,192,83616,12,2,86491
