osu file format v12

[General]
AudioFilename: moejieusieu.mp3
AudioLeadIn: 1500
PreviewTime: 56422
Countdown: 0
SampleSet: Soft
StackLeniency: 0.7
Mode: 0
LetterboxInBreaks: 0
WidescreenStoryboard: 0

[Editor]
Bookmarks: 30240,56422
DistanceSpacing: 1
BeatDivisor: 4
GridSize: 8

[Metadata]
Title:DreamRiser (TV Size)
TitleUnicode:DreamRiser (TV Size)
Artist:Choucho
ArtistUnicode:ちょうちょ
Creator:KaODia
Version:Collab
Source:Girls und Panzer
Tags:Opening Ohzero jieusieu kiiwa ReySHeL anime
BeatmapID:207367
BeatmapSetID:72602

[Difficulty]
HPDrainRate:6
CircleSize:4
OverallDifficulty:6
ApproachRate:8
SliderMultiplier:1.6
SliderTickRate:1

[Events]
//Background and Video events
0,0,"BG.jpg",0,0
Video,0,"MV.avi"
//Break Periods
//Storyboard Layer 0 (Background)
Sprite,Background,Centre,"BG01.png",320,240 F,0,56240,88422,0.716,0.7480001 M,0,56422,,473,277 S,0,56422,,5
//Storyboard Layer 1 (Fail)
//Storyboard Layer 2 (Pass)
//Storyboard Layer 3 (Foreground)
Sprite,Foreground,Centre,"1.png",320,240 F,0,56059,56422,0,1 M,0,56422,,144,282 S,0,56422,,0.52 F,0,56422,88331,1
Sprite,Foreground,Centre,"White Effect.png",320,240 F,0,56059,56240,0,1 S,0,56240,,3.432 M,0,56240,56422,320,240,264,241 F,0,56240,56422,1,0 F,0,56422,,0
Sprite,Foreground,Centre,"KaODia.png",320,240 F,0,968,1150,0,1 M,0,1150,,437,364 S,0,1150,,0.7839999 F,0,1150,2604,1 F,0,2604,2786,1,0
Sprite,Foreground,Centre,"Ohzero.png",320,240 M,0,30059,,199,363 S,0,30059,,0.8079998 F,0,30059,30240,0,1 F,0,30240,31695,1 F,0,31695,31877,1,0
Sprite,Foreground,Centre,"jieusieu.png",320,240 F,0,56240,56422,0,1 M,0,56422,,443,362 S,0,56422,,0.8080001 F,0,56422,57877,1 F,0,57877,58059,1,0
//Storyboard Sound Samples
//Background Colour Transformations
3,100,163,162,255

[TimingPoints]
1150,363.636363636364,4,2,0,100,1,0
1695,-100,4,1,0,50,0,0
6604,-100,4,1,0,30,0,0
7059,-100,4,1,0,50,0,0
18513,-100,4,1,0,35,0,0
28059,-100,4,1,0,50,0,0
30240,-100,4,1,0,45,0,0
32240,-100,4,1,0,55,0,0
32968,-100,4,1,0,45,0,0
35150,-100,4,1,0,55,0,0
36059,-100,4,1,0,45,0,0
40604,-100,4,1,0,55,0,0
40877,-100,4,1,0,45,0,0
49877,-100,4,1,0,30,0,0
50604,-100,4,1,0,50,0,0
52786,-100,4,1,0,40,0,0
53513,-100,4,1,0,45,0,0
54059,-100,4,1,0,50,0,0
54604,-100,4,1,0,55,0,0
55877,-100,4,2,1,100,0,0
55968,-100,4,2,0,35,0,0
56422,-100,4,1,1,70,0,1
56513,-100,4,1,1,55,0,1
58150,-100,4,1,1,60,0,1
58695,-100,4,1,2,65,0,1
58877,-100,4,1,1,65,0,1
59331,-100,4,1,1,70,0,1
59422,-100,4,1,1,55,0,1
61059,-100,4,1,1,60,0,1
61604,-100,4,1,2,65,0,1
61786,-100,4,1,1,65,0,1
62240,-100,4,1,2,70,0,1
62331,-100,4,1,1,55,0,1
66513,-100,4,1,1,60,0,1
67240,-100,4,1,2,65,0,1
67604,-100,4,1,1,65,0,1
67968,-100,4,1,1,70,0,1
68150,-100,4,1,1,55,0,1
69786,-100,4,1,1,60,0,1
70331,-100,4,1,2,65,0,1
70513,-100,4,1,1,65,0,1
70877,-100,4,1,1,65,0,1
71059,-100,4,1,1,45,0,1
71422,-100,4,1,1,65,0,1
71604,-100,4,1,1,45,0,1
72150,-100,4,1,1,65,0,1
72331,-100,4,1,1,55,0,1
72877,-100,4,1,1,65,0,1
73059,-100,4,1,2,55,0,1
73422,-100,4,1,1,55,0,1
73877,-100,4,1,2,70,0,1
73968,-100,4,1,1,55,0,1
76150,-100,4,1,2,55,0,1
76331,-100,4,1,1,55,0,1
76695,-100,4,1,1,45,0,1
77604,-100,4,1,1,50,0,1
78150,-100,4,1,1,55,0,1
79150,-100,4,1,2,55,0,1
79240,-100,4,1,1,55,0,1
79604,-100,4,1,1,65,0,1
81059,-100,4,1,2,70,0,1
81240,-100,4,1,1,70,0,1
82150,-100,4,2,1,5,0,1
82604,-100,4,1,1,55,0,0
85059,-100,4,1,2,55,0,0
85240,-100,4,1,1,55,0,0
88331,-200,4,2,1,5,0,0

[Colours]
Combo1 : 168,67,0
Combo2 : 142,207,255
Combo3 : 255,128,0
Combo4 : 0,138,0

[HitObjects]
256,192,1150,1,2,0:0:0:0:
256,192,1331,1,2,0:0:0:0:
496,176,1877,2,8,L|392:40,1,160
320,32,2422,2,0,P|208:24|160:152,1,240
104,192,3150,1,8,0:0:0:0:
48,248,3331,2,0,L|47:334,1,80
128,320,3695,2,8,L|208:321,1,80
279,321,4059,5,0,0:0:0:0:
358,322,4240,1,8,0:0:0:0:
480,224,4786,2,0,L|480:64,1,160
408,24,5331,2,0,L|320:48,1,80
256,64,5695,1,0,0:0:0:0:
264,144,5877,1,0,0:0:0:0:
280,224,6059,1,0,0:0:0:0:
280,304,6240,6,0,L|104:272,1,160,0|8,0:0|0:0,0:0:0:0:
104,200,6786,1,10,0:0:0:0:
104,200,6877,1,10,0:0:0:0:
104,200,6968,1,10,0:0:0:0:
144,128,7150,2,0,L|240:64,1,80,0|8,0:0|0:0,0:0:0:0:
368,32,7695,6,0,L|448:32,2,80
448,32,8240,1,0,0:0:0:0:
448,112,8422,2,0,B|448:184|448:184|472:200|472:200|472:280,1,160,0|8,0:0|0:0,0:0:0:0:
392,288,8968,1,0,0:0:0:0:
312,296,9150,2,0,L|224:296,2,80,0|0|0,0:0|0:0|0:0,0:0:0:0:
168,224,9877,6,2,P|120:200|128:152,1,80,0|0,0:0|0:0,0:0:0:0:
184,144,10240,1,0,0:0:0:0:
256,168,10422,2,0,P|336:152|344:160,1,80
360,216,10786,1,8,0:0:0:0:
440,200,10968,2,0,P|480:176|480:128,1,80,0|8,0:0|0:0,0:0:0:0:
432,88,11331,5,6,0:0:0:0:
352,72,11513,2,0,P|312:96|256:80,1,80
216,48,11877,1,0,0:0:0:0:
168,112,12059,2,0,B|112:112|112:112|88:144|88:144|24:144,1,160,0|8,0:0|0:0,0:0:0:0:
16,304,12786,5,0,0:0:0:0:
168,344,13150,1,8,0:0:0:0:
144,272,13331,2,2,P|216:216|303:234,1,160
463,260,13877,2,2,P|432:299|328:307,1,160
376,200,14422,2,0,L|480:72,1,160
432,24,14968,1,0,0:0:0:0:
360,56,15150,1,0,0:0:0:0:
312,120,15331,1,8,0:0:0:0:
288,32,15695,6,2,B|377:22|377:22|465:78,1,160
416,136,16240,2,0,L|416:244,2,80
416,216,16786,1,0,0:0:0:0:
344,248,16968,1,6,0:0:0:0:
264,264,17150,6,0,L|168:264,1,80,0|8,0:0|0:0,0:0:0:0:
144,200,17513,1,0,0:0:0:0:
224,184,17695,2,0,L|336:184,1,80
376,184,18059,1,0,0:0:0:0:
376,184,18240,1,0,0:0:0:0:
416,112,18422,1,2,0:0:0:0:
416,112,18513,1,0,0:0:0:0:
416,112,18604,6,0,P|352:104|336:144,1,80
288,48,18968,2,0,P|224:40|208:80,1,80
144,40,19331,2,0,L|64:80,1,80
32,144,19694,1,8,0:0:0:0:
0,216,19877,2,0,L|112:216,1,80,0|4,0:0|0:0,0:0:0:0:
88,296,20240,1,8,0:0:0:0:
176,280,20422,1,0,0:0:0:0:
176,280,20604,6,0,L|256:280,1,80
256,200,20968,1,0,0:0:0:0:
336,200,21150,1,0,0:0:0:0:
416,200,21331,2,0,L|496:200,2,80,0|0|0,0:0|0:0|0:0,0:0:0:0:
416,200,21877,1,0,0:0:0:0:
464,272,22059,1,8,0:0:0:0:
408,120,22240,2,0,P|408:32|368:39,1,160,0|4,0:0|0:0,0:0:0:0:
416,200,22785,1,0,0:0:0:0:
304,88,22968,1,0,0:0:0:0:
248,152,23150,1,8,0:0:0:0:
168,152,23331,6,0,L|80:152,1,80,0|8,0:0|0:0,0:0:0:0:
8,152,23695,1,0,0:0:0:0:
8,72,23877,1,0,0:0:0:0:
88,72,24059,2,0,P|128:48|168:48,1,80
200,48,24331,2,8,L|272:48,1,40
360,176,24786,2,8,L|280:176,1,80
408,72,25150,1,0,0:0:0:0:
408,72,25331,1,6,0:0:0:0:
408,72,25513,6,0,L|408:176,1,80
408,232,25877,1,8,0:0:0:0:
488,232,26059,1,0,0:0:0:0:
488,312,26240,2,0,L|392:312,2,80
408,312,26786,1,0,0:0:0:0:
328,312,26968,1,0,0:0:0:0:
248,312,27150,1,0,0:0:0:0:
248,312,27331,1,8,0:0:0:0:
248,312,27513,2,4,P|176:312|160:288,1,80,0|8,0:0|0:0,0:0:0:0:
96,312,27877,5,8,0:0:0:0:
24,280,28059,2,0,L|24:168,1,80
88,152,28422,1,2,0:0:0:0:
88,152,28604,2,0,L|256:96,1,160,2|0,0:0|0:0,0:0:0:0:
320,96,29150,1,8,0:0:0:0:
320,256,29513,5,0,0:0:0:0:
239,256,29695,1,14,0:0:0:0:
80,96,30240,5,12,0:0:0:0:
144,48,30422,1,0,0:0:0:0:
208,96,30604,1,8,0:0:0:0:
192,176,30786,1,0,0:0:0:0:
112,176,30968,2,0,P|112:256|184:280,1,160,8|0,0:0|0:0,0:0:0:0:
256,312,31513,5,0,0:0:0:0:
304,248,31695,1,8,0:0:0:0:
272,184,31877,1,0,0:0:0:0:
192,176,32059,1,8,0:0:0:0:
72,96,32240,2,0,L|32:176,1,80,2|0,0:0|0:0,0:0:0:0:
120,176,32604,2,0,L|160:88,2,80,2|0|2,0:0|0:0|0:0,0:0:0:0:
192,176,33150,5,8,0:0:0:0:
240,112,33331,1,0,0:0:0:0:
312,80,33513,1,8,0:0:0:0:
392,68,33695,2,0,P|392:136|368:156,1,80,0|8,0:0|0:0,0:0:0:0:
384,220,34059,5,0,0:0:0:0:
384,220,34150,1,0,0:0:0:0:
384,220,34240,1,8,0:0:0:0:
348,292,34422,1,0,0:0:0:0:
272,320,34604,1,8,0:0:0:0:
204,276,34786,1,0,0:0:0:0:
196,156,34968,6,0,P|172:200|116:224,1,80,8|2,0:0|0:0,0:0:0:0:
280,112,35331,2,0,P|324:136|348:192,2,80,0|2|0,0:0|0:0|0:0,0:0:0:0:
344,56,35877,1,10,0:0:0:0:
456,96,36059,2,0,P|428:152|476:240,1,160,4|8,0:0|0:0,0:0:0:0:
392,264,36604,2,0,P|336:216|272:288,1,160,0|8,0:0|0:0,0:0:0:0:
216,200,37150,1,0,0:0:0:0:
132,148,37331,6,0,L|132:316,1,160,10|0,0:0|0:0,0:0:0:0:
288,344,37877,1,0,0:0:0:0:
288,344,38059,2,0,L|288:180,1,160,2|4,0:0|0:0,0:0:0:0:
132,148,38604,1,0,0:0:0:0:
288,184,38786,1,0,0:0:0:0:
236,48,38968,5,2,0:0:0:0:
288,184,39331,1,0,0:0:0:0:
392,88,39695,1,2,0:0:0:0:
132,148,40059,1,0,0:0:0:0:
288,184,40422,5,10,0:0:0:0:
416,240,40604,1,0,0:0:0:0:
416,240,40695,1,0,0:0:0:0:
416,240,40786,1,0,0:0:0:0:
368,336,40968,1,8,0:0:0:0:
274,297,41150,2,0,P|219:313|188:286,1,80,2|0,0:0|0:0,0:0:0:0:
160,235,41513,2,0,P|198:213|244:234,1,80,2|0,0:0|0:0,0:0:0:0:
118,319,41877,1,4,0:0:0:0:
83,186,42240,6,0,B|52:120|148:120|96:36,1,160,2|0,0:0|0:0,0:0:0:0:
83,186,42968,1,8,0:0:0:0:
240,104,43331,2,0,P|252:192|344:192,1,160
328,120,43877,1,0,0:0:0:0:
311,208,44059,2,0,L|288:288,1,80,8|0,0:0|0:0,0:0:0:0:
348,348,44422,2,0,L|372:264,1,80,8|0,0:0|0:0,0:0:0:0:
452,280,44786,6,0,B|400:196|496:196|456:104,1,160,2|0,0:0|0:0,0:0:0:0:
348,104,45513,1,8,0:0:0:0:
320,276,45877,2,0,P|296:180|220:180,1,160
120,72,46604,2,0,L|80:148,1,80,2|0,0:0|0:0,0:0:0:0:
176,136,46968,2,0,L|156:224,1,80,2|0,0:0|0:0,0:0:0:0:
248,168,47331,1,8,0:0:0:0:
304,224,47513,1,8,0:0:0:0:
304,224,47604,1,0,0:0:0:0:
304,224,47695,1,4,0:0:0:0:
364,180,47877,5,0,0:0:0:0:
256,68,48059,1,8,0:0:0:0:
136,280,48422,1,8,0:0:0:0:
368,280,48786,1,8,0:0:0:0:
348,128,49149,5,8,0:0:0:0:
164,128,49331,1,0,0:0:0:0:
256,256,49513,1,0,0:0:0:0:
256,168,49695,5,8,0:0:0:0:
184,204,49877,2,0,L|120:268,1,80,2|0,0:0|0:0,0:0:0:0:
328,204,50240,2,0,L|392:268,1,80,2|0,0:0|0:0,0:0:0:0:
416,188,50604,5,8,0:0:0:0:
380,116,50786,1,0,0:0:0:0:
416,44,50968,1,0,0:0:0:0:
304,88,51149,2,0,P|304:156|220:196,1,160,8|0,0:0|0:0,0:0:0:0:
280,292,51695,1,0,0:0:0:0:
172,140,51877,2,0,L|132:216,1,80,8|0,0:0|0:0,0:0:0:0:
196,272,52240,2,0,L|240:184,1,80,8|0,0:0|0:0,0:0:0:0:
312,196,52604,1,0,0:0:0:0:
408,108,52786,6,0,P|312:108|304:64,1,160,8|0,0:0|0:0,0:0:0:0:
192,256,53513,1,8,0:0:0:0:
256,292,53695,1,0,0:0:0:0:
320,256,53877,1,0,0:0:0:0:
256,192,54059,5,8,0:0:0:0:
160,192,54240,1,0,0:0:0:0:
352,192,54422,1,0,0:0:0:0:
256,96,54604,1,10,0:0:0:0:
256,292,54786,1,0,0:0:0:0:
256,292,54877,1,0,0:0:0:0:
256,292,54968,1,0,0:0:0:0:
148,76,55331,1,0,0:0:0:0:
72,160,55695,5,0,0:0:0:0:
63,173,55786,1,0,0:0:0:0:
57,188,55877,1,4,0:0:0:0:
56,204,55968,1,0,0:0:0:0:
58,219,56059,1,4,0:0:0:0:
64,232,56149,1,0,0:0:0:0:
76,240,56240,1,0,0:0:0:0:
92,248,56331,1,0,0:0:0:0:
108,252,56422,6,0,P|181:326|168:376,1,160,4|8,0:0|0:0,0:0:0:0:
96,336,56968,2,0,B|152:336|152:336|200:352|200:352|256:352,1,160,2|0,0:0|0:0,0:0:0:0:
328,376,57513,1,8,0:0:0:0:
312,296,57695,2,0,L|280:136,1,160,2|0,0:0|0:0,0:0:0:0:
272,56,58240,2,0,P|328:72|360:120,1,80,10|0,0:0|0:0,0:0:0:0:
288,224,58604,2,0,P|232:208|200:160,1,80,0|2,0:0|0:0,0:0:0:0:
136,88,58968,2,0,P|144:152|112:208,1,120,8|0,0:0|0:0,0:0:0:0:
88,224,59331,6,0,B|120:200|120:200|184:224|192:288,1,160,2|8,0:0|0:0,0:0:0:0:
144,360,59877,2,0,B|112:384|112:384|48:360|40:296,1,160,2|0,0:0|0:0,0:0:0:0:
116,288,60422,1,8,0:0:0:0:
144,360,60604,2,0,B|176:344|216:360|216:360|256:376|304:360,1,160,2|0,0:0|0:0,0:0:0:0:
256,288,61149,2,0,L|226:213,1,80,10|0,0:0|0:0,0:0:0:0:
376,280,61513,2,0,L|405:354,1,80,0|2,0:0|0:0,0:0:0:0:
472,200,61877,2,0,L|424:80,1,120,8|0,0:0|0:0,0:0:0:0:
427,88,62240,5,4,0:0:0:0:
392,16,62422,1,0,0:0:0:0:
344,80,62604,1,8,0:0:0:0:
264,72,62786,2,0,P|280:136|368:160,1,160,2|0,0:0|0:0,0:0:0:0:
344,80,63331,1,10,0:0:0:0:
392,240,63513,2,0,B|348:254|308:238|308:238|268:222|236:238,1,160
272,312,64059,5,8,0:0:0:0:
192,168,64240,2,0,B|152:236|152:236|192:308,1,160,2|0,0:0|0:0,0:0:0:0:
88,184,64786,2,0,B|127:113|127:113|87:45,1,160,10|0,0:0|0:0,0:0:0:0:
424,45,65513,1,8,0:0:0:0:
424,45,65695,2,0,B|384:113|384:113|424:184,1,160,2|0,0:0|0:0,0:0:0:0:
472,248,66240,2,0,B|488:284|488:284|472:324,1,80,8|0,0:0|0:0,0:0:0:0:
400,288,66604,5,2,0:0:0:0:
352,224,66786,1,2,0:0:0:0:
236,292,66968,1,10,0:0:0:0:
236,292,67059,1,0,0:0:0:0:
236,292,67149,1,0,0:0:0:0:
320,304,67331,5,0,0:0:0:0:
216,208,67513,1,10,0:0:0:0:
352,224,67695,1,8,0:0:0:0:
236,292,67877,1,8,0:0:0:0:
292,164,68059,6,0,P|216:208|152:176,1,160,4|8,0:0|0:0,0:0:0:0:
80,144,68604,2,0,B|80:196|80:196|96:244|96:244|96:308,1,160,2|0,0:0|0:0,0:0:0:0:
16,272,69149,1,8,0:0:0:0:
173,337,69331,2,0,B|173:225|173:225|149:161,1,160,2|0,0:0|0:0,0:0:0:0:
80,144,69877,2,0,B|64:104|64:104|64:24,1,120,10|0,0:0|0:0,0:0:0:0:
64,27,70240,1,0,0:0:0:0:
80,144,70422,1,10,0:0:0:0:
200,128,70604,1,8,0:0:0:0:
184,12,70786,1,0,0:0:0:0:
132,80,70968,6,0,P|200:120|184:216,1,160,2|8,0:0|0:0,0:0:0:0:
380,304,71513,2,0,P|312:264|328:168,1,160,2|0,0:0|0:0,0:0:0:0:
384,224,72059,1,8,0:0:0:0:
456,352,72240,2,0,B|456:300|456:300|472:252|472:252|472:188,1,160,2|0,0:0|0:0,0:0:0:0:
256,192,72786,1,8,0:0:0:0:
56,32,72968,2,0,B|56:84|56:84|40:132|40:132|40:196,1,160,2|10,0:0|0:0,0:0:0:0:
120,176,73513,6,0,L|120:128,4,40,8|0|0|0|4,0:0|0:0|0:0|0:0|0:0,0:0:0:0:
88,248,74059,1,0,0:0:0:0:
160,272,74240,1,8,0:0:0:0:
128,344,74422,2,0,P|192:344|232:256,1,160,2|0,0:0|0:0,0:0:0:0:
192,200,74968,1,10,0:0:0:0:
312,312,75149,2,0,B|324:268|312:236|312:236|300:200|312:152,1,160
384,192,75695,1,8,0:0:0:0:
388,272,75877,6,0,B|344:272|312:248|312:248|284:272|236:272,1,160,8|2,0:0|0:0,0:0:0:0:
124,112,76422,2,0,B|168:112|200:136|200:136|228:112|276:112,1,160,8|0,0:0|0:0,0:0:0:0:
256,192,76968,1,0,0:0:0:0:
336,208,77149,1,10,0:0:0:0:
352,128,77331,1,2,0:0:0:0:
273,112,77513,1,0,0:0:0:0:
256,192,77695,5,2,0:0:0:0:
96,224,77877,1,10,0:0:0:0:
64,72,78059,1,0,0:0:0:0:
224,40,78240,2,0,B|200:72|208:120|208:120|248:136,1,120,2|0,0:0|0:0,0:0:0:0:
272,112,78604,2,0,B|328:112|328:112|376:128|376:128|432:128,1,160,10|0,0:0|0:0,0:0:0:0:
429,128,79059,2,0,L|480:128,5,40,0|10|0|8|0|8,0:0|0:0|0:0|0:0|0:0|0:0,0:0:0:0:
488,208,79695,6,0,B|416:200|392:264|392:264|392:312,1,160,4|8,0:0|0:0,0:0:0:0:
24,176,80422,2,0,B|96:184|120:120|120:120|120:72,1,160,2|8,0:0|0:0,0:0:0:0:
328,352,81149,6,0,B|280:336|280:336|160:336,1,160,4|8,0:0|0:0,0:0:0:0:
184,32,81877,2,0,B|232:48|232:48|352:48,1,160,2|0,0:0|0:0,0:0:0:0:
256,192,82604,12,0,84786,0:0:0:0:
192,61,85149,5,10,0:0:0:0:
320,61,85331,1,0,0:0:0:0:
256,113,85513,2,0,B|244:158|260:185|260:185|252:197|252:197|268:221|256:269,1,160,2|8,0:0|0:0,0:0:0:0:
184,237,86059,2,0,P|184:301|200:325,2,80
184,237,86604,1,0,0:0:0:0:
256,192,86786,12,0,88422,0:0:0:0:
