osu file format v9

[General]
AudioFilename: 02 Dramatic daydream.mp3
AudioLeadIn: 0
PreviewTime: 65194
Countdown: 0
SampleSet: Normal
StackLeniency: 0.7
Mode: 0
LetterboxInBreaks: 1

[Editor]
DistanceSpacing: 1.2
BeatDivisor: 4
GridSize: 4

[Metadata]
Title:Dramatic Daydream
Artist:Choucho
Creator:Miya
Version:Insane
Source:Eiyuu Densetsu: Sora no Kiseki The Animation
Tags:Harmonia Yasora-chan Yasora

[Difficulty]
HPDrainRate:7
CircleSize:4
OverallDifficulty:8
ApproachRate:8
SliderMultiplier:1.4
SliderTickRate:2

[Events]
//Background and Video events
0,0,"bg0405gi1.jpg"
//Break Periods
2,104027,115439
//Storyboard Layer 0 (Background)
//Storyboard Layer 1 (Fail)
//Storyboard Layer 2 (Pass)
//Storyboard Layer 3 (Foreground)
//Storyboard Sound Samples
//Background Colour Transformations
3,100,163,162,255

[TimingPoints]
1680,392.156862745098,4,1,0,80,1,0
19523,-100,4,2,0,100,0,0
20699,-100,4,1,0,80,0,0
25601,-100,4,2,0,100,0,0
26974,-100,4,2,0,80,0,0
33052,-100,4,2,0,50,0,0
33248,-100,4,2,0,80,0,0
45601,-100,4,2,0,50,0,0
45797,-100,4,2,0,80,0,0
52268,-100,4,1,0,80,0,0
52464,-100,4,2,0,80,0,0
53052,-100,4,1,0,80,0,0
53248,-100,4,2,0,80,0,0
53836,-100,4,1,0,80,0,0
54032,-100,4,2,0,80,0,0
54621,-100,4,1,0,80,0,0
54817,-100,4,2,0,80,0,0
55405,-100,4,1,0,80,0,0
55601,-100,4,2,0,80,0,0
56189,-100,4,1,0,80,0,0
56385,-100,4,2,0,80,0,0
56974,-100,4,1,0,80,0,0
57170,-100,4,2,0,80,0,0
57758,-100,4,1,0,80,0,0
57954,-100,4,2,0,80,0,0
58542,-100,4,1,0,80,0,0
58738,-100,4,2,0,80,0,0
59327,-100,4,1,0,80,0,0
59523,-100,4,2,0,80,0,0
60111,-100,4,1,0,80,0,0
60307,-100,4,2,0,80,0,0
60895,-100,4,1,0,80,0,0
61091,-100,4,2,0,80,0,0
61679,-100,4,1,0,80,0,0
61876,-100,4,2,0,80,0,0
62464,-100,4,1,0,80,0,0
62660,-100,4,2,0,80,0,0
63248,-100,4,1,0,80,0,0
63444,-100,4,2,0,80,0,0
64425,-100,4,1,0,80,0,0
64621,-100,4,2,0,80,0,0
65013,-100,4,1,0,80,0,0
65209,-100,4,2,0,80,0,0
65601,-100,4,1,0,80,0,0
65797,-100,4,2,0,80,0,0
65993,-100,4,1,1,80,0,1
91091,-100,4,2,0,80,0,0
91287,-100,4,1,0,80,0,0
96385,-100,4,2,0,80,0,0
97366,-100,4,1,0,80,0,0
102072,-100,4,2,0,20,0,0
103640,-100,4,2,0,80,0,0
122464,-100,4,2,0,50,0,0
122562,-100,4,2,0,80,0,0
129130,-100,4,1,0,80,0,0
129523,-100,4,2,0,80,0,0
129915,-100,4,1,0,80,0,0
130111,-100,4,2,0,80,0,0
130699,-100,4,1,0,80,0,0
130895,-100,4,2,0,80,0,0
131483,-100,4,1,0,80,0,0
131680,-100,4,2,0,80,0,0
132268,-100,4,1,0,80,0,0
132464,-100,4,2,0,80,0,0
133052,-100,4,1,0,80,0,0
133248,-100,4,2,0,80,0,0
133836,-100,4,1,0,80,0,0
134032,-100,4,2,0,80,0,0
134621,-100,4,1,0,80,0,0
134817,-100,4,2,0,80,0,0
135405,-100,4,1,0,80,0,0
135601,-100,4,2,0,80,0,0
136189,-100,4,1,0,80,0,0
136385,-100,4,2,0,80,0,0
136974,-100,4,1,0,80,0,0
137170,-100,4,2,0,80,0,0
137758,-100,4,1,0,80,0,0
137954,-100,4,2,0,80,0,0
138542,-100,4,1,0,80,0,0
138738,-100,4,2,0,80,0,0
139327,-100,4,1,0,80,0,0
139523,-100,4,2,0,80,0,0
140111,-100,4,1,0,80,0,0
140307,-100,4,2,0,80,0,0
141287,-100,4,1,0,80,0,0
141483,-100,4,2,0,80,0,0
141876,-100,4,1,0,80,0,0
142072,-100,4,2,0,80,0,0
142464,-100,4,1,0,80,0,0
142660,-100,4,2,0,80,0,0
142856,-100,4,1,1,90,0,1
167954,-100,4,2,0,80,0,0

[Colours]
Combo1 : 177,69,56
Combo2 : 132,203,145
Combo3 : 21,65,164
Combo4 : 216,122,50

[HitObjects]
144,192,14229,1,4
200,128,14425,1,0
256,192,14621,1,0
308,128,14817,1,0
364,192,15013,2,0,B|434:192,2,70
312,256,15601,1,0
256,96,15993,5,0
196,152,16189,1,0
256,204,16385,1,0
320,152,16581,1,0
384,96,16778,2,0,B|460:96,2,70
464,276,17562,5,0
464,276,17660,1,0
464,276,17758,1,0
296,276,18150,1,0
296,276,18248,1,0
296,276,18346,1,0
380,132,18738,2,0,B|380:300,1,140
380,356,19327,1,0
240,344,19523,5,2
108,256,19719,1,2
268,256,19915,1,2
140,344,20111,1,2
188,192,20307,1,2
188,192,20503,1,4
368,124,20699,6,0,B|368:48,2,70
440,164,21287,2,0,B|464:200|436:232,1,70
368,268,21680,1,0
324,196,21876,2,0,B|176:196,1,140
120,140,22464,1,0
60,196,22660,1,0
228,196,23052,2,0,B|228:276,2,70,0|0|0
396,40,23836,5,0
428,64,23934,1,0
460,88,24032,1,0
460,256,24425,1,0
428,280,24523,1,0
396,304,24621,1,0
300,180,25013,1,0
216,180,25209,1,0
380,64,25797,5,2
380,296,25993,1,2
460,180,26189,1,2
300,180,26385,1,2
220,64,26581,1,2
220,296,26778,1,4
56,76,27170,6,0,B|20:92|12:136,1,70
12,212,27562,1,0
180,212,27954,2,0,B|224:212|240:256,1,70
396,304,28542,1,0
448,236,28738,1,0
396,172,28934,1,0
160,80,29523,5,0
96,28,29719,1,0
32,80,29915,1,0
96,236,30307,1,0
160,292,30503,1,0
324,328,30895,2,0,B|388:260|316:196,1,140
256,52,31680,5,0
128,140,31876,1,0
256,332,32072,1,0
376,140,32268,1,2
147,283,32464,1,0
357,283,32660,1,0
256,220,32856,2,0,B|256:176,2,35,2|0|4
288,60,33444,6,0,B|380:60,1,70
440,60,33836,1,0
368,212,34229,1,0
432,268,34425,2,0,B|368:316|304:268,1,140
252,200,35013,2,0,B|216:228|216:280,1,70
72,340,35601,5,0
12,280,35797,1,0
72,220,35993,1,0
228,280,36385,2,0,B|368:280,1,140
468,144,37170,2,0,B|328:144,1,140
180,64,37954,1,0
32,144,38346,5,0
32,284,38542,1,2
164,240,38738,1,0
256,344,38934,1,0
348,240,39130,1,2
480,284,39327,1,4
480,116,39719,6,0,B|444:80|396:80,1,70
336,84,40111,2,0,B|260:84|220:160,1,140
140,156,40699,1,0
12,268,41091,1,0
44,344,41287,1,0
128,360,41483,1,0
276,156,41876,5,0
276,156,42072,2,0,B|368:156,1,70
428,156,42464,1,0
380,316,42856,2,0,B|292:316,1,70
476,316,43444,1,0
428,156,43836,2,0,B|280:156,1,140
160,24,44621,5,0
52,112,44817,1,2
52,252,45013,1,0
160,340,45209,1,0
260,240,45405,1,2
360,340,45601,1,4
488,252,45993,6,0,B|488:176,2,70
492,84,46778,2,0,B|452:84|432:120,1,70
328,248,47366,1,0
256,204,47562,1,0
184,248,47758,1,0
80,380,48150,5,0
20,320,48346,1,0
0,240,48542,2,0,B|-36:172|0:104,1,140
100,240,49327,2,0,B|135:173|99:105,1,140
256,44,50111,2,0,B|256:192,1,140
404,96,50895,5,2
436,232,51091,1,2
256,172,51287,1,2
108,96,51483,1,8
76,232,51679,1,2
256,292,51876,1,4
256,116,52072,6,0,B|256:36,1,70
336,20,52464,1,0
416,52,52660,2,0,B|468:80|468:120,1,70
460,188,53052,2,0,B|460:232|424:256,1,70
388,320,53444,1,0
256,212,53836,5,0
168,320,54032,1,0
132,296,54130,1,0
116,256,54229,1,0
32,256,54425,2,0,B|32:208|80:184,1,70
144,176,54817,6,0,B|144:104,1,70
200,44,55209,1,0
260,104,55405,2,0,B|260:174,1,70
200,232,55797,2,0,B|224:272|276:272,1,70
256,356,56189,1,0
340,356,56385,1,0
412,296,56581,6,0,B|456:272|456:216,2,70
372,224,57170,2,0,B|348:180|292:180,2,70,0|0|0
332,296,57758,2,0,B|260:296,1,70
208,360,58150,6,0,B|152:296|208:228,1,140,4|0
248,164,58738,1,0
164,164,58934,1,0
204,92,59130,2,0,B|204:48|168:32,1,70
112,92,59523,1,0
84,124,59621,1,0
72,164,59719,1,0
116,328,60111,5,0
176,272,60307,1,0
236,328,60503,1,0
296,272,60699,1,0
356,328,60895,1,0
416,272,61091,2,0,B|460:244|460:192,1,70
48,272,61679,6,0,B|4:244|4:192,1,70
84,180,62072,1,0
172,180,62268,2,0,B|216:152|216:100,1,70
132,100,62660,2,0,B|144:56|192:40,1,70
260,48,63052,2,0,B|290:56|302:100,1,70
440,192,63640,5,0
302,100,63836,1,2
172,192,64032,1,2
304,268,64229,1,0
304,268,64425,5,0
252,336,64621,1,0
224,308,64719,1,0
216,268,64817,1,0
256,196,65013,1,0
340,196,65209,1,0
328,156,65307,1,0
300,128,65405,1,0
260,56,65601,1,0
216,128,65797,1,0
96,56,65993,6,0,B|32:104|32:196,1,140,4|0
104,220,66581,2,0,B|152:284|244:284,1,140,8|0
392,272,67366,2,0,B|456:224|456:132,1,140,8|0
424,72,67954,5,8
288,40,68150,1,0
152,72,68346,1,8
184,192,68542,1,0
148,212,68640,1,0
112,192,68738,1,0
48,316,68934,6,0,B|88:356|132:356,1,70,0|8
256,248,69523,1,0
312,308,69719,1,8
468,248,70111,2,0,B|472:168|404:128,1,140,0|8
256,56,70895,5,0
424,192,71091,1,8
256,328,71287,1,0
88,192,71483,1,8
256,244,71680,1,0
256,200,71778,1,0
256,160,71876,1,0
160,60,72072,6,0,B|128:80|128:124,1,70,0|4
256,244,72660,1,8
256,328,72856,1,0
256,160,73248,1,8
460,252,73640,6,0,B|496:232|496:188,2,70,8|0|0
332,196,74229,1,8
256,308,74425,1,0
188,196,74621,1,8
220,60,74817,1,0
256,40,74915,1,0
292,64,75013,1,0
376,64,75209,5,0
452,104,75405,1,8
88,292,75993,1,0
164,252,76189,1,8
424,292,76581,1,0
348,252,76778,1,8
256,108,77170,1,0
312,56,77366,2,0,B|300:20|256:8|212:20|200:56,1,140,8|8
76,152,77954,5,0
112,176,78052,1,0
120,216,78150,1,0
36,232,78346,1,0
92,296,78542,1,4
260,296,78934,5,0
332,340,79130,2,0,B|380:272|348:200,1,140,8|0
240,80,79915,1,8
72,60,80307,1,8
24,192,80503,1,0
68,324,80699,1,0
116,192,80895,1,8
192,156,81091,1,0
212,192,81189,1,0
192,228,81287,1,0
384,144,81483,6,0,B|464:144,1,70,0|8
464,228,81876,1,0
492,308,82072,2,0,B|422:308,1,70,0|8
148,256,82660,1,8
72,220,82856,2,0,B|24:208|20:160,2,70,0|8|0
256,76,83444,5,0
404,192,83640,1,8
256,308,83836,1,0
108,192,84032,1,8
320,300,84229,5,0
344,264,84327,1,0
352,224,84425,1,0
268,236,84621,1,0
268,152,84817,6,0,B|188:152|180:240,1,140,4|0
184,324,85405,2,0,B|104:324|88:236,1,140,8|8
256,16,86189,1,8
476,188,86581,1,0
412,312,86778,1,8
348,188,86974,1,0
284,312,87170,1,8
204,284,87366,1,0
224,248,87464,1,0
260,228,87562,1,0
60,192,87758,5,0
104,120,87954,1,8
64,44,88150,1,0
104,28,88248,1,0
144,44,88346,1,0
228,44,88542,2,0,B|280:44|292:92,1,70,0|8
220,232,89130,6,0,B|240:264|276:272,1,70,0|8
444,272,89719,1,8
496,208,89915,1,0
476,40,90307,1,0
256,40,90503,5,0
220,60,90601,1,0
204,100,90699,1,8
148,164,90895,1,0
228,184,91091,1,4
268,260,91287,5,0
328,320,91484,2,0,B|355:302|355:258,1,70
324,180,91876,2,0,B|356:160|392:180,1,70
460,224,92268,1,0
488,144,92464,2,0,B|468:114|428:96,1,70
352,80,92856,1,0
312,68,92954,1,0
272,80,93052,1,0
208,136,93248,2,0,B|144:176|120:256,1,140
184,304,93836,2,0,B|184:376,2,70
344,332,94425,5,0
376,304,94523,1,0
388,264,94621,1,0
432,192,94817,1,0
388,120,95013,1,0
376,80,95111,1,0
344,52,95209,1,0
236,192,95405,1,0
236,192,95601,2,0,B|404:192,1,140
460,192,96189,1,0
408,320,96385,5,0
408,64,96581,1,2
236,192,96778,1,2
116,264,96974,1,2
116,124,97170,1,2
236,52,97366,5,4
383,76,97562,2,0,B|360:52|320:52,1,70
320,136,97954,1,0
292,216,98150,2,0,B|315:240|355:240,1,70
424,192,98542,1,0
508,184,98738,2,0,B|540:248|508:328,1,140
484,352,99229,1,0
440,364,99327,1,0
368,320,99523,1,0
316,252,99719,1,0
256,196,99915,2,0,B|216:216|216:268,2,70
316,252,100503,1,0
168,340,100699,5,0
132,320,100797,1,0
112,284,100895,1,0
108,200,101091,1,0
76,120,101287,1,0
112,96,101385,1,0
144,120,101483,1,0
212,168,101680,1,0
256,248,101876,1,0
256,192,102072,12,4,103640
72,192,116189,5,4
188,72,116581,2,0,B|236:92|244:136,1,70,2|0
324,120,116974,1,2
488,76,117366,1,0
488,160,117562,1,2
384,292,117954,1,2
304,320,118150,1,0
224,292,118346,1,2
44,148,118738,5,0
112,100,118934,1,0
180,152,119130,2,0,B|284:208|380:152,1,210,2|0
448,100,119915,1,2
488,264,120307,2,0,B|436:316|348:316,1,140,2|2
84,300,121091,5,0
48,224,121287,1,2
76,60,121680,1,2
136,120,121876,1,0
196,60,122072,1,2
256,120,122268,1,0
316,60,122464,1,4
476,280,122856,6,0,B|448:324|404:328,1,70
340,328,123248,1,2
172,328,123640,2,0,B|180:280|228:260,1,70,0|2
256,64,124229,1,2
340,64,124425,2,0,B|340:116|296:140,1,70,0|2
192,216,125013,5,0
232,292,125209,1,0
308,324,125405,1,2
388,56,125797,1,2
108,56,126189,1,0
388,336,126581,1,2
108,336,126974,1,0
24,192,127366,6,0,B|48:148|96:144,1,70,0|2
236,100,127954,1,0
304,148,128150,1,0
388,148,128346,2,0,B|388:196|344:216,1,70,8|0
280,236,128738,6,0,B|292:300|344:288|380:296|388:332,1,140,4|0
492,192,129523,1,0
464,112,129719,1,0
396,60,129915,1,0
312,48,130111,1,0
228,60,130307,6,0,B|184:76|180:128,1,70
164,192,130699,1,0
80,188,130895,2,0,B|64:236|116:268,1,70
164,304,131287,1,0
200,328,131385,1,0
240,332,131483,1,0
232,248,131680,1,0
268,172,131876,6,0,B|320:192|320:248,1,70
336,300,132268,2,0,B|384:284|392:232,1,70
412,176,132660,1,0
388,96,132856,1,0
344,28,133052,2,0,B|308:44|300:92,1,70
100,108,133640,6,0,B|48:108|28:156,1,70
100,188,134032,1,0
100,228,134130,1,0
100,272,134229,1,0
104,356,134425,2,0,B|156:356|176:308,1,70
228,272,134817,1,0
312,272,135013,5,4
372,332,135209,1,0
392,252,135405,1,0
468,216,135601,2,0,B|444:176|400:172,1,70
332,188,135993,2,0,B|332:140|368:116,1,70
296,68,136385,1,0
212,68,136581,5,0
128,68,136778,2,0,B|128:116|172:132,1,70
236,156,137170,1,0
212,196,137268,1,0
172,208,137366,1,0
88,208,137562,2,0,B|88:256|124:272,1,70
184,320,137954,1,0
248,268,138150,5,0
316,316,138346,2,0,B|376:364,2,70
316,232,138934,2,0,B|364:172,2,70
248,180,139523,1,0
248,140,139621,1,0
248,100,139719,1,0
196,32,139915,2,0,B|164:56|164:104,1,70
28,192,140503,5,2
88,320,140699,1,2
224,360,140895,1,2
360,320,141091,1,0
256,196,141287,5,0
256,112,141483,1,0
296,120,141581,1,0
328,152,141680,1,0
328,236,141876,1,0
324,320,142072,1,0
364,312,142170,1,0
392,284,142268,1,0
396,196,142464,2,0,B|444:196|460:156,1,70,0|0
364,56,142856,5,4
152,56,143052,1,0
256,112,143248,1,0
256,112,143444,1,8
420,236,143836,1,0
92,236,144229,1,8
256,160,144621,5,0
256,72,144817,2,0,B|208:72|192:120,1,70,8|0
64,72,145209,1,8
136,116,145405,1,0
108,148,145503,1,0
68,160,145601,1,0
200,192,145797,6,0,B|292:192,1,70,0|8
352,192,146189,1,0
392,76,146385,1,0
392,308,146581,1,8
112,344,146974,2,0,B|36:344|8:260,1,140,0|8
40,96,147758,5,0
72,72,147856,1,0
112,76,147954,1,8
96,160,148150,1,0
180,160,148346,1,8
220,228,148542,1,0
252,200,148640,1,0
264,160,148738,1,0
272,76,148934,6,0,B|320:76|340:120,1,70,0|4
392,164,149327,1,0
500,292,149523,1,0
284,292,149719,1,8
24,192,150111,1,0
256,36,150503,1,8
492,192,150895,2,0,B|492:236|448:256,1,70,0|8
398,192,151287,2,0,B|360:220|364:249,1,70,0|8
404,324,151680,1,0
364,336,151778,1,0
324,324,151876,1,0
68,236,152072,5,0
68,152,152268,1,8
368,108,152856,1,0
300,56,153052,1,8
368,276,153444,1,0
300,328,153640,1,8
396,188,154032,1,0
312,188,154229,2,0,B|172:188,1,140,8|8
96,148,154817,5,0
80,188,154915,1,0
96,224,155013,1,0
24,268,155209,2,0,B|44:308|100:308,1,70,8|4
356,276,155797,5,0
416,332,155993,2,0,B|452:320|464:276|452:232|416:220,1,140,8|0
256,44,156778,1,8
96,220,157170,1,8
112,260,157268,1,0
136,292,157366,2,0,B|160:324|216:324,1,70
200,240,157758,1,8
204,156,157954,1,0
244,164,158052,1,0
272,196,158150,1,0
352,56,158346,6,0,B|392:56|412:92,1,70,0|8
340,136,158738,1,0
372,164,158836,1,0
416,168,158934,2,0,B|416:244,1,70,0|8
256,376,159523,1,8
176,348,159719,2,0,B|188:300|236:296,1,70,0|8
256,136,160307,5,0
256,96,160405,1,0
256,56,160503,1,8
136,96,160699,1,0
376,96,160895,1,8
296,208,161091,1,0
256,224,161189,1,0
216,208,161287,1,0
256,304,161483,1,0
152,308,161680,6,0,B|72:308|44:224,1,140,4|0
48,148,162268,2,0,B|73:71|153:71,1,140,8|8
256,204,163052,1,8
360,72,163444,1,8
396,92,163542,1,0
408,136,163640,1,0
452,208,163836,1,8
368,208,164032,1,0
408,284,164229,1,0
396,328,164327,1,0
360,348,164425,1,0
232,292,164621,5,0
232,92,164817,1,8
128,192,165013,1,0
168,192,165111,1,0
208,192,165209,1,0
292,192,165405,2,0,B|380:192,1,70,0|8
448,48,165993,6,0,B|488:56|504:88,1,70,0|8
496,260,166581,1,0
440,324,166778,1,8
96,284,167170,1,0
28,236,167366,5,0
56,204,167464,1,0
96,196,167562,1,8
212,116,167758,1,0
328,196,167954,1,4
