osu file format v9

[General]
AudioFilename: 02 Dramatic daydream.mp3
AudioLeadIn: 0
PreviewTime: 65194
Countdown: 0
SampleSet: Normal
StackLeniency: 0.7
Mode: 0
LetterboxInBreaks: 1

[Editor]
DistanceSpacing: 1.1
BeatDivisor: 4
GridSize: 4

[Metadata]
Title:Dramatic Daydream
Artist:Choucho
Creator:Miya
Version:Hard
Source:Eiyuu Densetsu: Sora no Kiseki The Animation
Tags:Harmonia Yasora-chan Yasora

[Difficulty]
HPDrainRate:5
CircleSize:4
OverallDifficulty:6
ApproachRate:7
SliderMultiplier:1.4
SliderTickRate:2

[Events]
//Background and Video events
0,0,"bg0405gi1.jpg"
//Break Periods
2,91291,101172
//Storyboard Layer 0 (Background)
//Storyboard Layer 1 (Fail)
//Storyboard Layer 2 (Pass)
//Storyboard Layer 3 (Foreground)
//Storyboard Sound Samples
//Background Colour Transformations
3,100,163,162,255

[TimingPoints]
1680,392.156862745098,4,1,0,80,1,0
19719,-100,4,2,0,80,0,0
20699,-100,4,1,0,80,0,0
25601,-100,4,2,0,100,0,0
26974,-100,4,2,0,80,0,0
33052,-100,4,2,0,50,0,0
33248,-100,4,2,0,80,0,0
45601,-100,4,2,0,50,0,0
45797,-100,4,2,0,80,0,0
52268,-100,4,1,0,80,0,0
52464,-100,4,2,0,80,0,0
53052,-100,4,1,0,80,0,0
53248,-100,4,2,0,80,0,0
53836,-100,4,1,0,80,0,0
54032,-100,4,2,0,80,0,0
54621,-100,4,1,0,80,0,0
54817,-100,4,2,0,80,0,0
55405,-100,4,1,0,80,0,0
55601,-100,4,2,0,80,0,0
56189,-100,4,1,0,80,0,0
56385,-100,4,2,0,80,0,0
56974,-100,4,1,0,80,0,0
57170,-100,4,2,0,80,0,0
57758,-100,4,1,0,80,0,0
57954,-100,4,2,0,80,0,0
58542,-100,4,1,0,80,0,0
58738,-100,4,2,0,80,0,0
59327,-100,4,1,0,80,0,0
59523,-100,4,2,0,80,0,0
60111,-100,4,1,0,80,0,0
60307,-100,4,2,0,80,0,0
60895,-100,4,1,0,80,0,0
61091,-100,4,2,0,80,0,0
61679,-100,4,1,0,80,0,0
61876,-100,4,2,0,80,0,0
62464,-100,4,1,0,80,0,0
62660,-100,4,2,0,80,0,0
63248,-100,4,1,0,80,0,0
63444,-100,4,2,0,80,0,0
64425,-100,4,1,0,80,0,0
64621,-100,4,2,0,80,0,0
65013,-100,4,1,0,80,0,0
65209,-100,4,2,0,80,0,0
65601,-100,4,1,0,80,0,0
65797,-100,4,2,0,80,0,0
65993,-100,4,1,1,80,0,1
91091,-100,4,2,0,80,0,0
129130,-100,4,1,0,80,0,0
129523,-100,4,2,0,80,0,0
129915,-100,4,1,0,80,0,0
130307,-100,4,2,0,80,0,0
130699,-100,4,1,0,80,0,0
130895,-100,4,2,0,80,0,0
131483,-100,4,1,0,80,0,0
131680,-100,4,2,0,80,0,0
132268,-100,4,1,0,80,0,0
132464,-100,4,2,0,80,0,0
133052,-100,4,1,0,80,0,0
133248,-100,4,2,0,80,0,0
133836,-100,4,1,0,80,0,0
134032,-100,4,2,0,80,0,0
134621,-100,4,1,0,80,0,0
134817,-100,4,2,0,80,0,0
135405,-100,4,1,0,80,0,0
135601,-100,4,2,0,80,0,0
136189,-100,4,1,0,80,0,0
136385,-100,4,2,0,80,0,0
136974,-100,4,1,0,80,0,0
137170,-100,4,2,0,80,0,0
137758,-100,4,1,0,80,0,0
137954,-100,4,2,0,80,0,0
138542,-100,4,1,0,80,0,0
138738,-100,4,2,0,80,0,0
139327,-100,4,1,0,80,0,0
139523,-100,4,2,0,80,0,0
140111,-100,4,1,0,80,0,0
140307,-100,4,2,0,80,0,0
141287,-100,4,1,0,80,0,0
141483,-100,4,2,0,80,0,0
141876,-100,4,1,0,80,0,0
142072,-100,4,2,0,80,0,0
142464,-100,4,1,0,80,0,0
142660,-100,4,2,0,80,0,0
142856,-100,4,1,1,90,0,1
167954,-100,4,2,0,80,0,0

[Colours]
Combo1 : 177,69,56
Combo2 : 132,203,145
Combo3 : 21,65,164
Combo4 : 216,122,50

[HitObjects]
72,176,14229,2,0,B|108:104|184:88,1,140,4|0
208,244,15013,1,0
260,304,15209,2,0,B|328:344|396:304,1,140
328,152,15993,1,0
388,104,16189,1,0
448,152,16385,1,0
372,288,16778,5,0
256,348,16974,1,0
140,288,17170,1,0
256,68,17562,6,0,B|256:136,1,70
304,196,17954,1,0
352,136,18150,2,0,B|388:168|388:216,1,70
456,332,18738,2,0,B|392:376|324:332,1,140
284,264,19327,2,0,B|248:284|244:332,1,70
180,280,19719,6,0,B|124:232,1,70,2|2
128,156,20111,2,0,B|176:100,1,70,2|2
240,64,20503,1,4
364,284,20895,6,0,B|440:264|440:180,1,140
384,128,21483,1,0
244,192,21876,2,0,B|96:192,1,140
52,252,22464,1,0
100,312,22660,1,0
252,356,23052,5,0
372,312,23248,1,0
452,216,23444,1,0
256,56,23836,5,0
192,104,24032,2,0,B|152:164|196:236,1,140
256,284,24621,1,0
388,352,25013,2,0,B|428:368|456:352,1,70
416,120,25797,6,0,B|488:120,1,70,2|2
356,88,26189,2,0,B|356:8,1,70,2|2
356,152,26581,2,0,B|356:232,1,70,2|4
128,92,27170,6,0,B|60:92,2,70
100,244,27954,1,0
164,288,28150,1,0
272,176,28542,2,0,B|340:140|408:176,1,140
256,360,29523,6,0,B|256:280,2,70
112,300,30307,1,0
68,236,30503,1,0
184,128,30895,2,0,B|220:56|296:44,1,140
316,200,31680,6,0,B|396:208|420:280,1,140
488,316,32268,1,2
420,356,32464,1,0
356,316,32660,2,0,B|288:356|220:316,1,140,2|4
84,256,33444,5,0
36,196,33640,1,0
84,136,33836,1,0
228,200,34229,1,0
228,200,34425,2,0,B|296:200|268:272|348:272,1,140
376,340,35013,2,0,B|412:320|416:280,1,70
436,132,35601,5,0
436,132,35797,1,0
364,100,35993,2,0,B|220:100,1,140,0|0
88,48,36778,1,0
28,192,37170,1,0
88,336,37562,1,0
240,356,37954,6,0,B|276:376|308:356,1,70
356,300,38346,1,0
400,236,38542,1,2
356,168,38738,1,0
400,104,38934,1,0
356,40,39130,2,0,B|320:28|288:40,1,70,2|4
135,68,39719,5,0
95,136,39915,1,0
135,204,40111,2,0,B|147:280|223:308,1,140
295,308,40699,2,0,B|367:281|379:205,1,140
415,136,41287,1,0
379,68,41483,1,0
159,139,42072,6,0,B|91:163|71:251,1,140
92,316,42660,1,0
156,360,42856,1,0
232,360,43052,1,0
384,328,43444,2,0,B|464:288|484:212,1,140
296,52,44229,6,0,B|248:52|224:88,1,70
156,176,44621,1,0
232,276,44817,1,2
308,176,45013,2,0,B|356:176|380:212,1,70,0|0
408,320,45405,2,0,B|440:360,2,35,2|0|4
340,96,45993,6,0,B|264:96|220:176,1,140
100,252,46778,1,0
136,320,46974,2,0,B|204:364|268:320,1,140
344,320,47562,1,0
304,252,47758,1,0
376,116,48150,5,0
304,92,48346,1,0
232,116,48542,2,0,B|188:116|160:152,1,70
108,188,48934,2,0,B|140:260|236:260,1,140
376,264,49719,1,0
428,208,49915,1,0
432,132,50111,1,0
188,72,50503,6,0,B|148:92|136:144,1,70
84,236,50895,1,0
208,236,51091,1,2
320,292,51287,2,0,B|325:323|365:343,1,70,0|8
432,236,51679,1,0
464,212,51778,1,0
472,172,51876,1,4
360,68,52268,6,0,B|280:68|232:136,1,140
276,196,52856,1,0
200,196,53052,1,0
164,344,53444,2,0,B|84:336|56:256,1,140
20,196,54032,1,0
56,128,54229,1,0
112,76,54425,1,0
148,60,54523,1,0
184,76,54621,1,0
148,224,55013,6,0,B|180:292|272:304,1,140
308,360,55601,1,0
356,300,55797,2,0,B|433:290|465:222,1,140
456,148,56385,1,0
324,68,56778,5,0
260,24,56974,1,0
192,68,57170,1,0
128,24,57366,1,0
64,68,57562,1,0
16,128,57758,2,0,B|-24:196|20:268,1,140,0|4
152,332,58542,6,0,B|224:364|288:332,1,140
356,296,59130,1,0
412,240,59327,1,0
444,88,59719,2,0,B|368:88|320:148,1,140
256,100,60307,1,0
192,144,60503,1,0
256,184,60699,1,0
256,224,60797,1,0
256,264,60895,1,0
104,296,61287,6,0,B|104:376,2,70
32,268,61876,2,0,B|48:220|100:220,1,70
156,220,62268,1,0
116,152,62464,1,0
256,92,62856,6,0,B|256:240,1,140
384,320,63640,2,0,B|436:376,2,70,2|2|2
468,192,64425,6,0,B|468:104|384:72,1,140
360,144,65013,2,0,B|284:144,1,70
212,144,65405,1,0
212,144,65601,1,0
168,80,65797,1,0
144,108,65895,1,0
136,144,65993,1,4
64,280,66385,5,0
124,328,66581,1,8
272,364,66974,2,0,B|340:400|408:364,1,140,0|8
340,224,67758,1,0
340,184,67856,1,0
340,144,67954,1,8
376,76,68150,1,0
300,76,68346,1,8
80,144,68934,6,0,B|44:164|36:212,1,70,0|8
0,348,69523,1,0
76,348,69719,1,8
228,348,70111,2,0,B|280:276|288:328|344:256,1,140,0|8
464,180,70895,1,0
440,148,70993,1,0
404,136,71091,1,8
328,132,71287,2,0,B|252:132,1,70,0|8
56,248,72072,5,0
100,312,72268,1,4
256,312,72660,2,0,B|256:236,1,70,8|0
256,88,73248,1,8
396,20,73640,2,0,B|440:88|396:152,1,140,8|0
444,212,74229,1,8
396,272,74425,1,0
396,312,74523,1,0
396,352,74621,1,8
104,92,75209,6,0,B|32:92,1,70,0|8
412,92,75993,2,0,B|482:92,1,70,0|8
256,204,76581,2,0,B|256:274,1,70,0|8
80,92,77170,1,0
24,204,77366,2,0,B|28:284|104:312,1,140,8|8
220,356,77954,5,0
296,356,78150,1,0
256,288,78346,2,0,B|256:216,1,70,0|4
256,64,78934,5,0
328,88,79130,2,0,B|392:124|408:208,1,140,8|0
476,336,79915,2,0,B|409:371|341:335,1,140,8|0
272,304,80503,1,8
204,344,80699,1,0
140,304,80895,1,8
4,116,81483,6,0,B|20:72|60:60,1,70,0|8
200,32,82072,1,0
200,108,82268,1,8
348,68,82660,2,0,B|420:96|436:176,1,140,0|8
496,312,83444,1,0
436,360,83640,1,8
376,312,83836,1,0
316,360,84032,1,8
84,356,84621,5,0
32,300,84817,1,4
32,148,85209,1,0
84,88,85405,1,8
148,228,85797,2,0,B|296:228,1,140,8|0
408,324,86581,1,0
460,268,86778,1,8
460,192,86974,1,0
408,136,87170,1,8
200,240,87758,6,0,B|156:232|140:192,1,70,0|8
76,64,88346,1,0
144,32,88542,1,0
212,64,88738,1,8
344,140,89130,5,0
408,184,89327,2,0,B|448:252|408:316,1,140,8|0
332,344,89915,2,0,B|268:380|196:344,1,140,8|8
88,280,90503,6,0,B|48:312,2,35,0|0|8
32,168,90895,1,0
88,56,91091,1,4
256,192,102072,12,4,103640
456,124,104032,5,2
392,80,104229,1,0
328,124,104425,1,2
220,236,104817,1,0
196,308,105013,2,0,B|132:348|64:308,2,140,2|0|2
396,192,106385,5,0
320,192,106581,2,0,B|248:172|280:128|212:104,1,140,2|0
160,52,107170,1,0
104,104,107366,1,2
36,244,107758,2,0,B|60:320|136:336,1,140,0|2
256,244,108542,6,0,B|256:316,2,70,0|0|0
288,172,109130,1,2
256,100,109327,2,0,B|256:20,2,70
224,172,109915,1,2
112,72,110307,6,0,B|60:20,2,70,0|0|2
16,192,111091,1,0
64,252,111287,2,0,B|132:292|196:252,1,140,2|0
244,192,111876,2,0,B|312:192,1,70,0|2
456,256,112464,6,0,B|492:184|448:124,1,140,0|2
304,64,113248,1,0
160,120,113640,2,0,B|116:179|152:251,1,140,2|0
304,288,114425,1,2
488,116,114817,6,0,B|440:51|370:43,1,140
256,92,115405,1,2
140,40,115601,1,0
24,92,115797,1,2
140,140,115993,1,0
140,180,116091,1,0
140,220,116189,1,4
32,332,116581,5,0
104,364,116778,2,0,B|180:364,1,70,0|2
328,364,117366,1,0
396,332,117562,1,2
328,196,117954,2,0,B|328:120,2,70,0|0|2
208,292,118738,5,0
136,272,118934,1,0
84,216,119130,2,0,B|48:148|76:80,1,140,2|0
136,36,119719,1,0
200,80,119915,2,0,B|268:100|248:156|308:172,1,140,2|0
456,192,120699,1,2
324,272,121091,5,0
308,308,121189,1,0
272,324,121287,1,0
244,252,121483,2,0,B|172:252,1,70,0|2
96,240,121876,2,0,B|108:192|152:180,1,70
212,176,122268,2,0,B|212:96,1,70,0|2
364,108,122856,6,0,B|364:32,2,70,0|0|2
404,256,123640,1,0
328,256,123836,2,0,B|272:256|272:324|200:324,1,140,2|0
144,368,124425,1,0
144,292,124621,1,2
28,192,125013,5,0
28,116,125209,2,0,B|28:40,1,70,0|2
176,80,125797,2,0,B|236:80|234:147|292:147,1,140,0|2
436,92,126581,2,0,B|480:160|436:224,1,140,0|2
324,328,127366,6,0,B|256:364|184:328,1,140
112,328,127954,1,2
152,260,128150,1,0
152,184,128346,2,0,B|152:88,2,70,10|0|4
260,68,129130,6,0,B|404:68,1,140
444,132,129719,1,0
400,196,129915,2,0,B|260:196,1,140
228,128,130503,2,0,B|188:144|184:192,1,70
124,132,130895,1,0
64,184,131091,1,0
4,224,131287,1,0
28,252,131385,1,0
64,260,131483,1,0
140,268,131680,5,0
220,268,131876,2,0,B|288:268|288:336|364:336,1,140
408,372,132464,1,0
408,296,132660,2,0,B|408:144,1,140
408,80,133248,1,0
256,280,133640,5,0
168,192,133836,1,0
256,104,134032,1,0
348,192,134229,1,0
256,280,134425,2,0,B|256:352,2,70
104,352,135013,6,0,B|36:320|24:240,1,140,4|0
80,192,135601,1,0
28,136,135797,2,0,B|39:59|107:27,1,140
176,68,136385,1,0
240,28,136581,1,0
308,64,136778,1,0
384,76,136974,2,0,B|448:112|468:188,1,140
480,260,137562,1,0
476,300,137660,1,0
444,324,137758,1,0
308,256,138150,6,0,B|236:256,2,70
384,256,138738,2,0,B|384:208|344:192,1,70
284,164,139130,2,0,B|212:164,1,70
76,96,139719,2,0,B|24:160|76:228,1,140
188,324,140503,5,2
256,220,140699,1,2
328,324,140895,1,2
468,116,141287,6,0,B|424:56|332:56,1,140
284,100,141876,1,0
220,56,142072,1,0
156,100,142268,1,0
120,168,142464,1,0
84,236,142660,1,0
120,252,142758,1,0
156,236,142856,1,4
256,352,143248,6,0,B|308:348|328:296,1,70,0|8
416,204,143836,2,0,B|412:124|340:80,1,140,0|8
204,40,144621,1,0
120,132,144817,1,8
204,228,145013,1,0
284,132,145209,1,8
408,132,145405,1,0
436,156,145503,1,0
452,192,145601,1,0
444,268,145797,6,0,B|444:312|404:336,1,70,0|8
368,268,146189,2,0,B|280:268,1,70
220,268,146581,1,8
80,328,146974,2,0,B|28:264|76:196,1,140,0|8
144,60,147758,1,0
236,144,147954,1,8
328,60,148150,1,0
420,144,148346,1,8
72,264,148934,5,0
128,324,149130,2,0,B|196:364|260:324,1,140,4|0
336,300,149719,2,0,B|336:368,2,70,8|0|0
400,160,150503,2,0,B|332:120|268:160,1,140,8|0
160,224,151091,1,8
160,100,151287,1,0
48,160,151483,1,8
48,288,151680,2,0,B|4:312,2,35
160,352,152072,5,0
256,268,152268,1,8
68,52,152856,1,0
144,152,153052,1,8
444,52,153444,1,0
368,152,153640,1,8
256,376,154032,1,0
256,300,154229,2,0,B|256:156,1,140,8|8
292,92,154817,1,0
260,76,154915,1,0
224,92,155013,1,0
164,44,155209,5,0
88,44,155405,2,0,B|28:84|16:168,1,140,4|0
24,248,155993,1,8
256,344,156385,1,0
492,248,156778,2,0,B|492:188|428:188|428:116,1,140,8|0
320,68,157366,1,8
256,176,157562,1,0
192,68,157758,1,8
132,180,157954,1,0
104,208,158052,1,0
92,244,158150,1,0
32,296,158346,5,0
92,344,158542,1,8
152,296,158738,1,0
212,344,158934,2,0,B|296:344,1,70,0|8
436,344,159523,2,0,B|436:200,1,140,8|8
492,60,160307,1,0
368,60,160503,1,8
256,120,160699,1,0
200,232,160895,1,8
88,56,161483,5,0
36,116,161680,2,0,B|-4:184|36:248,1,140,4|0
84,308,162268,2,0,B|152:348|216:308,1,140,8|0
344,220,163052,1,8
404,80,163444,1,0
280,80,163640,1,8
344,220,163836,1,0
344,344,164032,1,8
236,280,164229,1,0
200,272,164327,1,0
172,248,164425,1,0
120,192,164621,5,0
120,192,164817,1,8
336,116,165405,2,0,B|406:116,1,70,0|8
418,328,165993,2,0,B|348:328,1,70,0|8
136,192,166581,1,0
96,256,166778,2,0,B|140:284|180:256|180:256|240:256,1,140,8|8
300,292,167366,5,0
316,256,167464,1,0
300,220,167562,1,0
360,108,167758,1,0
236,108,167954,1,4
