osu file format v9

[General]
AudioFilename: Authentic symphony.mp3
AudioLeadIn: 1000
PreviewTime: 55262
Countdown: 0
SampleSet: Soft
StackLeniency: 0.7
Mode: 0
LetterboxInBreaks: 0

[Editor]
Bookmarks: 11210,32639,55267,77896
DistanceSpacing: 1.2
BeatDivisor: 4
GridSize: 4

[Metadata]
Title:Authentic symphony (TV Size)
Artist:Choucho
Creator:Ryafuka
Version:Insane
Source:Mashiro Iro Symphony -The color of lovers-
Tags:palette opening Takos MiLu

[Difficulty]
HPDrainRate:7
CircleSize:4
OverallDifficulty:7
ApproachRate:8
SliderMultiplier:1.8
SliderTickRate:2

[Events]
//Background and Video events
0,0,"BG.jpg"
Video,0,"Authentic symphony.avi"
//Break Periods
//Storyboard Layer 0 (Background)
//Storyboard Layer 1 (Fail)
//Storyboard Layer 2 (Pass)
//Storyboard Layer 3 (Foreground)
//Storyboard Sound Samples
//Background Colour Transformations
3,100,163,162,255

[TimingPoints]
1095,342.857142857143,4,2,1,55,1,0
8037,-100,4,2,1,50,0,0
8209,-100,4,2,1,45,0,0
8380,-100,4,2,1,40,0,0
8552,-100,4,2,1,35,0,0
8723,-100,4,2,1,30,0,0
11123,-100,4,2,1,50,0,0
29295,-100,4,2,1,45,0,0
29809,-100,4,2,1,50,0,0
31866,-100,4,2,1,45,0,0
32637,-100,4,2,2,55,0,0
52609,-100,4,2,2,30,0,0
55953,-100,4,2,2,60,0,1
60666,-100,4,2,2,50,0,1
61352,-100,4,2,2,60,0,1
77895,-133.333333333333,4,2,2,50,0,0
81237,-133.333333333333,4,2,2,65,0,0
81409,-133.333333333333,4,2,2,55,0,0
81580,-100,4,2,2,55,0,0
83210,-100,4,2,2,65,0,1
85523,-100,4,2,1,55,0,1
85695,-100,4,2,1,50,0,1
85866,-100,4,2,1,45,0,1
86037,-100,4,2,1,20,0,1
88523,-100,4,2,1,5,0,0

[Colours]
Combo1 : 255,255,166
Combo2 : 176,255,255
Combo3 : 172,255,172
Combo4 : 255,140,140
Combo5 : 231,206,255

[HitObjects]
256,192,2123,1,8
312,24,2466,6,0,B|316:72|288:116,1,90,4|0
188,80,2809,2,0,B|164:120|168:168,1,90,0|0
120,244,3152,1,0
209,246,3323,1,0
168,166,3495,1,0
120,244,3666,2,0,B|160:340|264:336,1,180,4|0
316,264,4180,2,0,B|412:264|468:172,1,180
356,36,4866,5,0
320,48,4952,1,0
292,68,5037,1,0
276,100,5123,1,0
268,136,5209,2,0,B|216:104|156:192|84:120,1,180,4|0
156,64,5723,2,0,B|212:140|156:240,1,180
116,312,6237,1,0
48,252,6409,2,4,B|104:220|160:312|228:276,1,180,4|0
340,340,6923,1,0
340,340,7266,6,0,B|432:296|416:188,2,180,0|0|4
252,316,8123,1,2
216,232,8294,1,2
252,148,8466,1,2
340,132,8637,1,2
256,192,8809,12,4,10695
96,108,11209,5,0
164,48,11380,2,0,B|260:32|344:108,1,180,0|2
408,52,11895,2,0,B|455:136|413:241,1,180
408,248,12323,1,0
396,268,12409,1,2
328,328,12580,1,0
280,252,12752,5,0
328,176,12923,1,0
280,100,13095,2,0,B|232:108|200:148,1,90,2|0
128,100,13437,2,0,B|158:137|204:144,1,90,0|0
203,231,13780,2,0,B|227:187|203:143,1,90,2|0
128,100,14123,1,0
64,268,14466,5,2
192,312,14637,2,0,B|196:264|160:224,1,90
64,136,14980,1,0
52,100,15066,1,0
40,64,15152,2,0,B|96:29|160:97|216:53,1,180,2|0
312,304,15837,1,2
312,304,16009,1,0
312,304,16180,1,8
468,84,16352,5,0
452,116,16437,1,0
436,148,16523,2,0,B|384:144|348:192,2,90,2|0|0
388,276,17037,2,0,B|340:284|300:260,1,90,0|2
244,188,17380,1,0
300,116,17552,2,0,B|348:136|356:184,1,90,0|0
318,261,17895,6,0,B|284:312|204:284|160:336,1,180,2|0
80,292,18409,1,0
112,208,18580,1,2
44,148,18752,1,0
44,148,18837,1,0
44,148,18923,2,0,B|48:100|88:64,1,90,0|0
156,120,19266,2,0,B|232:64|332:84,1,180,2|0
368,164,19780,1,0
476,20,19952,2,0,B|408:112,1,90,2|0
368,164,20295,5,0
408,264,20466,2,0,B|320:236,1,90,0|2
228,292,20809,2,0,B|192:208,1,90,0|2
84,196,21152,2,0,B|116:112,1,90,0|2
224,112,21495,5,8
224,112,21580,1,0
224,112,21666,2,0,B|279:70|347:141|403:102,1,180,8|2
336,36,22180,2,0,B|336:140|432:176,1,180
473,57,22695,1,2
397,105,22866,1,0
372,192,23037,2,0,B|336:280|240:312,1,180,0|2
244,310,23552,1,0
112,336,23723,5,0
48,248,23895,1,0
144,200,24066,1,2
64,128,24237,1,0
224,44,24409,5,0
224,44,24495,1,0
224,44,24580,1,0
224,44,24752,2,0,B|204:84|156:108,2,90,2|0|0
260,128,25266,2,0,B|280:84|328:72,1,90,0|2
368,152,25609,2,0,B|411:131|456:152,1,90,0|0
420,236,25952,2,0,B|466:248|486:293,1,90,0|2
400,316,26295,2,0,B|344:368|288:280|216:328,1,180
140,332,26809,5,2
92,256,26980,1,0
81,236,27066,1,0
71,215,27152,1,8
100,132,27323,2,0,B|140:160|196:144,1,90,0|2
272,124,27666,5,0
248,212,27837,1,0
186,147,28009,1,0
186,147,28095,1,0
186,147,28180,2,0,B|194:103|246:71,1,90,2|0
316,32,28523,2,0,B|344:72|400:72,1,90,0|0
412,160,28866,2,0,B|452:196|455:245,1,90,2|0
280,288,29380,5,2
273,294,29552,1,2
266,300,29723,1,2
88,344,30066,5,0
56,328,30152,1,0
32,300,30237,2,0,B|12:256|32:208,2,90,8|0|0
112,256,30752,1,0
144,152,30923,1,2
224,224,31095,1,0
255,120,31266,1,0
332,196,31437,1,0
360,92,31609,1,0
464,340,31952,5,2
441,338,32037,1,0
418,334,32123,1,0
397,325,32209,1,0
377,314,32295,1,2
358,300,32380,1,0
341,285,32466,1,0
327,266,32552,1,0
317,245,32637,6,0,B|341:149,1,90,4|0
294,78,32980,1,0
168,208,33152,1,0
212,132,33323,2,0,B|172:48,1,90,8|0
120,124,33666,2,0,B|76:148|72:204,2,90,0|0|8
80,284,34180,5,0
80,284,34352,2,0,B|124:352|196:288|248:344,1,180,0|8
328,312,34866,1,0
344,224,35037,1,0
364,232,35123,1,0
384,240,35209,1,0
416,324,35380,2,0,B|488:248|452:140,1,180,8|0
364,24,35895,5,0
448,56,36066,2,0,B|424:116|328:92|292:160,1,180,8|0
248,224,36580,1,2
32,352,36923,1,2
84,228,37094,1,2
176,328,37266,1,2
56,84,37609,1,2
132,36,37780,1,2
132,36,37866,1,0
132,36,37952,1,0
132,36,38037,1,0
132,36,38123,6,0,B|184:76|248:12|308:48,1,180,4|0
368,136,38637,1,0
296,216,38809,2,0,B|260:188|264:132,2,90,8|0|0
368,136,39323,2,0,B|436:204|416:304,1,180,8|0
316,344,39837,6,0,B|280:312|236:308,1,90,8|0
128,320,40180,2,0,B|96:284|100:236,1,90,0|0
60,136,40523,2,0,B|96:108|108:60,1,90,8|0
262,212,40866,5,2
262,212,41037,1,0
220,111,41209,1,10
220,111,41380,1,0
294,33,41552,2,0,B|338:57|390:57,1,90,4|0
476,104,41894,2,0,B|436:124|416:172,2,90,8|0|0
468,240,42409,2,0,B|440:280|384:280,1,90,0|8
268,148,42752,5,2
392,280,43094,1,2
392,280,43266,1,2
192,324,43609,6,0,B|96:276|112:164,1,180,4|0
117,155,44037,1,0
128,135,44123,1,0
216,151,44294,1,8
255,70,44466,2,0,B|306:102|306:156,1,90
268,223,44809,2,0,B|338:249|397:200|401:135,1,180,4|0
363,59,45323,1,0
452,73,45494,5,8
285,141,45666,1,8
420,259,45837,1,8
420,259,46009,5,8
349,315,46180,1,8
265,280,46352,2,0,B|218:262|171:284,1,90,4|0
28,339,46694,2,0,B|75:357|122:335,1,90,0|0
177,281,47037,5,8
125,207,47209,1,8
255,173,47380,1,8
91,98,47552,1,4
91,98,47894,5,0
177,122,48066,2,0,B|248:48,1,90,8|8
300,124,48409,2,0,B|400:88,1,90,8|8
384,183,48752,1,8
467,216,48923,1,8
396,272,49094,6,0,B|352:324|280:264|224:320,1,180,4|0
140,296,49609,1,0
112,212,49780,2,0,B|66:192|65:141,2,90,8|0|0
191,168,50295,1,0
191,168,50466,1,8
424,120,50637,5,0
336,132,50809,1,0
384,200,50980,2,0,B|332:296,2,90,0|8|0
424,120,51494,2,0,B|472:144|476:196,1,90,0|0
384,200,51837,6,0,B|328:224|292:132|216:152,1,180,8|8
144,204,52352,1,0
144,204,52523,1,8
256,192,52694,12,0,54580
256,48,55266,5,8
249,69,55352,1,0
244,90,55437,1,0
243,112,55523,1,0
249,133,55609,1,8
259,152,55694,1,0
272,170,55780,1,0
291,181,55866,1,0
313,185,55952,6,0,B|401:185,2,90,4|0|8
352,83,56466,1,0
436,272,56637,1,2
366,355,56809,1,0
316,260,56980,6,0,B|248:336,1,90,8|0
168,264,57323,2,0,B|68:304,1,90,2|0
36,212,57666,2,0,B|76:124,1,90,8|0
176,164,58009,2,0,B|256:116,1,90,2|0
448,212,58352,5,8
432,104,58523,1,0
344,168,58694,2,0,B|296:176|260:136,1,90,4|0
192,56,59037,1,8
192,56,59123,1,0
192,56,59209,1,0
300,68,59380,2,0,B|300:140|216:136|188:220,1,180,4|8
176,312,59894,1,0
272,260,60066,2,0,B|224:168|108:180,1,180,2|8
52,260,60580,1,0
80,44,60752,5,6
80,44,60923,1,0
124,180,61094,1,4
124,180,61266,1,0
228,80,61437,6,0,B|284:136|344:80|404:144,1,180,6|8
480,204,61952,1,0
376,232,62123,2,0,B|388:280|436:300,1,90,2|0
480,204,62466,1,8
431,298,62637,2,4,B|403:334|343:330,1,90,0|2
136,304,62980,1,0
116,276,63066,1,0
96,248,63152,2,0,B|160:188|264:196,1,180,8|2
304,296,63666,5,0
248,88,63837,1,8
304,296,64009,5,0
344,140,64180,1,2
304,296,64352,5,0
388,228,64523,1,8
472,160,64694,2,0,B|480:112|448:76,1,90,0|2
344,40,65037,1,0
192,136,65209,2,0,B|240:140|280:96,1,90,8|4
196,28,65552,5,2
104,84,65723,1,0
64,184,65894,1,8
104,284,66066,1,0
196,340,66237,5,0
218,340,66323,1,0
240,340,66409,1,0
262,340,66494,1,0
284,340,66580,1,8
306,340,66666,1,0
328,340,66752,1,0
350,340,66837,1,0
372,340,66923,6,0,B|464:288|436:172,1,180,4|8
364,108,67437,1,0
336,212,67609,1,2
440,188,67780,1,0
364,108,67952,6,0,B|272:108,1,90,8|0
200,28,68294,2,0,B|152:108,1,90,2|0
48,124,68637,2,0,B|92:220,1,90,8|0
108,312,68980,2,0,B|156:296|176:248,2,90,2|0|8
196,152,69494,1,0
204,132,69580,1,0
212,112,69666,2,0,B|228:68|272:48,2,90,6|0|8
108,312,70180,5,4
376,340,70523,1,4
468,84,70866,2,0,B|456:36|404:24,1,90,4|0
360,200,71209,2,0,B|407:213|443:174,1,90,0|8
316,48,71552,6,0,B|280:82|296:133,1,90,0|2
306,149,71809,1,0
318,167,71894,1,0
329,186,71980,1,0
341,204,72066,1,8
349,224,72152,1,0
351,246,72237,1,0
346,268,72323,1,0
339,289,72409,6,0,B|323:337|267:349,1,90,4|0
62,306,72752,2,0,B|78:258|134:246,1,90,8|0
232,232,73094,5,2
308,308,73266,1,0
164,148,73437,5,8
55,148,73609,1,0
272,88,73780,5,2
380,88,73952,1,0
487,88,74123,1,8
308,308,74466,5,2
232,232,74637,1,0
128,268,74809,1,2
52,192,74980,1,0
200,60,75152,6,0,B|272:132,1,90,2|0
160,152,75495,2,0,B|96:88,2,90,8|0|2
232,232,76009,1,0
308,308,76180,1,0
256,192,76352,12,0,77552
344,68,77895,6,0,B|420:104|404:188,1,134.999995976687,4|0
390,242,78409,1,2
282,324,78752,2,0,B|238:356|190:320|146:360,1,134.999995976687,0|2
31,192,79609,1,0
74,243,79780,2,0,B|137:198|119:119,1,134.999995976687,2|0
20,33,80466,2,0,B|56:105|152:49|200:125,1,202.49999396503,2|0
256,320,81323,5,4
491,47,81666,5,8
468,225,81837,1,8
304,147,82009,1,8
256,320,82180,1,8
104,224,82352,1,8
104,224,82523,1,8
104,224,82866,6,0,B|127:150|193:143|209:79,1,180,8|4
304,32,83380,1,0
395,90,83552,1,0
304,147,83723,2,0,B|317:195|372:217,1,90
456,160,84066,2,0,B|400:180|400:272|308:288,1,180
220,296,84580,1,8
220,296,84666,1,0
220,296,84752,1,0
120,340,84923,5,0
68,244,85095,2,0,B|96:132|208:160,1,180,0|2
306,182,85609,1,2
328,288,85780,1,2
220,296,85952,1,2
256,192,86123,12,0,88523
