osu file format v14

[General]
AudioFilename: Telescope by Choucho.mp3
AudioLeadIn: 1000
PreviewTime: 58611
Countdown: 0
SampleSet: Soft
StackLeniency: 0.7
Mode: 0
LetterboxInBreaks: 0
WidescreenStoryboard: 0

[Editor]
Bookmarks: 110215
DistanceSpacing: 1.2
BeatDivisor: 4
GridSize: 4
TimelineZoom: 1.4

[Metadata]
Title:telescope
TitleUnicode:telescope
Artist:ChouCho
ArtistUnicode:ChouCho
Creator:Kibbleru
Version:Hard
Source:
Tags:flyleaf ちょうちょ Lantis
BeatmapID:616925
BeatmapSetID:269835

[Difficulty]
HPDrainRate:5
CircleSize:4
OverallDifficulty:6
ApproachRate:7
SliderMultiplier:1.4
SliderTickRate:1

[Events]
//Background and Video events
0,0,"shooting star.jpg",0,0
//Break Periods
2,90714,101479
//Storyboard Layer 0 (Background)
//Storyboard Layer 1 (Fail)
//Storyboard Layer 2 (Pass)
//Storyboard Layer 3 (Foreground)
//Storyboard Sound Samples

[TimingPoints]
962,447.761194029851,4,2,1,40,1,0
13499,-100,4,2,1,45,0,0
13947,-125,4,2,1,40,0,0
14394,-166.666666666667,4,2,1,35,0,0
14842,-200,4,2,1,30,0,0
15290,-100,4,2,1,50,0,0
29618,-100,4,2,1,40,0,0
43947,-100,4,2,1,50,0,0
51111,-133.333333333333,4,2,1,40,0,0
54693,-117.647058823529,4,2,1,50,0,0
56484,-100,4,2,1,55,0,0
57379,-100,4,2,1,60,0,0
60066,-100,4,2,1,70,0,1
73051,-100,4,2,1,60,0,0
74394,-100,4,2,1,70,0,1
85141,-100,4,2,1,60,0,0
102379,-100,4,2,1,50,0,0
103051,-133.333333333333,4,2,1,35,0,0
104842,-100,4,2,1,40,0,0
117379,-100,4,2,1,50,0,0
129917,-100,4,2,1,55,0,0
130812,-100,4,2,1,60,0,0
133499,-100,4,2,1,70,0,1
146484,-100,4,2,1,60,0,0
147827,-100,4,2,1,70,0,1
158573,-100,4,2,1,60,0,0
162156,-100,4,2,1,50,0,0
176484,-100,4,2,1,60,0,0
205141,-166.666666666667,4,2,1,40,0,0
212305,-133.333333333333,4,2,1,50,0,0
215887,-133.333333333333,4,2,1,55,0,0
216782,-133.333333333333,4,2,1,60,0,0
219469,-100,4,2,1,70,0,1
230215,-100,4,2,1,60,0,0
233797,-100,4,2,1,50,0,0

[Colours]
Combo1 : 245,92,116
Combo2 : 255,140,64
Combo3 : 50,245,226

[HitObjects]
117,157,961,6,0,L|205:141,1,70,2|2,0:0|0:0,0:0:0:0:
260,168,1409,2,0,P|278:197|281:232,1,70,0|2,0:0|0:0,0:0:0:0:
244,300,1857,1,0,0:0:0:0:
308,340,2081,1,0,0:0:0:0:
376,304,2305,1,2,0:0:0:0:
376,284,2753,6,0,L|456:300,1,70,2|0,0:0|0:0,0:0:0:0:
496,240,3200,2,0,P|502:205|493:172,1,70,0|2,0:0|0:0,0:0:0:0:
476,96,3648,1,0,0:0:0:0:
400,120,3872,1,0,0:0:0:0:
356,56,4096,1,2,0:0:0:0:
360,36,4544,6,0,L|326:45|292:54,1,70,2|0,0:0|0:0,0:0:0:0:
224,92,4991,2,0,P|202:64|198:30,1,70,0|2,0:0|0:0,0:0:0:0:
124,8,5439,1,0,0:0:0:0:
64,56,5663,1,0,0:0:0:0:
92,128,5887,1,2,0:0:0:0:
108,116,6335,6,0,L|81:253,1,140,2|0,0:0|0:0,0:0:0:0:
108,328,7006,2,0,P|85:355|53:368,1,70,2|0,0:0|0:0,0:0:0:0:
168,264,7454,2,0,L|236:279,1,70,0|2,0:0|0:0,0:0:0:0:
240,304,8126,6,0,L|312:292,1,70,10|0,0:1|0:0,0:0:0:0:
380,320,8573,2,0,P|412:332|460:324,1,70,10|0,0:1|0:0,0:0:0:0:
500,272,9021,2,0,P|494:238|463:200,1,70,10|0,0:1|0:0,0:0:0:0:
428,144,9469,1,10,0:1:0:0:
436,120,9917,6,0,L|280:144,1,140,10|10,0:1|0:1,0:0:0:0:
228,108,10588,2,0,P|195:96|160:99,1,70,0|10,0:0|0:1,0:0:0:0:
112,164,11036,2,0,P|77:159|42:153,1,70,0|10,0:0|0:1,0:0:0:0:
16,144,11708,6,0,P|45:207|32:275,1,140,10|10,0:1|0:1,0:0:0:0:
104,308,12379,2,0,P|136:324|180:320,1,70,0|10,0:0|0:1,0:0:0:0:
229,280,12827,2,0,P|262:268|297:271,1,70,0|10,0:0|0:1,0:0:0:0:
172,220,13275,1,10,0:1:0:0:
231,170,13499,6,0,L|239:94,1,70,2|0,0:0|0:0,0:0:0:0:
312,146,13947,6,0,L|318:83,1,56,2|0,0:0|0:0,0:0:0:0:
391,119,14394,6,0,L|397:63,1,41.9999987182618,2|0,0:0|0:0,0:0:0:0:
468,93,14842,6,0,L|472:48,1,35,2|0,0:0|0:0,0:0:0:0:
480,176,15290,6,0,P|495:219|484:255,1,70,12|0,0:1|0:0,0:0:0:0:
424,284,15738,1,10,0:3:0:0:
364,236,15962,2,0,L|272:221,1,70,2|8,0:0|0:1,0:0:0:0:
228,264,16409,2,0,L|147:280,1,70,2|8,0:0|0:3,0:0:0:0:
92,240,16857,6,0,P|83:206|89:172,1,70,2|8,0:0|0:1,0:0:0:0:
176,88,17305,2,0,P|184:121|178:155,1,70,2|8,0:0|0:3,0:0:0:0:
248,184,17753,1,2,0:0:0:0:
308,140,17976,1,8,0:1:0:0:
380,168,18200,2,0,L|460:180,1,70,2|8,0:0|0:3,0:0:0:0:
504,124,18648,1,0,0:0:0:0:
440,252,18872,6,0,P|479:308|477:377,1,140,10|10,0:1|0:3,0:0:0:0:
400,360,19544,2,0,P|365:353|331:343,1,70,2|8,0:0|0:1,0:0:0:0:
256,272,19991,2,0,P|252:312|224:344,1,70,2|8,0:0|0:3,0:0:0:0:
160,312,20439,6,0,L|88:320,1,70,2|8,0:0|0:1,0:0:0:0:
40,220,20887,2,0,L|109:212,1,70,2|8,0:0|0:3,0:0:0:0:
176,172,21335,1,2,0:0:0:0:
176,172,21559,1,8,0:1:0:0:
88,112,21782,2,0,P|82:77|93:44,1,70,2|8,0:0|0:3,0:0:0:0:
164,12,22230,1,0,0:0:0:0:
228,108,22454,6,0,P|292:112|364:68,1,140,10|10,0:1|0:3,0:0:0:0:
432,92,23126,2,0,P|450:122|450:157,1,70,2|8,0:0|0:1,0:0:0:0:
388,204,23573,2,0,L|404:292,1,70,2|8,0:0|0:3,0:0:0:0:
336,316,24021,6,0,L|268:295,1,70,2|8,0:0|0:1,0:0:0:0:
220,236,24469,1,2,0:0:0:0:
144,248,24693,1,8,0:3:0:0:
80,292,24917,2,0,P|54:268|43:235,1,70,2|8,0:0|0:1,0:0:0:0:
20,152,25364,2,0,L|87:169,1,70,2|8,0:0|0:3,0:0:0:0:
148,120,25812,1,0,0:0:0:0:
276,64,26036,6,0,P|268:132|212:176,1,140,10|10,0:1|0:3,0:0:0:0:
172,239,26708,2,0,L|188:308,1,70,2|8,0:0|0:1,0:0:0:0:
267,356,27156,2,0,P|283:325|283:290,1,70,2|8,0:0|0:3,0:0:0:0:
320,220,27603,6,0,L|412:240,1,70,2|8,0:0|0:1,0:0:0:0:
456,196,28051,1,2,0:0:0:0:
456,196,28163,1,8,0:1:0:0:
456,196,28275,2,0,P|472:160|468:128,1,70,8|0,0:3|0:0,0:0:0:0:
396,56,28723,1,8,0:1:0:0:
300,112,28947,1,10,0:1:0:0:
300,112,29170,1,10,0:3:0:0:
320,136,29618,6,0,L|168:112,1,140,12|8,0:1|0:1,0:0:0:0:
116,156,30290,2,0,P|100:188|104:232,1,70,2|8,0:0|0:1,0:0:0:0:
160,272,30738,2,0,L|236:264,1,70,0|10,0:0|0:1,0:0:0:0:
284,212,31185,1,0,0:0:0:0:
344,260,31409,6,0,P|412:253|479:278,1,140,10|8,0:1|0:1,0:0:0:0:
488,196,32081,2,0,P|500:163|498:128,1,70,2|8,0:0|0:1,0:0:0:0:
436,80,32529,1,0,0:0:0:0:
368,116,32753,2,0,P|333:109|299:101,1,70,10|0,0:1|0:0,0:0:0:0:
436,80,33200,5,10,0:1:0:0:
372,196,33424,2,0,P|367:231|379:263,1,70,0|8,0:0|0:1,0:0:0:0:
324,320,33872,2,0,P|289:313|254:308,1,70,2|8,0:0|0:1,0:0:0:0:
200,252,34320,1,0,0:0:0:0:
136,296,34544,1,10,0:1:0:0:
68,260,34767,1,0,0:0:0:0:
84,184,34991,6,0,P|69:115|55:46,1,140,10|10,0:1|0:1,0:0:0:0:
124,12,35663,1,0,0:0:0:0:
164,80,35887,2,0,P|216:104|272:92,1,105,10|0,0:1|0:0,0:0:0:0:
292,68,36335,1,8,0:1:0:0:
392,56,36559,1,2,0:0:0:0:
455,176,36782,6,0,P|386:164|317:160,1,140,10|8,0:1|0:1,0:0:0:0:
256,208,37454,2,0,P|212:204|184:188,1,70,2|8,0:0|0:1,0:0:0:0:
324,252,37902,2,0,P|340:288|340:328,1,70,0|10,0:0|0:1,0:0:0:0:
276,356,38350,1,0,0:0:0:0:
216,312,38573,6,0,P|146:308|80:344,1,140,10|8,0:1|0:1,0:0:0:0:
36,220,39245,2,0,P|69:230|103:239,1,70,2|8,0:0|0:1,0:0:0:0:
168,196,39693,1,0,0:0:0:0:
208,128,39917,2,0,L|196:56,1,70,10|0,0:1|0:0,0:0:0:0:
168,196,40364,5,10,0:1:0:0:
228,244,40588,2,0,P|261:252|295:245,1,70,0|8,0:0|0:1,0:0:0:0:
396,184,41036,2,0,L|320:172,1,70,2|8,0:0|0:1,0:0:0:0:
288,104,41484,1,0,0:0:0:0:
332,40,41708,1,10,0:1:0:0:
332,40,41932,1,0,0:0:0:0:
212,60,42156,6,0,L|92:44,1,105,10|8,0:1|0:1,0:0:0:0:
84,76,42603,2,0,L|12:84,1,70,10|0,0:1|0:0,0:0:0:0:
108,160,43051,1,10,0:1:0:0:
136,256,43275,1,10,0:1:0:0:
111,271,43947,6,0,P|164:316|233:320,1,140,12|8,0:1|0:0,0:0:0:0:
364,240,44842,2,0,L|220:224,1,140,10|8,0:1|0:0,0:0:0:0:
172,168,45514,1,0,0:0:0:0:
223,111,45738,6,0,P|208:62|169:28,1,105,10|0,0:1|0:0,0:0:0:0:
204,8,46185,2,0,L|292:16,1,70,8|0,0:0|0:0,0:0:0:0:
344,48,46633,2,0,P|356:92|332:184,1,140,10|8,0:1|0:0,0:0:0:0:
264,220,47305,1,0,0:0:0:0:
200,176,47529,6,0,P|140:165|96:160,1,105,10|0,0:1|0:0,0:0:0:0:
67,184,47976,2,0,P|56:216|60:251,1,70,8|0,0:0|0:0,0:0:0:0:
80,328,48424,2,0,P|149:319|216:301,1,140,10|8,0:1|0:0,0:0:0:0:
307,257,49096,6,0,P|306:292|292:324,1,70,0|2,0:0|0:0,0:0:0:0:
244,116,49767,2,0,P|228:147|228:182,1,70,8|0,0:0|0:0,0:0:0:0:
164,224,50215,1,10,0:1:0:0:
92,196,50439,1,8,0:0:0:0:
88,120,50663,1,10,0:0:0:0:
148,72,50887,1,8,0:0:0:0:
208,120,51111,6,0,L|332:100,1,105.000004005432,12|8,0:3|0:3,0:0:0:0:
428,212,52006,2,0,P|452:164|444:96,1,105.000004005432,10|8,0:3|0:3,0:0:0:0:
392,60,52678,6,0,L|336:68,1,52.5000020027161,2|8,0:0|0:3,0:0:0:0:
264,204,53350,1,8,0:3:0:0:
148,96,53797,2,0,P|106:85|32:72,1,105.000004005432,10|8,0:3|0:3,0:0:0:0:
139,195,54693,6,0,P|159:218|167:246,1,59.5000011348725,12|8,0:3|0:3,0:0:0:0:
228,296,55141,2,0,P|257:297|284:285,1,59.5000011348725,10|8,0:3|0:3,0:0:0:0:
340,232,55588,2,0,L|340:168,1,59.5000011348725,10|8,0:3|0:3,0:0:0:0:
396,284,56036,2,0,P|423:295|452:294,1,59.5000011348725,10|8,0:3|0:3,0:0:0:0:
492,160,56484,6,0,P|474:164|457:168,3,35,10|8|8|8,0:3|0:3|0:3|0:3,0:0:0:0:
420,141,56932,2,0,P|403:139|372:133,3,35,10|8|8|8,0:3|0:3|0:3|0:3,0:0:0:0:
344,153,57379,6,0,P|323:161|304:165,3,35,10|8|8|8,0:3|0:3|0:3|0:3,0:0:0:0:
280,133,57827,2,0,P|265:122|250:115,3,35,10|8|8|8,0:3|0:3|0:3|0:3,0:0:0:0:
320,76,59618,5,8,0:3:0:0:
292,64,60066,6,0,P|316:128|324:212,1,140,12|10,0:1|0:0,0:0:0:0:
300,304,60738,2,0,P|268:272|236:264,1,70,2|8,0:0|0:1,0:0:0:0:
180,212,61185,2,0,L|104:224,1,70,0|8,0:0|0:0,0:0:0:0:
48,136,61633,6,0,L|117:125,1,70,2|8,0:0|0:1,0:0:0:0:
176,64,62081,1,0,0:0:0:0:
176,64,62305,1,8,0:0:0:0:
256,88,62529,2,0,P|268:124|264:160,1,70,2|10,0:0|0:1,0:0:0:0:
208,220,62976,1,0,0:0:0:0:
208,220,63088,1,8,0:1:0:0:
208,220,63200,2,0,P|244:252|276:260,1,70,10|0,0:0|0:0,0:0:0:0:
424,152,63648,6,0,L|284:163,1,140,8|8,0:1|0:0,0:0:0:0:
264,80,64320,1,2,0:0:0:0:
152,132,64544,2,0,P|128:160|116:260,1,140,10|10,0:1|0:0,0:0:0:0:
184,308,65215,1,0,0:0:0:0:
272,232,65439,6,0,L|344:224,1,70,10|0,0:1|0:0,0:0:0:0:
412,268,65887,2,0,P|420:308|408:340,1,70,10|0,0:0|0:0,0:0:0:0:
424,184,66335,2,0,P|412:144|428:72,1,105,10|8,0:1|0:1,0:0:0:0:
448,51,66782,2,0,P|415:65|380:67,1,70,10|8,0:0|0:1,0:0:0:0:
308,136,67230,6,0,P|249:100|232:34,1,140,12|10,0:1|0:0,0:0:0:0:
152,56,67902,1,2,0:0:0:0:
120,132,68126,1,8,0:1:0:0:
179,191,68350,2,0,P|186:226|191:261,1,70,0|10,0:0|0:0,0:0:0:0:
195,360,68797,6,0,P|219:334|252:324,1,70,2|8,0:0|0:1,0:0:0:0:
316,268,69245,2,0,L|392:280,1,70,0|8,0:0|0:0,0:0:0:0:
460,236,69693,1,2,0:0:0:0:
388,148,69917,2,0,L|400:68,1,70,10|0,0:1|0:0,0:0:0:0:
332,28,70364,1,10,0:0:0:0:
260,72,70588,1,0,0:0:0:0:
267,155,70812,6,0,P|200:139|132:155,1,140,10|10,0:1|0:0,0:0:0:0:
96,232,71484,1,0,0:0:0:0:
212,272,71708,2,0,L|360:252,1,140,10|10,0:1|0:0,0:0:0:0:
252,176,72379,1,10,0:1:0:0:
264,168,72827,6,0,L|276:92,1,70,8|10,0:1|0:0,0:0:0:0:
228,28,73275,1,0,0:0:0:0:
158,80,73499,2,0,P|109:96|57:95,1,105,10|8,0:1|0:1,0:0:0:0:
20,76,73947,1,10,0:0:0:0:
68,192,74170,1,8,0:1:0:0:
172,180,74394,6,0,L|138:315,1,140,12|10,0:1|0:0,0:0:0:0:
220,336,75066,2,0,P|264:352|304:348,1,70,2|8,0:0|0:1,0:0:0:0:
348,292,75514,2,0,P|339:245|316:213,1,70,0|8,0:0|0:0,0:0:0:0:
244,128,75962,6,0,L|248:204,1,70,2|8,0:0|0:1,0:0:0:0:
184,252,76409,1,0,0:0:0:0:
123,191,76633,2,0,P|91:179|56:178,1,70,8|2,0:0|0:0,0:0:0:0:
96,276,77081,2,0,L|108:348,1,70,10|0,0:1|0:0,0:0:0:0:
188,376,77529,1,10,0:0:0:0:
260,332,77753,1,0,0:0:0:0:
248,248,77976,6,0,P|236:200|260:92,1,140,10|8,0:1|0:0,0:0:0:0:
184,56,78648,1,2,0:0:0:0:
135,152,78872,2,0,P|68:133|0:116,1,140,10|10,0:1|0:0,0:0:0:0:
40,216,79544,6,0,P|46:250|53:284,1,70,8|10,0:1|0:1,0:0:0:0:
132,320,79991,1,0,0:0:0:0:
132,320,80103,1,8,0:1:0:0:
132,320,80215,2,0,P|167:321|201:310,1,70,10|8,0:0|0:1,0:0:0:0:
244,236,80663,1,10,0:1:0:0:
316,276,80887,1,8,0:1:0:0:
380,224,81111,1,10,0:0:0:0:
352,144,81335,1,0,0:0:0:0:
268,152,81559,6,0,P|198:156|131:137,1,140,12|8,0:1|0:0,0:0:0:0:
76,76,82230,1,2,0:0:0:0:
31,148,82454,2,0,P|11:176|6:210,1,70,10|0,0:1|0:0,0:0:0:0:
64,272,82902,1,10,0:0:0:0:
152,220,83126,6,0,L|160:300,1,70,12|10,0:1|0:1,0:0:0:0:
232,328,83573,1,0,0:0:0:0:
292,268,83797,2,0,P|340:252|368:256,1,70,8|2,0:0|0:0,0:0:0:0:
436,288,84245,2,0,P|483:267|511:223,1,105,10|0,0:1|0:0,0:0:0:0:
492,188,84693,2,0,L|484:112,1,70,10|8,0:0|0:1,0:0:0:0:
388,168,85141,6,0,L|248:152,1,140,12|8,0:1|0:0,0:0:0:0:
168,268,86036,2,0,L|308:284,1,140,2|8,0:0|0:0,0:0:0:0:
252,160,86932,6,0,L|182:151,1,70,10|8,0:0|0:0,0:0:0:0:
260,260,87379,2,0,L|329:268,1,70,10|8,0:0|0:0,0:0:0:0:
423,215,87827,2,0,P|419:199|413:182,3,35,10|8|8|8,0:0|0:0|0:0|0:0,0:0:0:0:
384,159,88275,2,0,P|387:142|393:126,3,35,10|8|8|8,0:0|0:0|0:0|0:0,0:0:0:0:
420,100,88723,5,12,0:1:0:0:
256,192,88835,12,10,90514,0:1:0:0:
200,92,102379,5,0,0:0:0:0:
200,92,102603,2,0,L|212:176,1,70,10|10,0:0|0:0,0:0:0:0:
192,248,103051,6,0,P|240:228|312:236,1,105.000004005432,10|0,0:1|0:0,0:0:0:0:
364,192,103723,2,0,P|388:220|392:292,1,105.000004005432,2|0,0:0|0:0,0:0:0:0:
384,364,104394,2,0,L|296:348,1,78.7500030040742,10|8,0:1|0:1,0:0:0:0:
292,316,104842,6,0,P|236:308|160:348,1,140,12|8,0:1|0:1,0:0:0:0:
120,280,105514,2,0,L|128:196,1,70,2|8,0:0|0:1,0:0:0:0:
172,148,105962,1,0,0:0:0:0:
236,192,106185,2,0,P|276:192|312:180,1,70,10|0,0:1|0:0,0:0:0:0:
172,148,106633,5,10,0:1:0:0:
228,96,106857,2,0,L|216:24,1,70,0|8,0:0|0:1,0:0:0:0:
292,8,107305,2,0,L|360:28,1,70,2|8,0:0|0:1,0:0:0:0:
388,100,107753,1,0,0:0:0:0:
328,148,107976,2,0,P|329:182|345:213,1,70,10|0,0:1|0:0,0:0:0:0:
424,300,108424,6,0,P|354:289|285:278,1,140,10|8,0:1|0:1,0:0:0:0:
228,228,109096,1,0,0:0:0:0:
168,280,109320,2,0,P|132:248|120:160,1,140,10|10,0:1|0:1,0:0:0:0:
164,100,109991,1,0,0:0:0:0:
264,140,110215,6,0,P|316:156|404:140,1,140,10|8,0:1|0:1,0:0:0:0:
468,180,110887,2,0,P|484:216|480:256,1,70,2|8,0:0|0:1,0:0:0:0:
436,304,111335,1,0,0:0:0:0:
372,264,111559,1,10,0:1:0:0:
304,304,111782,1,0,0:0:0:0:
231,228,112006,6,0,P|162:218|93:205,1,140,10|8,0:1|0:1,0:0:0:0:
140,292,112678,2,0,P|156:328|156:368,1,70,2|8,0:0|0:1,0:0:0:0:
232,384,113126,1,0,0:0:0:0:
292,336,113350,2,0,L|368:348,1,70,10|0,0:1|0:0,0:0:0:0:
232,384,113797,5,10,0:1:0:0:
232,268,114021,2,0,P|240:232|264:200,1,70,0|8,0:0|0:1,0:0:0:0:
268,120,114469,2,0,P|302:137|344:156,1,70,2|8,0:0|0:1,0:0:0:0:
400,116,114917,2,0,L|472:100,1,70,0|10,0:0|0:1,0:0:0:0:
508,168,115364,1,0,0:0:0:0:
432,252,115588,6,0,P|381:236|331:222,1,105,10|8,0:1|0:1,0:0:0:0:
296,236,116036,1,10,0:1:0:0:
203,291,116260,2,0,P|195:258|203:224,1,70,0|10,0:0|0:1,0:0:0:0:
248,160,116708,1,10,0:1:0:0:
260,132,117379,6,0,P|216:168|120:172,2,140,12|8|10,0:1|0:0|0:1,0:0:0:0:
412,104,118723,1,8,0:0:0:0:
372,168,118947,1,10,0:0:0:0:
432,216,119170,6,0,P|460:276|456:332,1,105,10|0,0:1|0:0,0:0:0:0:
428,336,119618,2,0,L|344:324,1,70,8|0,0:0|0:0,0:0:0:0:
300,276,120066,2,0,L|160:304,1,140,10|8,0:1|0:0,0:0:0:0:
96,228,120738,1,10,0:0:0:0:
200,192,120962,6,0,L|212:48,1,140,10|8,0:1|0:0,0:0:0:0:
276,8,121633,2,0,P|310:7|343:20,1,70,0|10,0:0|0:1,0:0:0:0:
384,84,122081,1,0,0:0:0:0:
292,120,122305,2,0,L|304:200,1,70,8|10,0:0|0:0,0:0:0:0:
348,288,122753,6,0,L|252:268,1,70,10|0,0:1|0:0,0:0:0:0:
208,240,123200,2,0,L|172:252|124:268,1,70,8|0,0:0|0:0,0:0:0:0:
76,220,123648,1,10,0:1:0:0:
48,148,123872,1,8,0:0:0:0:
100,92,124096,1,10,0:0:0:0:
172,120,124320,1,10,0:0:0:0:
168,215,124544,6,0,P|236:192|308:200,1,140,12|8,0:1|0:0,0:0:0:0:
364,248,125215,2,0,P|398:248|430:233,1,70,0|10,0:0|0:1,0:0:0:0:
292,284,125663,2,0,L|296:356,1,70,0|10,0:0|0:0,0:0:0:0:
196,272,126111,1,10,0:0:0:0:
152,336,126335,6,0,P|88:344|16:308,1,140,8|10,0:1|0:0,0:0:0:0:
88,172,127230,2,0,L|200:164,1,105,10|0,0:1|0:0,0:0:0:0:
224,188,127678,1,10,0:0:0:0:
304,112,127902,1,8,0:0:0:0:
384,200,128126,6,0,L|376:272,1,70,12|8,0:0|0:0,0:0:0:0:
316,316,128573,1,10,0:0:0:0:
316,316,128797,1,8,0:0:0:0:
248,216,129021,6,0,L|255:146,1,70,10|8,0:0|0:0,0:0:0:0:
212,84,129469,1,10,0:0:0:0:
212,84,129693,1,8,0:0:0:0:
104,140,129917,6,0,L|116:184,3,35,10|8|8|8,0:0|0:0|0:0|0:0,0:0:0:0:
132,208,130364,2,0,L|116:260,3,35,10|8|8|8,0:0|0:0|0:0|0:0,0:0:0:0:
108,276,130812,6,0,P|116:299|124:332,3,35,10|8|8|8,0:0|0:0|0:0|0:0,0:0:0:0:
96,339,131260,2,0,P|82:351|71:364,3,35,10|8|8|8,0:0|0:0|0:0|0:0,0:0:0:0:
176,280,133051,5,8,0:1:0:0:
168,300,133499,6,0,P|235:311|297:279,1,140,12|10,0:1|0:0,0:0:0:0:
364,231,134170,2,0,P|354:198|343:165,1,70,2|8,0:0|0:1,0:0:0:0:
268,128,134618,1,0,0:0:0:0:
268,128,134842,1,8,0:0:0:0:
147,211,135066,6,0,P|180:223|215:221,1,70,2|8,0:0|0:1,0:0:0:0:
284,268,135514,2,0,P|324:252|356:256,1,70,0|8,0:0|0:0,0:0:0:0:
420,304,135962,1,2,0:0:0:0:
484,252,136185,2,0,L|464:140,1,105,10|8,0:1|0:1,0:0:0:0:
432,124,136633,2,0,L|444:48,1,70,10|0,0:0|0:0,0:0:0:0:
344,112,137081,6,0,P|308:140|200:132,1,140,10|8,0:1|0:0,0:0:0:0:
160,80,137753,1,2,0:0:0:0:
100,168,137976,2,0,P|114:236|126:305,1,140,10|10,0:1|0:0,0:0:0:0:
204,344,138648,1,0,0:0:0:0:
292,268,138872,6,0,L|212:252,1,70,10|0,0:1|0:0,0:0:0:0:
212,172,139320,2,0,L|280:185,1,70,10|0,0:0|0:0,0:0:0:0:
360,156,139767,2,0,L|468:136,1,105,10|8,0:1|0:1,0:0:0:0:
495,163,140215,2,0,P|513:193|515:228,1,70,10|8,0:0|0:1,0:0:0:0:
420,352,140663,6,0,P|404:280|443:214,1,140,14|10,0:1|0:0,0:0:0:0:
328,248,141335,2,0,L|258:255,1,70,2|8,0:0|0:1,0:0:0:0:
188,208,141782,1,0,0:0:0:0:
120,256,142006,2,0,P|104:300|108:336,1,70,10|0,0:0|0:0,0:0:0:0:
176,200,142454,6,0,L|168:116,1,70,10|0,0:1|0:0,0:0:0:0:
216,60,142902,1,8,0:0:0:0:
300,52,143126,1,2,0:0:0:0:
367,103,143350,2,0,P|402:98|430:79,1,70,10|0,0:1|0:0,0:0:0:0:
404,184,143797,2,0,L|384:256,1,70,10|8,0:0|0:1,0:0:0:0:
420,327,144245,6,0,P|363:367|294:364,1,140,10|10,0:1|0:0,0:0:0:0:
236,304,144917,1,0,0:0:0:0:
296,216,145141,2,0,L|148:208,1,140,10|10,0:1|0:0,0:0:0:0:
272,128,145812,1,10,0:1:0:0:
288,108,146260,6,0,P|280:68|256:40,1,70,8|10,0:1|0:0,0:0:0:0:
180,32,146708,1,0,0:0:0:0:
160,112,146932,2,0,L|40:96,1,105,10|8,0:1|0:1,0:0:0:0:
24,68,147379,1,10,0:0:0:0:
72,184,147603,1,8,0:1:0:0:
176,207,147827,6,0,P|129:258|115:326,1,140,12|10,0:1|0:0,0:0:0:0:
196,352,148499,2,0,L|276:340,1,70,2|8,0:0|0:1,0:0:0:0:
324,284,148947,2,0,L|400:300,1,70,0|8,0:0|0:0,0:0:0:0:
468,260,149394,6,0,P|480:220|464:176,1,70,2|8,0:0|0:1,0:0:0:0:
424,123,149842,2,0,P|393:141|359:143,1,70,0|8,0:0|0:0,0:0:0:0:
320,68,150290,1,2,0:0:0:0:
240,40,150514,1,10,0:1:0:0:
180,96,150738,1,0,0:0:0:0:
208,176,150962,2,0,L|188:252,1,70,10|0,0:0|0:0,0:0:0:0:
292,168,151409,6,0,P|348:140|436:136,1,140,10|8,0:1|0:0,0:0:0:0:
464,208,152081,1,2,0:0:0:0:
360,232,152305,2,0,L|333:369,1,140,10|10,0:1|0:0,0:0:0:0:
260,268,152976,1,8,0:1:0:0:
204,332,153200,6,0,P|156:344|88:316,1,105,10|8,0:1|0:1,0:0:0:0:
71,304,153648,2,0,P|83:270|82:236,1,70,10|8,0:0|0:1,0:0:0:0:
52,92,154096,2,0,P|40:125|41:159,1,70,10|8,0:1|0:1,0:0:0:0:
124,168,154544,2,0,P|163:157|196:148,1,70,10|0,0:0|0:0,0:0:0:0:
312,88,154991,6,0,P|312:148|260:212,1,140,12|8,0:1|0:0,0:0:0:0:
308,280,155663,1,2,0:0:0:0:
391,200,155887,2,0,P|426:192|460:186,1,70,10|0,0:1|0:0,0:0:0:0:
500,260,156335,1,10,0:0:0:0:
404,360,156559,6,0,P|411:325|419:291,1,70,12|10,0:1|0:1,0:0:0:0:
368,224,157006,1,0,0:0:0:0:
316,292,157230,2,0,P|264:300|236:292,1,70,8|0,0:0|0:0,0:0:0:0:
204,224,157678,2,0,P|148:204|88:216,1,105,10|0,0:1|0:0,0:0:0:0:
76,244,158126,2,0,P|69:209|61:175,1,70,8|10,0:0|0:1,0:0:0:0:
132,80,158573,6,0,L|280:96,1,140,12|8,0:1|0:0,0:0:0:0:
324,220,159469,2,0,L|184:204,1,140,2|8,0:0|0:0,0:0:0:0:
248,56,160364,6,0,P|260:88|260:123,1,70,10|8,0:0|0:0,0:0:0:0:
204,252,160812,2,0,P|191:219|191:184,1,70,10|8,0:0|0:0,0:0:0:0:
292,204,161260,6,0,L|336:212,3,35,10|8|8|8,0:0|0:0|0:0|0:0,0:0:0:0:
364,188,161708,2,0,L|408:176,3,35,10|8|8|8,0:0|0:0|0:0|0:0,0:0:0:0:
432,204,162156,5,12,0:1:0:0:
392,320,162379,2,0,P|362:301|328:295,1,70,10|8,0:1|0:0,0:0:0:0:
244,268,162827,2,0,L|260:364,1,70,10|0,0:1|3:0,0:0:0:0:
184,368,163275,2,0,L|136:352,2,35,10|0|8,0:1|3:0|0:0,0:0:0:0:
112,288,163723,6,0,P|77:291|44:312,1,70,10|0,0:1|0:0,0:0:0:0:
8,240,164170,2,0,L|16:168,1,70,10|8,0:1|0:0,0:0:0:0:
76,120,164618,1,0,0:0:0:0:
76,120,164730,1,0,3:0:0:0:
76,120,164842,2,0,L|120:112,3,35,0|0|0|0,3:0|3:0|0:0|3:0,0:0:0:0:
144,136,165290,2,0,L|228:144,1,70,8|0,0:0|3:0,0:0:0:0:
308,88,165738,5,10,0:1:0:0:
383,163,165962,2,0,P|399:195|402:229,1,70,10|8,0:1|0:0,0:0:0:0:
408,316,166409,2,0,P|374:304|342:290,1,70,10|0,0:1|3:0,0:0:0:0:
267,267,166857,2,0,P|235:281|203:294,1,70,10|8,0:1|0:0,0:0:0:0:
116,240,167305,6,0,P|92:276|88:324,1,70,10|0,0:1|0:0,0:0:0:0:
192,200,167753,2,0,L|195:130,1,70,10|8,0:1|0:0,0:0:0:0:
252,76,168200,1,0,0:0:0:0:
252,76,168312,1,0,3:0:0:0:
252,76,168424,2,0,P|274:85|300:96,3,35,0|0|2|0,3:0|3:0|0:0|3:0,0:0:0:0:
320,72,168872,2,0,L|400:56,1,70,10|0,0:0|3:0,0:0:0:0:
480,136,169320,5,10,0:1:0:0:
384,172,169544,2,0,P|364:204|364:248,1,70,10|8,0:1|0:0,0:0:0:0:
431,283,169991,2,0,P|448:314|448:352,1,70,10|0,0:1|3:0,0:0:0:0:
336,316,170439,2,0,L|301:310,2,35,10|0|8,0:1|3:0|0:0,0:0:0:0:
256,240,170887,6,0,L|180:260,1,70,10|0,0:1|0:0,0:0:0:0:
87,296,171335,2,0,P|103:265|105:230,1,70,10|8,0:1|0:0,0:0:0:0:
56,160,171782,1,0,0:0:0:0:
56,160,171894,1,0,3:0:0:0:
56,160,172006,2,0,L|64:116,3,35,0|0|2|0,3:0|3:0|0:0|3:0,0:0:0:0:
60,84,172454,2,0,P|89:66|124:63,1,70,10|0,0:0|3:0,0:0:0:0:
196,152,172902,5,12,0:1:0:0:
260,84,173126,2,0,P|293:73|327:65,1,70,10|8,0:1|0:0,0:0:0:0:
308,160,173573,2,0,P|298:193|289:227,1,70,10|0,0:1|3:0,0:0:0:0:
368,316,174021,2,0,L|356:276,2,35,10|0|8,0:1|3:0|0:0,0:0:0:0:
256,312,174469,6,0,P|221:317|188:308,1,70,10|8,0:1|0:0,0:0:0:0:
148,240,174917,2,0,P|160:207|185:183,1,70,10|8,0:1|0:0,0:0:0:0:
280,208,175364,2,0,L|283:173,2,35,10|0|10,0:1|3:0|0:1,0:0:0:0:
340,260,175812,1,10,0:1:0:0:
412,168,176036,2,0,L|408:208,3,35,10|8|10|8,0:0|0:0|0:0|0:0,0:0:0:0:
436,232,176484,6,0,P|468:284|464:336,1,105,12|2,0:1|0:0,0:0:0:0:
436,352,176932,2,0,L|360:340,1,70,8|2,0:0|0:0,0:0:0:0:
316,284,177379,1,8,0:1:0:0:
240,300,177603,1,2,0:0:0:0:
184,352,177827,2,0,P|148:320|140:292,1,70,8|2,0:0|0:0,0:0:0:0:
76,168,178275,6,0,P|69:220|58:271,1,105,10|2,0:1|0:0,0:0:0:0:
64,308,178723,1,8,0:0:0:0:
159,216,178947,2,0,P|194:211|229:208,1,70,2|8,0:0|0:1,0:0:0:0:
296,244,179394,1,2,0:0:0:0:
364,212,179618,2,0,P|376:168|368:136,1,70,8|0,0:0|0:0,0:0:0:0:
280,36,180066,6,0,P|272:84|304:152,1,105,10|2,0:1|0:0,0:0:0:0:
252,144,180514,2,0,L|184:132,1,70,8|2,0:0|0:0,0:0:0:0:
112,212,180962,2,0,L|180:224,1,70,8|2,0:1|0:0,0:0:0:0:
224,288,181409,1,8,0:0:0:0:
300,272,181633,1,2,0:0:0:0:
300,272,181745,1,0,0:0:0:0:
300,272,181857,6,0,P|332:232|328:160,1,105,10|2,0:1|0:0,0:0:0:0:
308,152,182305,2,0,L|384:132,1,70,8|2,0:0|0:0,0:0:0:0:
392,36,182753,2,0,L|284:64,1,105,8|8,0:1|0:1,0:0:0:0:
260,40,183200,1,8,0:0:0:0:
184,24,183424,1,0,0:0:0:0:
132,84,183648,6,0,P|142:135|150:187,1,105,12|2,0:1|0:0,0:0:0:0:
176,216,184096,2,0,P|165:249|157:283,1,70,8|2,0:0|0:0,0:0:0:0:
248,248,184544,2,0,L|340:240,1,70,8|2,0:1|0:0,0:0:0:0:
380,284,184991,1,8,0:0:0:0:
380,284,185215,1,2,0:0:0:0:
439,236,185439,6,0,P|452:185|439:134,1,105,10|2,0:1|0:0,0:0:0:0:
428,99,185887,2,0,P|398:118|363:122,1,70,8|2,0:0|0:0,0:0:0:0:
304,76,186335,2,0,L|224:72,1,70,8|2,0:1|0:0,0:0:0:0:
188,132,186782,2,0,L|216:212,1,70,8|2,0:0|0:0,0:0:0:0:
272,320,187230,6,0,P|307:282|316:231,1,105,10|2,0:1|0:0,0:0:0:0:
300,196,187678,1,8,0:0:0:0:
360,148,187902,2,0,L|432:152,1,70,2|8,0:0|0:1,0:0:0:0:
320,72,188350,2,0,L|250:68,1,70,2|8,0:0|0:0,0:0:0:0:
404,40,188797,1,12,0:1:0:0:
416,60,189245,6,0,P|407:94|400:128,1,70,10|8,0:1|0:0,0:0:0:0:
448,192,189693,2,0,P|455:225|464:268,1,70,2|8,0:0|0:1,0:0:0:0:
428,348,190141,1,2,0:0:0:0:
428,348,190253,1,8,0:1:0:0:
428,348,190364,2,0,P|384:324|332:324,1,70,8|10,0:0|0:1,0:0:0:0:
296,232,190812,6,0,P|240:260|204:340,1,140,12|10,0:1|0:0,0:0:0:0:
136,276,191484,1,0,0:0:0:0:
144,192,191708,2,0,L|5:168,1,140,10|10,0:1|0:0,0:0:0:0:
32,88,192379,1,2,0:0:0:0:
108,48,192603,6,0,P|152:48|192:72,1,70,10|0,0:1|0:0,0:0:0:0:
212,132,193051,2,0,P|260:128|296:108,1,70,10|0,0:0|0:0,0:0:0:0:
380,60,193499,2,0,P|370:93|361:127,1,70,10|2,0:1|0:0,0:0:0:0:
424,216,193947,1,10,0:0:0:0:
364,276,194170,1,2,0:0:0:0:
288,240,194394,6,0,P|219:230|151:246,1,140,10|10,0:1|0:0,0:0:0:0:
68,224,195066,1,2,0:0:0:0:
40,144,195290,2,0,P|48:104|72:72,1,70,10|2,0:1|0:0,0:0:0:0:
144,104,195738,2,0,L|228:96,1,70,10|10,0:0|0:1,0:0:0:0:
328,56,196185,6,0,P|316:107|297:155,1,105,10|8,0:1|0:1,0:0:0:0:
264,180,196633,1,10,0:0:0:0:
380,240,196857,1,8,0:1:0:0:
316,296,197081,2,0,L|220:288,1,70,10|10,0:1|0:1,0:0:0:0:
180,236,197529,2,0,L|136:248,3,35,10|2|2|2,0:0|0:0|0:0|0:0,0:0:0:0:
112,268,197976,6,0,P|88:232|88:192,1,70,12|0,0:1|0:0,0:0:0:0:
59,111,198424,2,0,P|91:125|126:128,1,70,10|0,0:0|0:0,0:0:0:0:
184,68,198872,2,0,L|268:60,1,70,10|2,0:1|0:0,0:0:0:0:
324,112,199320,1,10,0:0:0:0:
324,112,199544,1,2,0:0:0:0:
228,164,199767,6,0,P|210:231|195:300,1,140,10|10,0:1|0:0,0:0:0:0:
264,352,200439,1,0,0:0:0:0:
316,264,200663,2,0,L|388:272,1,70,10|0,0:1|0:0,0:0:0:0:
452,220,201111,2,0,P|447:201|440:176,3,35,10|2|10|2,0:0|0:0|0:1|0:0,0:0:0:0:
416,155,201559,6,0,P|420:84|448:24,1,140,12|10,0:1|0:0,0:0:0:0:
336,64,202230,2,0,L|196:48,1,140,10|10,0:1|0:1,0:0:0:0:
128,136,202902,2,0,P|112:104|109:70,1,70,10|8,0:0|0:1,0:0:0:0:
208,148,203350,6,0,L|190:215,1,70,2|8,0:0|0:1,0:0:0:0:
236,284,203797,1,8,0:0:0:0:
316,256,204021,1,8,0:0:0:0:
304,172,204245,2,0,L|356:184,3,35,10|8|8|8,0:0|0:0|0:0|0:0,0:0:0:0:
376,160,204693,2,0,L|424:152,3,35,10|8|8|8,0:0|0:0|0:0|0:0,0:0:0:0:
443,131,205141,6,0,P|468:165|476:206,1,83.9999974365235,12|0,0:1|0:0,0:0:0:0:
408,248,205812,2,0,P|384:308|384:344,1,83.9999974365235,2|0,0:0|0:0,0:0:0:0:
252,236,206708,6,0,L|156:252,1,83.9999974365235,2|0,0:0|0:0,0:0:0:0:
60,136,207603,2,0,L|142:122,1,83.9999974365235,2|0,0:0|0:0,0:0:0:0:
372,52,208723,6,0,P|332:96|332:200,1,167.999994873047,2|2,0:0|0:0,0:0:0:0:
464,292,210066,1,0,0:0:0:0:
308,332,210514,6,0,P|225:316|142:305,1,167.999994873047,2|2,0:0|0:0,0:0:0:0:
64,168,211857,1,0,0:0:0:0:
216,128,212305,6,0,P|232:80|208:12,1,105.000004005432,10|8,0:1|0:1,0:0:0:0:
72,80,213200,1,8,0:1:0:0:
148,216,213648,2,0,P|151:241|154:268,1,52.5000020027161,8|2,0:1|0:0,0:0:0:0:
128,344,214096,6,0,P|170:373|222:373,1,105.000004005432,10|8,0:1|0:1,0:0:0:0:
288,328,214767,1,2,0:0:0:0:
308,252,214991,2,0,L|380:240,1,52.5000020027161,10|8,0:1|0:1,0:0:0:0:
276,176,215439,2,0,L|348:164,1,52.5000020027161,10|8,0:1|0:1,0:0:0:0:
196,236,215887,6,0,L|132:224,1,52.5000020027161,10|10,0:1|0:1,0:0:0:0:
172,152,216335,2,0,L|108:140,1,52.5000020027161,10|10,0:1|0:1,0:0:0:0:
48,216,216782,6,0,L|56:264,3,26.2500010013581,10|8|8|8,0:1|0:1|0:1|0:1,0:0:0:0:
76,272,217230,2,0,L|68:312,3,26.2500010013581,10|8|8|8,0:1|0:1|0:1|0:1,0:0:0:0:
44,328,217678,5,10,0:1:0:0:
160,272,217902,1,8,0:1:0:0:
240,352,218126,1,10,0:3:0:0:
224,364,219469,6,0,L|259:228,1,140,12|10,0:1|0:0,0:0:0:0:
296,128,220141,2,0,L|208:152,1,70,2|8,0:0|0:1,0:0:0:0:
164,92,220588,1,0,0:0:0:0:
80,104,220812,1,8,0:0:0:0:
40,175,221036,6,0,P|28:208|29:243,1,70,2|8,0:0|0:1,0:0:0:0:
96,300,221484,2,0,P|128:288|162:276,1,70,0|8,0:0|0:0,0:0:0:0:
212,208,221932,1,2,0:0:0:0:
296,296,222156,2,0,P|320:256|320:220,1,70,10|0,0:1|0:0,0:0:0:0:
332,152,222603,2,0,P|364:132|404:128,1,70,10|0,0:0|0:0,0:0:0:0:
248,176,223051,6,0,L|108:148,1,140,10|8,0:1|0:0,0:0:0:0:
60,80,223723,1,2,0:0:0:0:
20,200,223947,2,0,P|28:244|44:356,1,140,10|10,0:1|0:0,0:0:0:0:
120,232,224618,1,8,0:1:0:0:
184,288,224842,6,0,P|232:304|300:284,1,105,10|8,0:1|0:1,0:0:0:0:
304,256,225290,1,10,0:0:0:0:
232,164,225514,1,8,0:1:0:0:
300,116,225738,2,0,L|380:128,1,70,10|8,0:1|0:1,0:0:0:0:
428,188,226185,1,10,0:0:0:0:
428,188,226409,1,0,0:0:0:0:
312,212,226633,6,0,P|288:264|288:348,1,140,12|8,0:1|0:0,0:0:0:0:
208,376,227305,1,2,0:0:0:0:
192,292,227529,2,0,L|112:280,1,70,10|0,0:1|0:0,0:0:0:0:
48,324,227976,1,10,0:0:0:0:
4,192,228200,6,0,P|3:157|15:124,1,70,12|10,0:1|0:1,0:0:0:0:
84,76,228648,1,0,0:0:0:0:
160,112,228872,2,0,L|240:104,1,70,8|2,0:0|0:0,0:0:0:0:
348,80,229320,2,0,P|316:121|307:172,1,105,10|0,0:1|0:0,0:0:0:0:
340,196,229767,2,0,P|360:240|356:280,1,70,10|8,0:0|0:1,0:0:0:0:
232,208,230215,6,0,P|162:198|92:192,1,140,12|8,0:1|0:0,0:0:0:0:
376,96,231111,2,0,P|306:102|236:111,1,140,2|8,0:0|0:0,0:0:0:0:
388,200,232006,6,0,P|412:236|416:284,1,70,10|8,0:1|0:0,0:0:0:0:
264,200,232454,2,0,P|283:161|322:133,1,70,10|8,0:1|0:0,0:0:0:0:
324,292,232902,6,0,L|264:288,3,35,10|8|8|8,0:0|0:0|0:0|0:0,0:0:0:0:
252,312,233350,2,0,L|200:320,3,35,10|8|8|8,0:0|0:0|0:0|0:0,0:0:0:0:
180,296,233797,5,12,0:1:0:0:
108,252,234021,1,0,0:0:0:0:
40,299,234245,2,0,L|45:334|50:369,1,70,10|0,0:0|0:0,0:0:0:0:
96,240,234693,2,0,P|90:205|85:170,1,70,10|0,0:1|0:0,0:0:0:0:
52,72,235141,2,0,P|92:96|124:100,1,70,10|0,0:0|0:0,0:0:0:0:
240,32,235588,6,0,L|152:40,1,70,10|0,0:1|0:0,0:0:0:0:
200,112,236036,2,0,P|180:156|180:200,1,70,10|0,0:0|0:0,0:0:0:0:
208,248,236484,1,10,0:1:0:0:
280,272,236708,1,0,0:0:0:0:
340,228,236932,1,10,0:0:0:0:
340,228,237156,1,0,0:0:0:0:
320,152,237379,6,0,L|332:72,1,70,10|0,0:1|0:0,0:0:0:0:
236,28,237827,2,0,L|225:97,1,70,10|0,0:0|0:0,0:0:0:0:
228,176,238275,2,0,P|192:192|144:188,1,70,10|0,0:1|0:0,0:0:0:0:
104,140,238723,1,10,0:0:0:0:
104,140,238947,1,0,0:0:0:0:
28,232,239170,6,0,L|12:163,1,70,10|0,0:1|0:0,0:0:0:0:
112,240,239618,1,10,0:0:0:0:
68,304,239842,2,0,P|48:336|44:368,1,70,0|10,0:0|0:1,0:0:0:0:
156,324,240290,2,0,L|232:312,1,70,0|10,0:0|0:0,0:0:0:0:
276,252,240738,1,0,0:0:0:0:
328,308,240962,6,0,P|396:296|472:320,1,140,10|10,0:1|0:0,0:0:0:0:
452,228,241633,2,0,P|456:192|444:152,1,70,0|10,0:0|0:1,0:0:0:0:
388,112,242081,1,0,0:0:0:0:
320,144,242305,2,0,L|240:140,1,70,10|0,0:0|0:0,0:0:0:0:
144,112,242753,6,0,L|168:192,1,70,10|0,0:1|0:0,0:0:0:0:
128,248,243200,2,0,P|112:280|112:328,1,70,10|0,0:0|0:0,0:0:0:0:
184,336,243648,2,0,P|224:356|320:348,1,140,10|10,0:1|0:0,0:0:0:0:
364,288,244320,1,8,0:1:0:0:
260,236,244544,6,0,L|252:164,1,70,10|0,0:1|0:0,0:0:0:0:
288,96,244991,1,10,0:0:0:0:
364,84,245215,1,0,0:0:0:0:
420,140,245439,2,0,P|452:151|487:149,1,70,10|0,0:1|0:0,0:0:0:0:
364,84,245887,1,10,0:0:0:0:
352,208,246111,6,0,L|344:288,1,70,12|2,0:1|0:0,0:0:0:0:
272,168,246559,2,0,L|264:248,1,70,8|10,0:1|0:0,0:0:0:0:
208,292,247006,1,8,0:1:0:0:
148,204,247230,2,0,P|116:224|80:228,1,70,10|8,0:1|0:1,0:0:0:0:
32,172,247678,2,0,L|36:136,3,35,10|8|8|8,0:0|0:0|0:0|0:0,0:0:0:0:
24,100,248126,6,0,P|72:56|164:68,1,140,12|10,0:1|0:0,0:0:0:0:
208,104,248797,2,0,L|296:92,1,70,0|10,0:0|0:1,0:0:0:0:
328,36,249245,2,0,L|400:48,1,70,0|10,0:0|0:0,0:0:0:0:
448,104,249693,1,0,0:0:0:0:
356,164,249917,6,0,P|340:208|332:248,1,70,10|0,0:1|0:0,0:0:0:0:
388,288,250364,2,0,P|416:332|416:368,1,70,10|0,0:0|0:0,0:0:0:0:
292,312,250812,2,0,P|222:314|157:289,1,140,10|10,0:1|0:0,0:0:0:0:
136,216,251484,1,0,0:0:0:0:
212,128,251708,6,0,L|224:216,1,70,10|0,0:1|0:0,0:0:0:0:
116,172,252156,2,0,L|106:102,1,70,10|0,0:0|0:0,0:0:0:0:
152,40,252603,2,0,P|196:20|232:20,1,70,10|0,0:1|0:0,0:0:0:0:
288,52,253051,1,10,0:0:0:0:
288,52,253275,1,0,0:0:0:0:
400,144,253499,6,0,P|341:143|244:140,1,140,10|10,0:1|0:0,0:0:0:0:
196,184,254170,2,0,P|152:160|140:140,1,70,0|10,0:0|0:1,0:0:0:0:
264,232,254618,2,0,P|280:272|276:316,1,70,0|10,0:0|0:0,0:0:0:0:
216,344,255066,1,0,0:0:0:0:
156,296,255290,6,0,L|12:312,1,140,10|10,0:1|0:0,0:0:0:0:
64,216,255962,2,0,L|80:140,1,70,0|10,0:0|0:1,0:0:0:0:
56,72,256409,1,0,0:0:0:0:
116,24,256633,2,0,P|156:24|188:40,1,70,10|0,0:0|0:0,0:0:0:0:
296,96,257081,6,0,L|220:108,1,70,10|0,0:1|0:0,0:0:0:0:
184,172,257529,2,0,L|224:236,1,70,10|0,0:0|0:0,0:0:0:0:
208,308,257976,1,10,0:1:0:0:
276,344,258200,1,0,0:0:0:0:
344,308,258424,1,10,0:0:0:0:
344,308,258648,1,8,0:1:0:0:
327,232,258872,6,0,P|357:169|350:100,1,140,10|10,0:1|0:0,0:0:0:0:
276,116,259544,2,0,L|196:104,1,70,0|10,0:0|0:1,0:0:0:0:
152,160,259991,1,0,0:0:0:0:
80,132,260215,1,10,0:0:0:0:
56,256,260439,5,12,0:1:0:0:
256,192,260663,12,2,262454,0:0:0:0:
