osu file format v14

[General]
AudioFilename: Telescope by Choucho.mp3
AudioLeadIn: 1000
PreviewTime: 58611
Countdown: 0
SampleSet: Soft
StackLeniency: 0.7
Mode: 0
LetterboxInBreaks: 0
WidescreenStoryboard: 0

[Editor]
Bookmarks: 110215
DistanceSpacing: 1.8
BeatDivisor: 4
GridSize: 4
TimelineZoom: 1.4

[Metadata]
Title:telescope
TitleUnicode:telescope
Artist:ChouCho
ArtistUnicode:ChouCho
Creator:Kibbleru
Version:Endless
Source:
Tags:flyleaf ちょうちょ Lantis
BeatmapID:613967
BeatmapSetID:269835

[Difficulty]
HPDrainRate:7
CircleSize:4
OverallDifficulty:7
ApproachRate:8
SliderMultiplier:1.65
SliderTickRate:1

[Events]
//Background and Video events
0,0,"shooting star.jpg",0,0
//Break Periods
2,90714,101629
//Storyboard Layer 0 (Background)
//Storyboard Layer 1 (Fail)
//Storyboard Layer 2 (Pass)
//Storyboard Layer 3 (Foreground)
//Storyboard Sound Samples

[TimingPoints]
962,447.761194029851,4,2,1,40,1,0
13499,-100,4,2,1,45,0,0
13947,-125,4,2,1,40,0,0
14394,-166.666666666667,4,2,1,35,0,0
14842,-200,4,2,1,30,0,0
15290,-100,4,2,1,50,0,0
29618,-100,4,2,1,40,0,0
43947,-100,4,2,1,50,0,0
51111,-133.333333333333,4,2,1,40,0,0
54693,-117.647058823529,4,2,1,50,0,0
56484,-100,4,2,1,55,0,0
57379,-100,4,2,1,60,0,0
60066,-90.9090909090909,4,2,1,70,0,1
73051,-90.9090909090909,4,2,1,60,0,0
74394,-90.9090909090909,4,2,1,70,0,1
85141,-100,4,2,1,60,0,0
102379,-100,4,2,1,50,0,0
103051,-133.333333333333,4,2,1,35,0,0
104842,-100,4,2,1,40,0,0
117379,-100,4,2,1,50,0,0
129917,-100,4,2,1,55,0,0
130812,-100,4,2,1,60,0,0
133499,-90.9090909090909,4,2,1,70,0,1
146484,-90.9090909090909,4,2,1,60,0,0
147827,-90.9090909090909,4,2,1,70,0,1
158573,-100,4,2,1,60,0,0
162156,-100,4,2,1,50,0,0
176484,-100,4,2,1,60,0,0
205141,-166.666666666667,4,2,1,40,0,0
212305,-133.333333333333,4,2,1,50,0,0
215887,-133.333333333333,4,2,1,55,0,0
216782,-133.333333333333,4,2,1,60,0,0
219469,-90.9090909090909,4,2,1,70,0,1
230215,-100,4,2,1,60,0,0
233797,-100,4,2,1,50,0,0

[Colours]
Combo1 : 245,92,116
Combo2 : 255,140,64
Combo3 : 50,245,226

[HitObjects]
184,120,961,5,2,0:0:0:0:
132,224,1185,1,0,0:0:0:0:
292,188,1409,1,0,0:0:0:0:
264,32,1633,5,2,0:0:0:0:
88,108,1857,1,0,0:0:0:0:
212,196,2081,1,0,0:0:0:0:
192,88,2305,1,2,0:0:0:0:
168,72,2753,5,2,0:0:0:0:
184,172,2976,1,0,0:0:0:0:
296,192,3200,1,0,0:0:0:0:
368,108,3424,5,2,0:0:0:0:
280,176,3648,1,0,0:0:0:0:
300,292,3872,1,0,0:0:0:0:
416,320,4096,1,2,0:0:0:0:
436,300,4544,5,2,0:0:0:0:
417,122,4767,2,0,P|396:157|391:198,1,82.5
456,280,5215,5,2,0:0:0:0:
300,256,5439,2,0,L|218:245,1,82.5
364,340,5887,1,2,0:0:0:0:
384,352,6335,5,2,0:0:0:0:
412,184,6559,1,0,0:0:0:0:
468,288,6782,1,0,0:0:0:0:
292,180,7006,5,2,0:0:0:0:
472,96,7230,1,0,0:0:0:0:
372,272,7454,1,0,0:0:0:0:
384,160,7678,1,2,0:0:0:0:
395,143,8126,6,0,P|426:170|440:209,1,82.5,10|0,0:1|0:0,0:0:0:0:
288,148,8573,2,0,L|205:140,1,82.5,10|0,0:1|0:0,0:0:0:0:
96,260,9021,1,10,0:1:0:0:
200,232,9245,1,0,0:0:0:0:
104,96,9469,1,10,0:1:0:0:
128,72,9917,6,0,P|113:110|105:150,1,82.5,10|0,0:1|0:0,0:0:0:0:
188,248,10364,1,10,0:1:0:0:
280,168,10588,1,0,0:0:0:0:
407,244,10812,2,0,P|369:258|328:257,1,82.5,10|0,0:1|0:0,0:0:0:0:
264,136,11260,1,10,0:1:0:0:
300,148,11708,6,0,L|218:159,1,82.5,10|0,0:1|0:0,0:0:0:0:
92,88,12156,2,0,L|173:76,1,82.5,10|0,0:1|0:0,0:0:0:0:
112,216,12603,2,0,L|30:227,1,82.5,10|0,0:1|0:0,0:0:0:0:
184,128,13051,1,10,0:1:0:0:
168,336,13275,1,10,0:1:0:0:
228,264,13499,6,0,P|267:272|312:272,1,82.5,2|0,0:0|0:0,0:0:0:0:
296,188,13947,6,0,P|340:172|364:152,1,66,2|0,0:0|0:0,0:0:0:0:
304,96,14394,6,0,P|319:78|327:54,1,49.4999984893799,2|0,0:0|0:0,0:0:0:0:
220,52,14842,6,0,L|152:44,1,61.875,2|0,0:0|0:0,0:0:0:0:
96,88,15290,5,12,0:1:0:0:
136,204,15514,1,0,0:0:0:0:
288,152,15738,1,10,0:3:0:0:
140,104,15962,2,0,L|57:96,1,82.5,2|8,0:0|0:1,0:0:0:0:
236,248,16409,2,0,P|230:207|208:172,1,82.5,2|8,0:0|0:3,0:0:0:0:
352,44,16857,6,0,P|338:82|326:122,1,82.5,2|8,0:0|0:1,0:0:0:0:
392,220,17305,1,2,0:0:0:0:
392,220,17529,1,8,0:3:0:0:
270,326,17753,2,0,P|273:286|293:250,1,82.5,2|8,0:0|0:1,0:0:0:0:
456,164,18200,1,2,0:0:0:0:
384,260,18424,1,8,0:3:0:0:
272,124,18648,1,0,0:0:0:0:
388,96,18872,5,10,0:1:0:0:
316,196,19096,1,0,0:0:0:0:
172,56,19320,1,10,0:3:0:0:
108,148,19544,2,0,P|114:184|124:228,1,82.5,2|8,0:0|0:1,0:0:0:0:
204,320,19991,2,0,P|256:316|296:292,1,82.5,2|8,0:0|0:3,0:0:0:0:
256,128,20439,5,2,0:0:0:0:
212,216,20663,1,8,0:1:0:0:
388,232,20887,1,2,0:0:0:0:
360,140,21111,1,8,0:3:0:0:
152,232,21335,2,0,L|244:224,1,82.5,2|8,0:0|0:1,0:0:0:0:
420,116,21782,2,0,L|337:123,1,82.5,2|8,0:0|0:3,0:0:0:0:
244,64,22230,1,0,0:0:0:0:
168,144,22454,6,0,P|200:180|232:300,1,165,10|10,0:1|0:3,0:0:0:0:
120,228,23126,2,0,L|32:224,1,82.5,2|8,0:0|0:1,0:0:0:0:
292,183,23573,2,0,P|327:162|368:144,1,82.5,2|8,0:0|0:3,0:0:0:0:
460,224,24021,5,2,0:0:0:0:
460,224,24245,1,8,0:1:0:0:
348,344,24469,2,0,L|368:260,1,82.5,2|8,0:0|0:3,0:0:0:0:
220,136,24917,1,2,0:0:0:0:
320,172,25141,1,8,0:1:0:0:
160,228,25364,1,2,0:0:0:0:
300,72,25588,1,8,0:3:0:0:
360,260,25812,1,0,0:0:0:0:
216,168,26036,6,0,P|296:150|378:140,1,165,10|10,0:1|0:3,0:0:0:0:
484,268,26708,2,0,P|443:260|403:248,1,82.5,2|8,0:0|0:1,0:0:0:0:
220,319,27156,2,0,P|259:309|298:295,1,82.5,2|8,0:0|0:3,0:0:0:0:
296,127,27603,6,0,P|298:168|317:204,1,82.5,2|8,0:0|0:1,0:0:0:0:
432,148,28051,2,0,L|480:140,2,41.25,2|8|8,0:0|0:1|0:3,0:0:0:0:
376,36,28499,1,0,0:0:0:0:
376,36,28723,1,8,0:1:0:0:
396,244,28947,1,10,0:1:0:0:
280,176,29170,1,10,0:3:0:0:
308,144,29618,6,0,L|143:140,1,165,12|8,0:1|0:1,0:0:0:0:
51,96,30290,2,0,P|26:127|17:167,1,82.5,2|8,0:0|0:1,0:0:0:0:
116,268,30738,1,0,0:0:0:0:
168,168,30962,1,10,0:1:0:0:
80,252,31185,1,0,0:0:0:0:
207,292,31409,6,0,P|288:260|368:266,1,165,10|8,0:1|0:1,0:0:0:0:
472,208,32081,2,0,P|472:256|440:304,1,82.5,2|8,0:0|0:1,0:0:0:0:
364,172,32529,1,0,0:0:0:0:
444,32,32753,2,0,L|432:116,1,82.5,10|0,0:1|0:0,0:0:0:0:
260,56,33200,5,10,0:1:0:0:
376,200,33424,2,0,P|336:186|299:169,1,82.5,0|8,0:0|0:1,0:0:0:0:
171,191,33872,2,0,P|165:151|179:113,1,82.5,2|8,0:0|0:1,0:0:0:0:
252,248,34320,1,0,0:0:0:0:
76,192,34544,1,10,0:1:0:0:
260,208,34767,1,0,0:0:0:0:
160,232,34991,6,0,P|145:311|187:380,1,165,10|10,0:1|0:1,0:0:0:0:
284,336,35663,1,0,0:0:0:0:
84,176,35887,6,0,L|206:195,1,123.75,10|0,0:1|0:0,0:0:0:0:
272,152,36335,1,8,0:1:0:0:
328,260,36559,1,2,0:0:0:0:
439,55,36782,6,0,P|432:137|395:211,1,165,10|8,0:1|0:1,0:0:0:0:
248,92,37454,2,0,L|340:112,1,82.5,2|8,0:0|0:1,0:0:0:0:
144,132,37902,1,0,0:0:0:0:
220,12,38126,1,10,0:1:0:0:
280,180,38350,6,0,P|297:217|299:258,1,82.5,0|10,0:0|0:1,0:0:0:0:
220,312,38797,1,0,0:0:0:0:
144,260,39021,1,8,0:1:0:0:
328,276,39245,2,0,L|424:264,1,82.5,2|8,0:0|0:1,0:0:0:0:
476,184,39693,2,0,P|480:140|460:100,1,82.5,0|10,0:0|0:1,0:0:0:0:
420,256,40141,1,0,0:0:0:0:
344,132,40364,6,0,B|288:96|216:100|216:100|184:116,1,165,10|8,0:1|0:1,0:0:0:0:
44,192,41036,2,0,L|136:184,1,82.5,2|8,0:0|0:1,0:0:0:0:
288,264,41484,1,0,0:0:0:0:
144,220,41708,1,10,0:1:0:0:
216,144,41932,1,0,0:0:0:0:
340,216,42156,6,0,P|312:256|312:348,1,123.75,10|8,0:1|0:1,0:0:0:0:
384,364,42603,2,0,L|472:352,1,82.5,10|0,0:1|0:0,0:0:0:0:
392,136,43051,1,10,0:1:0:0:
272,260,43275,1,10,0:1:0:0:
295,232,43947,6,0,L|213:238|131:244,1,165,12|8,0:1|0:0,0:0:0:0:
96,100,44842,1,10,0:1:0:0:
268,136,45290,1,8,0:0:0:0:
168,176,45514,1,0,0:0:0:0:
216,44,45738,6,0,P|272:35|344:28,1,123.75,10|0,0:1|0:0,0:0:0:0:
408,80,46185,2,0,P|420:124|412:164,1,82.5,8|0,0:0|0:0,0:0:0:0:
296,264,46633,2,0,P|284:220|292:180,1,82.5,10|0,0:1|0:0,0:0:0:0:
408,248,47081,2,0,L|496:240,1,82.5,8|0,0:0|0:0,0:0:0:0:
304,144,47529,6,0,P|208:128|156:132,1,123.75,10|0,0:1|0:0,0:0:0:0:
95,127,47976,2,0,P|117:163|130:202,1,82.5,8|0,0:0|0:0,0:0:0:0:
56,292,48424,1,10,0:1:0:0:
152,224,48648,1,0,0:0:0:0:
272,328,48872,1,8,0:0:0:0:
168,260,49096,1,0,0:0:0:0:
312,144,49320,6,0,P|324:208|272:308,1,165,2|8,0:0|0:0,0:0:0:0:
224,124,49991,1,0,0:0:0:0:
304,44,50215,5,10,0:1:0:0:
436,172,50439,1,8,0:0:0:0:
248,232,50663,1,10,0:0:0:0:
328,144,50887,1,8,0:0:0:0:
336,280,51111,6,0,L|213:265,1,123.750004720688,12|8,0:3|0:3,0:0:0:0:
96,191,52006,2,0,P|113:133|158:91,1,123.750004720688,10|8,0:3|0:3,0:0:0:0:
248,112,52678,6,0,L|324:100,1,61.875002360344,2|8,0:0|0:3,0:0:0:0:
396,204,53350,1,8,0:3:0:0:
300,236,53797,1,10,0:3:0:0:
352,96,54245,2,0,P|397:104|443:113,1,92.812503540516,8|0,0:3|0:0,0:0:0:0:
496,176,54693,6,0,P|496:216|476:260,1,70.1250013375282,12|8,0:3|0:3,0:0:0:0:
388,280,55141,2,0,P|356:274|316:264,1,70.1250013375282,10|8,0:3|0:3,0:0:0:0:
132,227,55588,6,0,P|133:262|145:295,1,70.1250013375282,10|8,0:3|0:3,0:0:0:0:
248,212,56036,2,0,P|279:196|310:181,1,70.1250013375282,10|8,0:3|0:3,0:0:0:0:
176,24,56484,6,0,P|169:45|164:80,3,41.25,10|8|8|8,0:3|0:3|0:3|0:3,0:0:0:0:
260,124,56932,2,0,L|254:96|248:68,3,41.25,10|8|8|8,0:3|0:3|0:3|0:3,0:0:0:0:
156,156,57379,5,10,0:3:0:0:
138,179,57491,1,8,0:3:0:0:
129,206,57603,1,8,0:3:0:0:
127,234,57715,1,8,0:3:0:0:
134,262,57827,1,10,0:3:0:0:
149,287,57939,1,8,0:3:0:0:
170,306,58051,1,8,0:3:0:0:
197,318,58163,1,8,0:3:0:0:
252,260,59618,5,8,0:3:0:0:
240,280,60066,6,0,L|432:248,1,181.500005538941,12|10,0:1|0:0,0:0:0:0:
464,160,60738,1,2,0:0:0:0:
296,76,60962,1,8,0:1:0:0:
324,176,61185,1,0,0:0:0:0:
404,36,61409,1,8,0:0:0:0:
208,144,61633,1,2,0:0:0:0:
380,116,61857,6,0,P|403:154|403:199,1,90.7500027694703,8|0,0:1|0:0,0:0:0:0:
256,256,62305,2,0,P|210:251|165:245,1,90.7500027694703,8|2,0:0|0:0,0:0:0:0:
275,32,62753,2,0,P|242:90|242:157,1,136.125004154205,10|8,0:1|0:1,0:0:0:0:
316,200,63200,1,10,0:0:0:0:
204,72,63424,1,0,0:0:0:0:
124,180,63648,6,0,P|152:244|180:360,1,181.500005538941,8|8,0:1|0:0,0:0:0:0:
124,180,64320,1,2,0:0:0:0:
232,228,64544,2,0,P|304:224|332:208,1,90.7500027694703,10|0,0:1|0:0,0:0:0:0:
448,128,64991,2,0,L|357:124,1,90.7500027694703,10|0,0:0|0:0,0:0:0:0:
196,112,65439,5,10,0:1:0:0:
304,36,65663,1,0,0:0:0:0:
300,260,65887,1,10,0:0:0:0:
300,260,66111,1,0,0:0:0:0:
188,148,66335,6,0,P|255:136|322:128,1,136.125004154205,10|8,0:1|0:1,0:0:0:0:
431,136,66782,2,0,P|406:173|366:191,1,90.7500027694703,10|8,0:0|0:1,0:0:0:0:
208,316,67230,6,0,B|144:268|144:188|144:188|156:157,1,181.500005538941,12|10,0:1|0:0,0:0:0:0:
91,303,67902,2,0,P|49:287|4:283,1,90.7500027694703,2|8,0:0|0:1,0:0:0:0:
236,212,68350,1,0,0:0:0:0:
328,276,68573,1,10,0:0:0:0:
144,240,68797,1,2,0:0:0:0:
328,108,69021,6,0,P|336:164|316:204,1,90.7500027694703,8|0,0:1|0:0,0:0:0:0:
192,100,69469,2,0,P|184:44|204:4,1,90.7500027694703,8|2,0:0|0:0,0:0:0:0:
312,128,69917,1,10,0:1:0:0:
216,188,70141,1,0,0:0:0:0:
352,24,70364,1,10,0:0:0:0:
336,256,70588,1,0,0:0:0:0:
280,112,70812,6,0,L|370:118,1,90.7500027694703,10|0,0:1|0:0,0:0:0:0:
440,216,71260,1,10,0:0:0:0:
440,216,71484,1,0,0:0:0:0:
292,328,71708,2,0,P|297:283|321:245,1,90.7500027694703,10|0,0:1|0:0,0:0:0:0:
480,136,72156,1,10,0:0:0:0:
412,328,72379,1,10,0:1:0:0:
444,312,72827,5,8,0:1:0:0:
360,208,73051,2,0,B|328:176|328:176|264:176|216:192|216:192|205:212,1,181.500005538941,10|10,0:0|0:1,0:0:0:0:
280,364,73835,1,8,0:1:0:0:
280,364,73947,1,10,0:0:0:0:
164,296,74170,1,8,0:1:0:0:
356,111,74394,6,0,P|342:201|322:290,1,181.500005538941,12|10,0:1|0:0,0:0:0:0:
236,160,75066,1,2,0:0:0:0:
172,280,75290,1,8,0:1:0:0:
304,264,75514,1,0,0:0:0:0:
140,132,75738,1,8,0:0:0:0:
336,152,75962,1,2,0:0:0:0:
240,67,76185,6,0,P|186:139|187:228,1,181.500005538941,8|8,0:1|0:0,0:0:0:0:
391,167,76857,2,0,P|353:144|304:140,1,90.7500027694703,2|10,0:0|0:1,0:0:0:0:
64,208,77305,2,0,P|108:200|153:193,1,90.7500027694703,0|10,0:0|0:0,0:0:0:0:
204,108,77753,1,0,0:0:0:0:
288,200,77976,6,0,P|255:284|233:372,1,181.500005538941,10|8,0:1|0:0,0:0:0:0:
356,276,78648,1,2,0:0:0:0:
208,280,78872,1,10,0:1:0:0:
208,280,79096,1,0,0:0:0:0:
392,152,79320,1,10,0:0:0:0:
308,368,79544,1,8,0:1:0:0:
272,204,79767,6,0,P|340:216|392:272,1,136.125004154205,10|8,0:1|0:1,0:0:0:0:
472,260,80215,2,0,P|464:308|428:352,1,90.7500027694703,10|8,0:0|0:1,0:0:0:0:
400,128,80663,1,10,0:1:0:0:
472,212,80887,1,8,0:1:0:0:
280,264,81111,1,10,0:0:0:0:
288,156,81335,1,0,0:0:0:0:
476,184,81559,6,0,B|436:244|352:244|352:244|319:227,1,181.500005538941,12|8,0:1|0:0,0:0:0:0:
368,144,82230,1,2,0:0:0:0:
320,336,82454,1,10,0:1:0:0:
224,112,82678,1,0,0:0:0:0:
172,232,82902,1,10,0:0:0:0:
392,224,83126,1,12,0:1:0:0:
256,200,83350,5,10,0:1:0:0:
316,84,83573,1,0,0:0:0:0:
428,208,83797,1,8,0:0:0:0:
360,308,84021,1,2,0:0:0:0:
176,180,84245,2,0,L|320:160,1,136.125004154205,10|0,0:1|0:0,0:0:0:0:
380,216,84693,1,10,0:0:0:0:
308,80,84917,1,8,0:1:0:0:
260,256,85141,6,0,B|240:284|240:284|184:316|114:297,1,165,12|8,0:1|0:0,0:0:0:0:
60,228,85812,1,0,0:0:0:0:
304,324,86036,2,0,L|268:162,1,165,2|8,0:0|0:0,0:0:0:0:
320,80,86708,1,0,0:0:0:0:
152,216,86932,5,10,0:0:0:0:
208,88,87156,1,8,0:0:0:0:
400,144,87379,1,10,0:0:0:0:
324,304,87603,1,8,0:0:0:0:
204,130,87827,5,10,0:0:0:0:
226,133,87939,1,8,0:0:0:0:
249,136,88051,1,8,0:0:0:0:
271,138,88163,1,8,0:0:0:0:
292,178,88275,5,10,0:0:0:0:
314,175,88387,1,8,0:0:0:0:
336,172,88499,1,8,0:0:0:0:
359,169,88611,1,8,0:0:0:0:
400,144,88723,5,12,0:1:0:0:
256,192,88835,12,10,90514,0:1:0:0:
196,192,102379,5,0,0:0:0:0:
315,68,102603,2,0,L|306:108|297:148,1,82.5,10|10,0:0|0:0,0:0:0:0:
368,228,103051,6,0,P|344:272|264:304,1,123.750004720688,10|0,0:1|0:0,0:0:0:0:
204,232,103723,2,0,L|60:224,1,123.750004720688,2|0,0:0|0:0,0:0:0:0:
48,328,104394,2,0,L|144:332,1,92.812503540516,10|8,0:1|0:1,0:0:0:0:
236,328,104842,6,0,P|223:288|208:250,1,82.5,12|0,0:1|0:0,0:0:0:0:
124,200,105290,1,8,0:1:0:0:
192,112,105514,2,0,P|231:118|272:128,1,82.5,2|8,0:0|0:1,0:0:0:0:
440,172,105962,1,0,0:0:0:0:
340,208,106185,1,10,0:1:0:0:
296,104,106409,1,0,0:0:0:0:
440,72,106633,5,10,0:1:0:0:
300,208,106857,1,0,0:0:0:0:
332,100,107081,1,8,0:1:0:0:
440,208,107305,2,0,L|448:300,1,82.5,2|8,0:0|0:1,0:0:0:0:
340,360,107753,2,0,L|332:277,1,82.5,0|10,0:0|0:1,0:0:0:0:
364,160,108200,1,0,0:0:0:0:
220,240,108424,6,0,B|192:252|192:252|112:256|65:216,1,165,10|8,0:1|0:1,0:0:0:0:
48,92,109096,1,0,0:0:0:0:
212,36,109320,2,0,P|200:96|152:148,1,123.75,10|0,0:1|0:0,0:0:0:0:
264,156,109767,2,0,L|352:144,1,82.5,10|0,0:1|0:0,0:0:0:0:
476,236,110215,5,10,0:1:0:0:
372,260,110439,1,0,0:0:0:0:
472,116,110663,1,8,0:1:0:0:
360,44,110887,2,0,P|345:82|343:123,1,82.5,2|8,0:0|0:1,0:0:0:0:
452,148,111335,1,0,0:0:0:0:
264,192,111559,2,0,P|304:200|344:210,1,82.5,10|0,0:1|0:0,0:0:0:0:
92,263,112006,6,0,P|126:242|167:237,1,82.5,10|0,0:1|0:0,0:0:0:0:
268,304,112454,1,8,0:1:0:0:
172,136,112678,2,0,L|161:54,1,82.5,2|8,0:0|0:1,0:0:0:0:
176,240,113126,1,0,0:0:0:0:
204,124,113350,1,10,0:1:0:0:
316,160,113573,1,0,0:0:0:0:
236,312,113797,5,10,0:1:0:0:
232,116,114021,1,0,0:0:0:0:
312,200,114245,1,8,0:1:0:0:
120,232,114469,2,0,P|160:223|201:216,1,82.5,2|8,0:0|0:1,0:0:0:0:
320,292,114917,1,0,0:0:0:0:
320,292,115141,1,10,0:1:0:0:
224,212,115364,1,0,0:0:0:0:
436,128,115588,6,0,P|427:188|388:235,1,123.75,10|8,0:1|0:1,0:0:0:0:
332,164,116036,2,0,P|292:151|253:139,1,82.5,10|0,0:1|0:0,0:0:0:0:
136,204,116484,2,0,P|120:166|122:125,1,82.5,10|10,0:1|0:1,0:0:0:0:
168,196,117379,6,0,P|113:256|104:337,1,165,12|8,0:1|0:0,0:0:0:0:
196,376,118051,1,0,0:0:0:0:
264,276,118275,2,0,P|304:268|345:263,1,82.5,10|0,0:1|0:0,0:0:0:0:
196,376,118723,1,8,0:0:0:0:
196,180,118947,1,10,0:0:0:0:
100,264,119170,6,0,P|80:216|96:144,1,123.75,10|0,0:1|0:0,0:0:0:0:
88,68,119618,2,0,P|127:79|167:89,1,82.5,8|0,0:0|0:0,0:0:0:0:
344,100,120066,2,0,P|303:108|263:117,1,82.5,10|0,0:1|0:0,0:0:0:0:
212,224,120514,1,8,0:0:0:0:
440,140,120738,1,10,0:0:0:0:
348,208,120962,6,0,B|321:223|321:223|289:283|316:353,1,165,10|8,0:1|0:0,0:0:0:0:
436,224,121633,2,0,P|432:176|412:144,1,82.5,0|10,0:0|0:1,0:0:0:0:
304,104,122081,2,0,L|221:100,1,82.5,0|8,0:0|0:0,0:0:0:0:
396,52,122529,1,10,0:0:0:0:
256,192,122753,6,0,P|228:269|230:351,1,165,10|8,0:1|0:0,0:0:0:0:
384,336,123424,2,0,P|369:298|351:261,1,82.5,0|10,0:0|0:1,0:0:0:0:
148,232,123872,1,8,0:0:0:0:
288,320,124096,1,10,0:0:0:0:
108,336,124320,1,10,0:0:0:0:
276,216,124544,6,0,P|357:202|439:192,1,165,12|8,0:1|0:0,0:0:0:0:
488,276,125215,1,0,0:0:0:0:
376,384,125439,2,0,L|383:301,1,82.5,10|0,0:1|0:0,0:0:0:0:
284,188,125887,1,10,0:0:0:0:
123,315,126111,6,0,P|163:305|203:294,1,82.5,10|8,0:0|0:1,0:0:0:0:
292,204,126559,1,0,0:0:0:0:
216,80,126782,2,0,P|188:124|188:168,1,82.5,10|0,0:0|0:0,0:0:0:0:
300,224,127230,2,0,L|436:204,1,123.75,10|0,0:1|0:0,0:0:0:0:
480,264,127678,1,10,0:0:0:0:
512,108,127902,1,8,0:0:0:0:
324,40,128126,5,12,0:0:0:0:
380,156,128350,1,8,0:0:0:0:
164,116,128573,1,10,0:0:0:0:
216,276,128797,1,8,0:0:0:0:
284,152,129021,5,10,0:0:0:0:
196,244,129245,1,8,0:0:0:0:
84,80,129469,1,10,0:0:0:0:
248,36,129693,1,8,0:0:0:0:
136,148,129917,6,0,P|128:170|120:204,1,41.25,10|8,0:0|0:0,0:0:0:0:
171,268,130141,2,0,P|191:262|212:258,1,41.25,8|8,0:0|0:0,0:0:0:0:
336,176,130364,6,0,P|316:181|295:185,1,41.25,10|8,0:0|0:0,0:0:0:0:
224,128,130588,2,0,P|216:102|212:76,1,41.25,8|8,0:0|0:0,0:0:0:0:
216,216,130812,6,0,P|209:241|200:272,1,41.25,10|8,0:0|0:0,0:0:0:0:
132,316,131036,2,0,P|105:320|76:324,1,41.25,8|8,0:0|0:0,0:0:0:0:
232,344,131260,6,0,P|258:350|288:360,1,41.25,10|8,0:0|0:0,0:0:0:0:
352,292,131484,2,0,P|371:306|396:328,1,41.25,8|8,0:0|0:0,0:0:0:0:
264,244,133051,5,8,0:1:0:0:
232,264,133499,6,0,P|248:160|260:80,1,181.500005538941,12|10,0:1|0:0,0:0:0:0:
336,208,134170,2,0,P|368:239|410:254,1,90.7500027694703,2|8,0:0|0:1,0:0:0:0:
160,160,134618,2,0,P|116:171|72:185,1,90.7500027694703,0|8,0:0|0:0,0:0:0:0:
272,92,135066,1,2,0:0:0:0:
248,251,135290,6,0,P|318:197|407:194,1,181.500005538941,8|8,0:1|0:0,0:0:0:0:
452,296,135962,1,2,0:0:0:0:
292,164,136185,1,10,0:1:0:0:
416,120,136409,1,0,0:0:0:0:
416,120,136521,1,8,0:1:0:0:
416,120,136633,1,10,0:0:0:0:
332,296,136857,1,0,0:0:0:0:
160,184,137081,6,0,B|300:188|300:188|334:210,1,181.500005538941,10|8,0:1|0:0,0:0:0:0:
424,304,137753,1,2,0:0:0:0:
224,304,137976,1,10,0:1:0:0:
260,152,138200,1,0,0:0:0:0:
352,360,138424,1,10,0:0:0:0:
352,360,138648,1,0,0:0:0:0:
368,140,138872,6,0,P|362:185|354:229,1,90.7500027694703,10|0,0:1|0:0,0:0:0:0:
456,80,139320,1,10,0:0:0:0:
456,80,139544,1,0,0:0:0:0:
280,40,139767,2,0,P|240:64|216:160,1,136.125004154205,10|8,0:1|0:1,0:0:0:0:
272,208,140215,1,10,0:0:0:0:
280,40,140439,1,8,0:1:0:0:
28,104,140663,6,0,P|116:115|199:80,1,181.500005538941,14|10,0:1|0:0,0:0:0:0:
224,239,141335,2,0,P|240:197|261:157,1,90.7500027694703,2|8,0:0|0:1,0:0:0:0:
372,136,141782,1,0,0:0:0:0:
284,296,142006,1,10,0:0:0:0:
240,144,142230,1,0,0:0:0:0:
360,240,142454,6,0,P|447:240|504:173,1,181.500005538941,10|8,0:1|0:0,0:0:0:0:
360,240,143126,1,2,0:0:0:0:
484,280,143350,1,10,0:1:0:0:
428,120,143573,1,0,0:0:0:0:
256,260,143797,1,10,0:0:0:0:
312,144,144021,1,8,0:1:0:0:
368,312,144245,6,0,L|392:224,1,90.7500027694703,10|0,0:1|0:0,0:0:0:0:
328,128,144693,2,0,P|285:114|241:126,1,90.7500027694703,10|0,0:0|0:0,0:0:0:0:
80,220,145141,2,0,P|122:233|166:221,1,90.7500027694703,10|0,0:1|0:0,0:0:0:0:
156,92,145588,1,10,0:0:0:0:
248,328,145812,1,10,0:1:0:0:
224,304,146260,5,8,0:1:0:0:
280,200,146484,2,0,P|323:213|368:215,1,90.7500027694703,10|0,0:0|0:0,0:0:0:0:
192,148,146932,2,0,P|132:180|65:191,1,136.125004154205,10|8,0:1|0:1,0:0:0:0:
12,132,147379,1,10,0:0:0:0:
160,260,147603,1,8,0:1:0:0:
340,116,147827,6,0,B|292:60|216:52|216:52|180:66,1,181.500005538941,12|10,0:1|0:0,0:0:0:0:
268,188,148499,2,0,P|276:225|288:280,1,90.7500027694703,2|8,0:0|0:1,0:0:0:0:
136,136,148947,2,0,P|144:92|180:52,1,90.7500027694703,0|8,0:0|0:0,0:0:0:0:
188,224,149394,1,2,0:0:0:0:
88,264,149618,6,0,P|44:251|0:240,1,90.7500027694703,8|0,0:1|0:0,0:0:0:0:
216,280,150066,1,8,0:0:0:0:
164,184,150290,1,2,0:0:0:0:
316,120,150514,2,0,P|308:176|276:212,1,90.7500027694703,10|0,0:1|0:0,0:0:0:0:
188,204,150962,1,10,0:0:0:0:
264,28,151185,1,0,0:0:0:0:
344,196,151409,6,0,P|360:285|371:375,1,181.500005538941,10|8,0:1|0:0,0:0:0:0:
244,256,152081,2,0,P|199:249|153:244,1,90.7500027694703,2|10,0:0|0:1,0:0:0:0:
80,320,152529,1,0,0:0:0:0:
324,332,152753,1,10,0:0:0:0:
176,148,152976,1,8,0:1:0:0:
184,260,153200,5,10,0:1:0:0:
324,176,153424,1,0,0:0:0:0:
324,176,153536,1,8,0:1:0:0:
324,176,153648,1,10,0:0:0:0:
288,56,153872,1,8,0:1:0:0:
268,276,154096,5,10,0:1:0:0:
204,136,154320,1,8,0:1:0:0:
424,184,154544,1,10,0:0:0:0:
244,132,154767,1,0,0:0:0:0:
360,272,154991,6,0,L|269:261,1,90.7500027694703,12|0,0:1|0:0,0:0:0:0:
140,152,155439,2,0,L|230:162,1,90.7500027694703,8|2,0:0|0:0,0:0:0:0:
160,276,155887,1,10,0:1:0:0:
232,188,156111,1,0,0:0:0:0:
372,96,156335,2,0,P|368:140|345:179,1,90.7500027694703,10|12,0:0|0:1,0:0:0:0:
280,352,156782,6,0,L|268:261,1,90.7500027694703,10|0,0:1|0:0,0:0:0:0:
244,72,157230,1,8,0:0:0:0:
324,152,157454,1,0,0:0:0:0:
252,248,157678,2,0,P|184:236|120:184,1,136.125004154205,10|0,0:1|0:0,0:0:0:0:
116,120,158126,1,8,0:0:0:0:
92,308,158350,1,10,0:1:0:0:
276,156,158573,6,0,L|444:136,1,165,12|8,0:1|0:0,0:0:0:0:
480,52,159245,1,0,0:0:0:0:
208,72,159469,2,0,P|240:124|228:236,1,165,2|8,0:0|0:0,0:0:0:0:
148,244,160141,1,0,0:0:0:0:
320,336,160364,5,10,0:0:0:0:
332,128,160588,1,8,0:0:0:0:
260,236,160812,1,10,0:0:0:0:
460,136,161036,1,8,0:0:0:0:
428,288,161260,6,0,P|432:267|435:247,1,41.25,10|8,0:0|0:0,0:0:0:0:
336,168,161484,2,0,P|339:188|343:208,1,41.25,8|8,0:0|0:0,0:0:0:0:
436,135,161708,2,0,P|455:129|475:124,1,41.25,10|8,0:0|0:0,0:0:0:0:
316,60,161932,2,0,P|295:55|275:51,1,41.25,8|8,0:0|0:0,0:0:0:0:
412,44,162156,5,12,0:1:0:0:
240,140,162379,2,0,P|201:126|160:123,1,82.5,10|8,0:1|0:0,0:0:0:0:
163,224,162827,2,0,P|123:232|88:252,1,82.5,10|0,0:1|3:0,0:0:0:0:
236,296,163275,1,10,0:1:0:0:
236,296,163387,1,0,3:0:0:0:
236,296,163499,1,8,0:0:0:0:
320,208,163723,6,0,L|416:196,1,82.5,10|0,0:1|0:0,0:0:0:0:
328,96,164170,2,0,L|404:44,1,82.5,10|8,0:1|0:0,0:0:0:0:
200,108,164618,1,0,0:0:0:0:
200,108,164730,1,0,3:0:0:0:
200,108,164842,2,0,L|216:40,3,41.25,0|0|0|0,3:0|3:0|0:0|3:0,0:0:0:0:
120,139,165290,2,0,P|118:181|131:220,1,82.5,8|0,0:0|3:0,0:0:0:0:
264,236,165738,5,10,0:1:0:0:
80,332,165962,1,10,0:1:0:0:
176,368,166185,1,8,0:0:0:0:
180,160,166409,2,0,P|156:193|146:233,1,82.5,10|0,0:1|3:0,0:0:0:0:
280,216,166857,2,0,L|336:208,2,41.25,10|0|8,0:1|3:0|0:0,0:0:0:0:
400,280,167305,5,10,0:1:0:0:
412,80,167529,1,0,0:0:0:0:
412,80,167753,1,10,0:1:0:0:
260,128,167976,2,0,P|219:121|178:112,1,82.5,8|0,0:0|0:0,0:0:0:0:
116,172,168312,1,0,3:0:0:0:
116,172,168424,2,0,P|123:191|131:210,1,41.25,0|0,3:0|3:0,0:0:0:0:
116,292,168648,2,0,P|98:308|84:320,1,41.25,2|0,0:0|3:0,0:0:0:0:
200,264,168872,2,0,P|240:270|281:279,1,82.5,10|0,0:0|3:0,0:0:0:0:
432,216,169320,5,10,0:1:0:0:
368,312,169544,1,10,0:1:0:0:
292,120,169767,1,8,0:0:0:0:
344,208,169991,5,10,0:1:0:0:
344,208,170215,1,0,3:0:0:0:
183,160,170439,2,0,P|165:169|150:183,2,41.25,10|0|8,0:1|3:0|0:0,0:0:0:0:
280,272,170887,5,10,0:1:0:0:
252,64,171111,1,0,0:0:0:0:
332,116,171335,1,10,0:1:0:0:
96,124,171559,2,0,P|136:128|177:135,1,82.5,8|0,0:0|0:0,0:0:0:0:
252,192,171894,1,0,3:0:0:0:
252,192,172006,2,0,P|257:218|260:244,3,41.25,0|0|2|0,3:0|3:0|0:0|3:0,0:0:0:0:
183,272,172454,2,0,P|157:303|144:342,1,82.5,10|0,0:0|3:0,0:0:0:0:
372,276,172902,6,0,L|264:276,1,82.5,12|10,0:1|0:1,0:0:0:0:
480,256,173350,1,8,0:0:0:0:
340,180,173573,2,0,P|320:136|308:88,1,82.5,10|0,0:1|3:0,0:0:0:0:
440,168,174021,2,0,P|446:148|455:129,2,41.25,10|0|8,0:1|3:0|0:0,0:0:0:0:
440,348,174469,6,0,P|461:313|462:272,1,82.5,10|8,0:1|0:0,0:0:0:0:
284,260,174917,1,10,0:1:0:0:
336,360,175141,1,8,0:0:0:0:
384,184,175364,1,10,0:1:0:0:
384,184,175476,1,0,3:0:0:0:
384,184,175588,6,0,P|381:164|373:145,1,41.25,10|0,0:1|3:0,0:0:0:0:
312,244,175812,2,0,L|302:264|288:292,1,41.25,10|0,0:1|3:0,0:0:0:0:
256,152,176036,2,0,P|235:142|212:136,1,41.25,10|8,0:0|0:0,0:0:0:0:
172,216,176260,2,0,P|146:223|120:228,1,41.25,10|8,0:0|0:0,0:0:0:0:
24,128,176484,6,0,L|124:144,1,82.5,12|0,0:1|0:0,0:0:0:0:
172,76,176820,1,2,0:0:0:0:
172,76,176932,2,0,L|216:64,1,41.25,8|0,0:0|0:0,0:0:0:0:
300,104,177156,2,0,P|307:144|296:183,1,82.5,2|8,0:0|0:1,0:0:0:0:
236,28,177603,1,2,0:0:0:0:
376,32,177827,1,8,0:0:0:0:
376,32,178051,1,2,0:0:0:0:
464,168,178275,6,0,P|416:156|372:144,1,82.5,10|0,0:1|0:0,0:0:0:0:
328,212,178611,1,2,0:0:0:0:
328,212,178723,2,0,P|335:235|344:264,2,41.25,8|0|2,0:0|0:0|0:0,0:0:0:0:
152,224,179170,1,8,0:1:0:0:
224,296,179394,1,2,0:0:0:0:
232,148,179618,2,0,P|238:107|246:66,1,82.5,8|0,0:0|0:0,0:0:0:0:
344,23,180066,6,0,P|384:32|417:56,1,82.5,10|0,0:1|0:0,0:0:0:0:
488,104,180402,1,2,0:0:0:0:
488,104,180514,2,0,P|481:125|476:144,1,41.25,8|0,0:0|0:0,0:0:0:0:
400,180,180738,2,0,P|408:220|420:259,1,82.5,2|8,0:0|0:1,0:0:0:0:
332,104,181185,1,2,0:0:0:0:
248,176,181409,2,0,P|229:210|208:252,1,82.5,8|2,0:0|0:0,0:0:0:0:
232,332,181745,1,0,0:0:0:0:
232,332,181857,6,0,P|197:353|156:355,1,82.5,10|0,0:1|0:0,0:0:0:0:
92,296,182193,1,2,0:0:0:0:
92,296,182305,2,0,L|40:304,1,41.25,8|0,0:0|0:0,0:0:0:0:
16,220,182529,2,0,P|23:179|49:147,1,82.5,2|8,0:0|0:1,0:0:0:0:
204,132,182976,1,2,0:0:0:0:
204,132,183088,1,8,0:1:0:0:
204,132,183200,2,0,P|196:172|170:204,1,82.5,8|0,0:0|0:0,0:0:0:0:
64,40,183648,6,0,P|101:50|144:60,1,82.5,12|0,0:1|0:0,0:0:0:0:
224,32,183984,1,2,0:0:0:0:
224,32,184096,2,0,P|245:27|265:24,2,41.25,8|0|2,0:0|0:0|0:0,0:0:0:0:
360,88,184544,1,8,0:1:0:0:
296,168,184767,1,2,0:0:0:0:
184,136,184991,2,0,P|191:176|198:217,1,82.5,8|2,0:0|0:0,0:0:0:0:
336,288,185439,6,0,P|328:247|321:206,1,82.5,10|0,0:1|0:0,0:0:0:0:
372,120,185775,1,2,0:0:0:0:
372,120,185887,2,0,P|399:152|404:192,1,82.5,8|2,0:0|0:0,0:0:0:0:
256,96,186335,2,0,L|215:89|174:82,1,82.5,8|2,0:1|0:0,0:0:0:0:
91,152,186782,2,0,P|105:191|117:230,1,82.5,8|2,0:0|0:0,0:0:0:0:
72,336,187230,6,0,P|136:360|208:340,1,123.75,10|2,0:1|0:0,0:0:0:0:
236,280,187678,2,0,P|255:282|280:288,2,41.25,8|0|2,0:0|0:0|0:0,0:0:0:0:
168,196,188126,1,8,0:1:0:0:
288,148,188350,1,2,0:0:0:0:
144,56,188573,1,8,0:0:0:0:
320,168,188797,1,12,0:1:0:0:
352,188,189245,5,10,0:1:0:0:
304,64,189469,1,8,0:0:0:0:
208,184,189693,1,2,0:0:0:0:
64,56,189917,1,8,0:1:0:0:
176,88,190141,1,2,0:0:0:0:
176,88,190253,1,8,0:1:0:0:
176,88,190364,1,8,0:0:0:0:
104,208,190588,1,10,0:1:0:0:
300,159,190812,6,0,P|304:180|309:200,1,41.25,12|0,0:1|0:0,0:0:0:0:
208,300,191036,2,0,P|212:279|218:260,1,41.25,2|0,0:0|0:0,0:0:0:0:
304,292,191260,2,0,P|356:304|424:276,1,123.75,10|0,0:0|0:0,0:0:0:0:
476,216,191708,6,0,P|467:194|456:168,1,41.25,10|0,0:1|0:0,0:0:0:0:
480,96,191932,2,0,P|456:88|424:80,1,41.25,2|0,0:0|0:0,0:0:0:0:
336,136,192156,2,0,P|342:111|352:84,1,41.25,10|0,0:0|0:0,0:0:0:0:
272,44,192379,2,0,P|289:28|308:16,1,41.25,2|0,0:0|0:0,0:0:0:0:
240,128,192603,6,0,L|200:116|160:104,1,82.5,10|0,0:1|0:0,0:0:0:0:
48,172,193051,2,0,P|39:131|47:91,1,82.5,10|0,0:0|0:0,0:0:0:0:
143,216,193499,2,0,P|135:234|129:254,3,41.25,10|0|2|0,0:1|0:0|0:0|0:0,0:0:0:0:
224,328,193947,2,0,P|216:300|208:280,3,41.25,10|0|2|0,0:0|0:0|0:0|0:0,0:0:0:0:
263,211,194394,6,0,P|317:241|378:240,1,123.75,10|0,0:1|0:0,0:0:0:0:
440,188,194842,1,10,0:0:0:0:
435,163,194954,1,0,0:0:0:0:
431,139,195066,1,2,0:0:0:0:
426,114,195178,1,0,0:0:0:0:
422,90,195290,6,0,P|403:81|384:75,1,41.25,10|0,0:1|0:0,0:0:0:0:
276,136,195514,2,0,L|296:131|316:126,1,41.25,2|0,0:0|0:0,0:0:0:0:
240,40,195738,2,0,P|222:24|204:12,1,41.25,10|0,0:0|0:0,0:0:0:0:
184,152,195962,2,0,P|176:171|169:190,1,41.25,10|0,0:1|0:0,0:0:0:0:
131,63,196185,6,0,P|75:40|14:47,1,123.75,10|8,0:1|0:1,0:0:0:0:
40,136,196633,2,0,P|31:176|24:217,1,82.5,10|8,0:0|0:1,0:0:0:0:
120,340,197081,1,10,0:1:0:0:
200,272,197305,1,10,0:1:0:0:
144,172,197529,2,0,P|163:166|183:161,3,41.25,10|2|2|2,0:0|0:0|0:0|0:0,0:0:0:0:
264,196,197976,6,0,L|346:202,1,82.5,12|0,0:1|0:0,0:0:0:0:
460,132,198424,2,0,P|471:171|465:211,1,82.5,10|0,0:0|0:0,0:0:0:0:
459,323,198872,2,0,P|442:313|423:305,3,41.25,10|0|2|0,0:1|0:0|0:0|0:0,0:0:0:0:
327,292,199320,2,0,P|309:300|290:309,3,41.25,10|0|2|0,0:0|0:0|0:0|0:0,0:0:0:0:
187,315,199767,6,0,P|164:282|161:241,1,82.5,10|0,0:1|0:0,0:0:0:0:
104,120,200215,2,0,P|164:134|224:146,1,123.75,10|0,0:0|0:0,0:0:0:0:
288,96,200663,2,0,P|328:80|368:80,1,82.5,10|0,0:1|0:0,0:0:0:0:
423,212,201111,2,0,P|431:192|440:174,1,41.25,10|2,0:0|0:0,0:0:0:0:
364,296,201335,2,0,P|374:317|388:340,1,41.25,10|2,0:1|0:0,0:0:0:0:
328,212,201559,5,12,0:1:0:0:
248,292,201782,1,0,0:0:0:0:
216,136,202006,1,10,0:0:0:0:
320,360,202230,1,10,0:1:0:0:
344,344,202678,5,10,0:1:0:0:
316,104,202902,1,10,0:0:0:0:
204,268,203126,1,8,0:1:0:0:
324,248,203350,5,2,0:0:0:0:
116,160,203573,1,8,0:1:0:0:
208,296,203797,1,8,0:0:0:0:
256,164,204021,1,8,0:0:0:0:
87,256,204245,6,0,P|107:250|128:246,1,41.25,10|8,0:0|0:0,0:0:0:0:
216,184,204469,2,0,P|237:195|256:208,1,41.25,8|8,0:0|0:0,0:0:0:0:
240,368,204693,6,0,P|236:343|236:320,1,41.25,10|8,0:0|0:0,0:0:0:0:
328,280,204917,2,0,P|348:263|368:252,1,41.25,8|8,0:0|0:0,0:0:0:0:
200,132,205141,6,0,P|193:180|209:226,1,98.9999969787599,12|0,0:1|0:0,0:0:0:0:
312,184,205812,2,0,P|359:171|407:158,1,98.9999969787599,2|0,0:0|0:0,0:0:0:0:
392,284,206708,6,0,P|344:296|296:309,1,98.9999969787599,2|0,0:0|0:0,0:0:0:0:
224,224,207603,2,0,P|148:216|64:296,1,197.99999395752,2|0,0:0|0:0,0:0:0:0:
44,176,208723,6,0,P|34:126|24:80,1,98.9999969787599,2|0,0:0|0:0,0:0:0:0:
111,16,209618,2,0,L|159:29|207:42,1,98.9999969787599,2|0,0:0|0:0,0:0:0:0:
368,95,210514,6,0,P|288:156|195:138,1,197.99999395752,2|2,0:0|0:0,0:0:0:0:
104,188,211857,1,0,0:0:0:0:
200,252,212305,6,0,P|216:296|188:376,1,123.750004720688,10|8,0:1|0:1,0:0:0:0:
120,176,212976,1,2,0:0:0:0:
260,180,213200,2,0,L|382:160,1,123.750004720688,8|8,0:1|0:1,0:0:0:0:
464,224,213872,1,2,0:0:0:0:
340,320,214096,5,10,0:1:0:0:
340,320,214320,1,0,0:0:0:0:
364,184,214544,1,8,0:1:0:0:
432,296,214767,1,2,0:0:0:0:
244,179,214991,6,0,L|257:240,1,61.875002360344,10|8,0:1|0:1,0:0:0:0:
292,56,215439,2,0,L|305:116,1,61.875002360344,10|8,0:1|0:1,0:0:0:0:
196,16,215887,5,10,0:1:0:0:
392,104,216111,1,10,0:1:0:0:
296,152,216335,1,10,0:1:0:0:
408,8,216559,1,10,0:1:0:0:
468,210,216782,5,10,0:1:0:0:
441,193,216894,1,8,0:1:0:0:
411,187,217006,1,8,0:1:0:0:
381,190,217118,1,8,0:1:0:0:
364,216,217230,5,10,0:1:0:0:
337,232,217342,1,8,0:1:0:0:
307,238,217454,1,8,0:1:0:0:
277,235,217566,1,8,0:1:0:0:
248,200,217678,5,10,0:1:0:0:
188,296,217902,1,8,0:1:0:0:
120,120,218126,1,10,0:3:0:0:
95,139,219469,6,0,P|165:195|253:188,1,181.500005538941,12|10,0:1|0:0,0:0:0:0:
336,44,220141,1,2,0:0:0:0:
232,60,220364,1,8,0:1:0:0:
340,236,220588,1,0,0:0:0:0:
408,144,220812,1,8,0:0:0:0:
215,176,221036,6,0,P|198:217|195:262,1,90.7500027694703,2|8,0:0|0:1,0:0:0:0:
320,328,221484,2,0,L|416:312,1,90.7500027694703,0|8,0:0|0:0,0:0:0:0:
212,280,221932,1,2,0:0:0:0:
128,356,222156,1,10,0:1:0:0:
300,352,222379,1,0,0:0:0:0:
188,144,222603,1,10,0:0:0:0:
92,240,222827,1,0,0:0:0:0:
308,212,223051,6,0,B|344:184|344:184|372:124|360:51,1,181.500005538941,10|8,0:1|0:0,0:0:0:0:
272,16,223723,1,2,0:0:0:0:
400,160,223947,2,0,P|443:147|487:136,1,90.7500027694703,10|0,0:1|0:0,0:0:0:0:
376,264,224394,1,10,0:0:0:0:
284,116,224618,1,8,0:1:0:0:
88,188,224842,6,0,P|136:224|224:236,1,136.125004154205,10|8,0:1|0:1,0:0:0:0:
284,200,225290,1,10,0:0:0:0:
136,268,225514,1,8,0:1:0:0:
220,124,225738,2,0,P|216:79|196:38,1,90.7500027694703,10|8,0:1|0:1,0:0:0:0:
112,176,226185,1,10,0:0:0:0:
112,176,226409,1,0,0:0:0:0:
312,240,226633,6,0,L|222:224,1,90.7500027694703,12|0,0:1|0:0,0:0:0:0:
116,272,227081,1,8,0:0:0:0:
68,96,227305,2,0,P|36:136|28:196,1,90.7500027694703,2|10,0:0|0:1,0:0:0:0:
176,72,227753,1,0,0:0:0:0:
148,188,227976,1,10,0:0:0:0:
336,72,228200,1,12,0:1:0:0:
252,176,228424,5,10,0:1:0:0:
192,44,228648,1,0,0:0:0:0:
384,176,228872,1,8,0:0:0:0:
368,72,229096,1,2,0:0:0:0:
216,132,229320,2,0,B|196:284,1,136.125004154205,10|0,0:1|0:0,0:0:0:0:
219,348,229767,2,0,P|181:371|136:373,1,90.7500027694703,10|8,0:0|0:1,0:0:0:0:
288,232,230215,6,0,L|456:220,1,165,12|8,0:1|0:0,0:0:0:0:
512,304,230887,1,0,0:0:0:0:
376,136,231111,2,0,B|404:104|404:104|404:56|392:16|392:16|361:2,1,165,2|8,0:0|0:0,0:0:0:0:
272,36,231782,1,0,0:0:0:0:
400,224,232006,5,10,0:1:0:0:
260,144,232230,1,8,0:0:0:0:
152,252,232454,1,10,0:1:0:0:
308,324,232678,1,8,0:0:0:0:
364,216,232902,5,10,0:0:0:0:
335,210,233014,1,8,0:0:0:0:
307,205,233126,1,8,0:0:0:0:
278,200,233238,1,8,0:0:0:0:
249,219,233350,5,10,0:0:0:0:
220,224,233462,1,8,0:0:0:0:
192,229,233573,1,8,0:0:0:0:
163,234,233685,1,8,0:0:0:0:
136,208,233797,6,0,B|108:192|108:192|84:147,1,82.5,12|0,0:1|0:0,0:0:0:0:
236,304,234245,2,0,B|249:333|249:333|242:383,1,82.5,10|0,0:0|0:0,0:0:0:0:
208,152,234693,2,0,B|214:120|214:120|249:84,1,82.5,10|0,0:1|0:0,0:0:0:0:
144,300,235141,2,0,B|120:321|120:321|70:330,1,82.5,10|0,0:0|0:0,0:0:0:0:
284,216,235588,6,0,P|324:222|365:229,1,82.5,10|0,0:1|0:0,0:0:0:0:
192,276,236036,2,0,P|168:242|164:201,1,82.5,10|0,0:0|0:0,0:0:0:0:
316,328,236484,1,10,0:1:0:0:
280,236,236708,1,0,0:0:0:0:
104,316,236932,2,0,P|70:340|38:365,1,82.5,10|0,0:0|0:0,0:0:0:0:
236,356,237379,5,10,0:1:0:0:
188,200,237603,1,0,0:0:0:0:
272,256,237827,1,10,0:0:0:0:
76,232,238051,5,0,0:0:0:0:
140,128,238275,1,10,0:1:0:0:
176,284,238499,1,0,0:0:0:0:
272,132,238723,1,10,0:0:0:0:
272,132,238947,1,0,0:0:0:0:
188,200,239170,5,10,0:1:0:0:
276,260,239394,1,0,0:0:0:0:
372,208,239618,1,10,0:0:0:0:
376,104,239842,5,0,0:0:0:0:
344,220,240066,1,10,0:1:0:0:
436,320,240290,1,0,0:0:0:0:
472,228,240514,1,10,0:0:0:0:
472,228,240738,1,0,0:0:0:0:
328,252,240962,6,0,P|287:245|246:236,1,82.5,10|0,0:1|0:0,0:0:0:0:
131,204,241409,2,0,P|120:243|126:283,1,82.5,10|0,0:0|0:0,0:0:0:0:
192,108,241857,1,10,0:1:0:0:
108,184,242081,1,0,0:0:0:0:
280,164,242305,1,10,0:0:0:0:
280,164,242529,1,0,0:0:0:0:
212,264,242753,6,0,P|260:254|300:248,1,82.5,10|0,0:1|0:0,0:0:0:0:
408,280,243200,2,0,P|436:240|440:208,1,82.5,10|0,0:0|0:0,0:0:0:0:
292,64,243648,1,10,0:1:0:0:
296,176,243872,1,0,0:0:0:0:
468,88,244096,1,10,0:0:0:0:
392,24,244320,1,8,0:1:0:0:
316,156,244544,6,0,L|224:144,1,82.5,10|0,0:1|0:0,0:0:0:0:
392,84,244991,2,0,L|473:94,1,82.5,10|0,0:0|0:0,0:0:0:0:
400,192,245439,1,10,0:1:0:0:
308,64,245663,1,0,0:0:0:0:
236,176,245887,1,10,0:0:0:0:
440,104,246111,5,12,0:1:0:0:
276,124,246335,1,2,0:0:0:0:
408,288,246559,1,8,0:1:0:0:
280,84,246782,1,10,0:0:0:0:
184,308,247006,5,8,0:1:0:0:
388,192,247230,1,10,0:1:0:0:
208,184,247454,1,8,0:1:0:0:
316,340,247678,2,0,P|320:319|324:292,3,41.25,10|8|8|8,0:0|0:0|0:0|0:0,0:0:0:0:
271,227,248126,6,0,P|257:189|259:148,1,82.5,12|0,0:1|0:0,0:0:0:0:
336,60,248573,1,10,0:0:0:0:
208,48,248797,2,0,P|169:33|128:34,1,82.5,0|10,0:0|0:1,0:0:0:0:
56,164,249245,1,0,0:0:0:0:
168,140,249469,1,10,0:0:0:0:
168,140,249693,1,0,0:0:0:0:
183,236,249917,6,0,P|161:270|145:308,1,82.5,10|0,0:1|0:0,0:0:0:0:
272,268,250364,2,0,L|364:260,1,82.5,10|0,0:0|0:0,0:0:0:0:
256,124,250812,1,10,0:1:0:0:
356,172,251036,1,0,0:0:0:0:
412,64,251260,1,10,0:0:0:0:
412,64,251484,1,0,0:0:0:0:
272,156,251708,6,0,P|263:196|271:236,1,82.5,10|0,0:1|0:0,0:0:0:0:
400,136,252156,2,0,P|408:95|400:55,1,82.5,10|0,0:0|0:0,0:0:0:0:
360,228,252603,2,0,P|404:260|456:268,1,82.5,10|0,0:1|0:0,0:0:0:0:
284,128,253051,1,10,0:0:0:0:
284,128,253275,1,0,0:0:0:0:
120,220,253499,6,0,L|216:208,1,82.5,10|0,0:1|0:0,0:0:0:0:
280,280,253947,2,0,L|254:358,1,82.5,10|0,0:0|0:0,0:0:0:0:
368,220,254394,1,10,0:1:0:0:
267,100,254618,2,0,P|255:139|262:179,1,82.5,0|10,0:0|0:0,0:0:0:0:
352,236,255066,1,0,0:0:0:0:
168,192,255290,6,0,L|127:186|86:180,1,82.5,10|0,0:1|0:0,0:0:0:0:
272,216,255738,2,0,P|320:204|364:196,1,82.5,10|0,0:0|0:0,0:0:0:0:
184,348,256185,2,0,P|178:307|194:270,1,82.5,10|0,0:1|0:0,0:0:0:0:
260,120,256633,1,10,0:0:0:0:
260,120,256857,1,0,0:0:0:0:
348,196,257081,5,10,0:1:0:0:
148,128,257305,1,0,0:0:0:0:
216,48,257529,1,10,0:0:0:0:
236,256,257753,5,0,0:0:0:0:
320,200,257976,1,10,0:1:0:0:
136,216,258200,1,0,0:0:0:0:
280,336,258424,1,10,0:0:0:0:
280,336,258648,1,8,0:1:0:0:
232,176,258872,6,0,P|223:213|212:263,1,82.5,10|0,0:1|0:0,0:0:0:0:
324,112,259320,1,10,0:0:0:0:
403,188,259544,2,0,P|441:171|482:174,1,82.5,0|10,0:0|0:1,0:0:0:0:
304,120,259991,1,0,0:0:0:0:
352,272,260215,1,10,0:0:0:0:
148,108,260439,5,12,0:1:0:0:
256,192,260663,12,2,262454,0:0:0:0:
