osu file format v12

[General]
AudioFilename: starlog.mp3
AudioLeadIn: 1500
PreviewTime: 49958
Countdown: 0
SampleSet: Soft
StackLeniency: 0.7
Mode: 3
LetterboxInBreaks: 0
SpecialStyle: 1
WidescreenStoryboard: 1

[Editor]
Bookmarks: 3213,4291,10710,16424,23388,26067,27853,32138,32853,33656,37853,38565,39278,42134,45704,46418,47490,47847,48561,49275,50347,62138,66066,66423,66780,67852,79280,82137,83298,84995
DistanceSpacing: 1
BeatDivisor: 4
GridSize: 4

[Metadata]
Title:starlog (TV Size)
TitleUnicode:starlog (TV Size)
Artist:ChouCho
ArtistUnicode:ちょうちょ
Creator:[DNA]HMSDevonshire
Version:Normal
Source:Fate/kaleid liner PRISMA☆ILLYA
Tags:
BeatmapID:365338
BeatmapSetID:147215

[Difficulty]
HPDrainRate:5
CircleSize:8
OverallDifficulty:7
ApproachRate:9
SliderMultiplier:1.6
SliderTickRate:1

[Events]
//Background and Video events
0,0,"yande.re 234336 sample.jpg",0,0
//Break Periods
//Storyboard Layer 0 (Background)
//Storyboard Layer 1 (Fail)
//Storyboard Layer 2 (Pass)
//Storyboard Layer 3 (Foreground)
//Storyboard Sound Samples
//Background Colour Transformations
3,100,163,162,255

[TimingPoints]
714,357.142857142857,4,2,1,40,1,0
4291,352.941176470588,4,2,1,80,1,0
4996,357.142857142857,4,2,1,80,1,0
37853,356.442857142857,4,2,1,60,1,0
39278,357.036596251116,4,2,1,70,1,0
44990,357.142857142857,4,2,1,70,1,0
50704,358.744394618834,4,2,1,80,1,1
52138,357.142857142857,4,2,1,80,1,1
84995,377.358490566038,4,2,1,60,1,0
85561,419.58041958042,4,2,1,60,1,0

[Colours]
Combo1 : 171,86,86
Combo2 : 255,0,255
Combo3 : 255,255,128

[HitObjects]
224,192,580,1,0,0:0:0:0:
96,192,714,1,0,0:0:0:0:
416,192,1071,1,0,0:0:0:0:
224,192,1249,1,0,0:0:0:0:
160,192,1606,1,0,0:0:0:0:
352,192,2142,1,0,0:0:0:0:
352,192,2499,1,0,0:0:0:0:
288,192,2678,1,0,0:0:0:0:
160,192,3035,1,0,0:0:0:0:
32,192,3213,1,0,0:0:0:0:
32,192,4291,1,0,0:0:0:0:
96,192,4291,1,0,0:0:0:0:
288,192,4643,1,0,0:0:0:0:
96,192,4996,1,0,0:0:0:0:
288,192,5353,1,0,0:0:0:0:
224,192,5710,1,0,0:0:0:0:
224,192,5888,1,0,0:0:0:0:
352,192,6067,1,0,0:0:0:0:
96,192,6424,1,0,0:0:0:0:
288,192,6781,1,0,0:0:0:0:
224,192,7138,1,0,0:0:0:0:
224,192,7317,1,0,0:0:0:0:
352,192,7495,1,0,0:0:0:0:
96,192,7853,1,0,0:0:0:0:
352,192,8210,1,0,0:0:0:0:
224,192,8567,1,0,0:0:0:0:
224,192,8745,1,0,0:0:0:0:
288,192,8924,1,0,0:0:0:0:
96,192,9281,1,0,0:0:0:0:
32,192,9638,1,0,0:0:0:0:
288,192,9995,1,0,0:0:0:0:
288,192,10263,1,0,0:0:0:0:
288,192,10531,1,0,0:0:0:0:
480,192,10710,1,0,0:0:0:0:
32,192,10710,1,0,0:0:0:0:
352,192,11067,1,0,0:0:0:0:
288,192,11424,1,0,0:0:0:0:
224,192,11781,1,0,0:0:0:0:
160,192,12138,1,0,0:0:0:0:
352,192,12674,1,0,0:0:0:0:
96,192,13210,1,0,0:0:0:0:
160,192,13567,1,0,0:0:0:0:
288,192,14103,1,0,0:0:0:0:
96,192,14638,1,0,0:0:0:0:
352,192,14995,1,0,0:0:0:0:
32,192,14995,1,0,0:0:0:0:
224,192,15531,1,0,0:0:0:0:
32,192,15531,1,0,0:0:0:0:
96,192,16424,1,0,0:0:0:0:
32,192,16424,1,0,0:0:0:0:
224,192,17853,1,0,0:0:0:0:
288,192,19281,1,0,0:0:0:0:
352,192,20710,1,0,0:0:0:0:
224,192,21424,1,0,0:0:0:0:
96,192,22138,1,0,0:0:0:0:
32,192,23388,1,0,0:0:0:0:
288,192,23567,1,0,0:0:0:0:
160,192,24103,1,0,0:0:0:0:
224,192,24995,1,0,0:0:0:0:
288,192,25531,1,0,0:0:0:0:
32,192,26067,1,0,0:0:0:0:
416,192,26424,1,0,0:0:0:0:
480,192,26960,1,0,0:0:0:0:
416,192,27495,1,0,0:0:0:0:
96,192,27495,1,0,0:0:0:0:
32,192,27853,1,0,0:0:0:0:
224,192,27853,1,0,0:0:0:0:
288,192,28210,1,0,0:0:0:0:
288,192,28924,1,0,0:0:0:0:
288,192,29638,1,0,0:0:0:0:
288,192,30353,1,0,0:0:0:0:
288,192,31067,1,0,0:0:0:0:
288,192,31781,1,0,0:0:0:0:
96,192,32138,1,0,0:0:0:0:
352,192,32138,1,0,0:0:0:0:
224,192,32495,1,0,0:0:0:0:
160,192,32853,1,0,0:0:0:0:
416,192,32853,1,0,0:0:0:0:
224,192,33210,1,0,0:0:0:0:
96,192,33567,1,0,0:0:0:0:
352,192,33567,1,0,0:0:0:0:
224,192,33924,1,0,0:0:0:0:
352,192,34281,1,0,0:0:0:0:
224,192,34638,1,0,0:0:0:0:
352,192,34995,1,0,0:0:0:0:
224,192,35353,1,0,0:0:0:0:
224,192,35710,1,0,0:0:0:0:
224,192,35888,1,0,0:0:0:0:
352,192,36067,1,0,0:0:0:0:
224,192,36424,1,0,0:0:0:0:
352,192,36781,1,0,0:0:0:0:
224,192,37138,1,0,0:0:0:0:
352,192,37495,1,0,0:0:0:0:
32,192,37853,1,0,0:0:0:0:
96,192,37853,1,0,0:0:0:0:
288,192,38209,1,0,0:0:0:0:
32,192,38565,1,0,0:0:0:0:
224,192,38565,1,0,0:0:0:0:
352,192,38922,1,0,0:0:0:0:
96,192,39278,1,0,0:0:0:0:
288,192,39367,1,0,0:0:0:0:
96,192,39813,1,0,0:0:0:0:
288,192,39902,1,0,0:0:0:0:
480,192,40349,1,0,0:0:0:0:
224,192,40438,1,0,0:0:0:0:
480,192,40884,1,0,0:0:0:0:
224,192,40973,1,0,0:0:0:0:
352,192,41420,1,0,0:0:0:0:
32,192,41420,1,0,0:0:0:0:
160,192,41777,1,0,0:0:0:0:
352,192,41777,1,0,0:0:0:0:
96,192,42134,1,0,0:0:0:0:
288,192,42223,1,0,0:0:0:0:
96,192,42669,1,0,0:0:0:0:
288,192,42759,1,0,0:0:0:0:
480,192,43205,1,0,0:0:0:0:
224,192,43294,1,0,0:0:0:0:
480,192,43740,1,0,0:0:0:0:
224,192,43830,1,0,0:0:0:0:
32,192,44276,1,0,0:0:0:0:
288,192,44276,1,0,0:0:0:0:
288,192,44633,1,0,0:0:0:0:
96,192,44633,1,0,0:0:0:0:
224,192,44990,1,0,0:0:0:0:
32,192,45704,1,0,0:0:0:0:
96,192,45704,1,0,0:0:0:0:
224,192,46418,1,0,0:0:0:0:
352,192,46597,1,0,0:0:0:0:
416,192,46954,1,0,0:0:0:0:
32,192,47132,1,0,0:0:0:0:
224,192,47132,1,0,0:0:0:0:
224,192,47847,1,0,0:0:0:0:
352,192,48204,1,0,0:0:0:0:
224,192,48382,1,0,0:0:0:0:
352,192,48918,1,0,0:0:0:0:
224,192,49097,1,0,0:0:0:0:
288,192,49632,1,0,0:0:0:0:
32,192,49632,1,0,0:0:0:0:
96,192,50704,1,0,0:0:0:0:
32,192,50704,1,0,0:0:0:0:
32,192,51062,1,0,0:0:0:0:
96,192,52138,1,0,0:0:0:0:
288,192,52495,1,0,0:0:0:0:
160,192,52852,1,0,0:0:0:0:
288,192,53209,1,0,0:0:0:0:
224,192,53566,1,0,0:0:0:0:
288,192,53923,1,0,0:0:0:0:
480,192,54280,1,0,0:0:0:0:
288,192,54638,1,0,0:0:0:0:
416,192,54995,1,0,0:0:0:0:
288,192,55352,1,0,0:0:0:0:
352,192,55709,1,0,0:0:0:0:
288,192,56066,1,0,0:0:0:0:
160,192,56423,1,0,0:0:0:0:
288,192,56780,1,0,0:0:0:0:
160,192,57138,1,0,0:0:0:0:
288,192,57495,1,0,0:0:0:0:
160,192,57852,1,0,0:0:0:0:
288,192,57852,1,0,0:0:0:0:
160,192,58388,1,0,0:0:0:0:
288,192,58388,1,0,0:0:0:0:
224,192,58923,1,0,0:0:0:0:
352,192,58923,1,0,0:0:0:0:
96,192,59280,1,0,0:0:0:0:
480,192,59638,1,0,0:0:0:0:
416,192,59727,1,0,0:0:0:0:
352,192,59816,1,0,0:0:0:0:
160,192,60173,1,0,0:0:0:0:
224,192,60263,1,0,0:0:0:0:
288,192,60352,1,0,0:0:0:0:
224,192,60709,1,0,0:0:0:0:
224,192,61066,1,0,0:0:0:0:
352,192,61423,1,0,0:0:0:0:
224,192,61602,1,0,0:0:0:0:
352,192,61780,1,0,0:0:0:0:
224,192,61959,1,0,0:0:0:0:
352,192,62138,1,0,0:0:0:0:
160,192,62138,1,0,0:0:0:0:
288,192,62495,1,0,0:0:0:0:
160,192,62852,1,0,0:0:0:0:
288,192,63209,1,0,0:0:0:0:
224,192,63566,1,0,0:0:0:0:
352,192,63923,1,0,0:0:0:0:
224,192,64280,1,0,0:0:0:0:
224,192,64459,1,0,0:0:0:0:
352,192,64637,1,0,0:0:0:0:
288,192,64995,1,0,0:0:0:0:
416,192,65352,1,0,0:0:0:0:
288,192,65709,1,0,0:0:0:0:
416,192,66066,1,0,0:0:0:0:
96,192,66423,1,0,0:0:0:0:
288,192,66780,1,0,0:0:0:0:
32,192,66780,1,0,0:0:0:0:
288,192,67138,1,0,0:0:0:0:
288,192,67405,1,0,0:0:0:0:
288,192,67673,1,0,0:0:0:0:
32,192,67852,1,0,0:0:0:0:
224,192,67852,1,0,0:0:0:0:
224,192,68209,1,0,0:0:0:0:
96,192,68566,1,0,0:0:0:0:
224,192,68923,1,0,0:0:0:0:
352,192,69280,1,0,0:0:0:0:
288,192,69637,1,0,0:0:0:0:
416,192,69995,1,0,0:0:0:0:
288,192,70351,1,0,0:0:0:0:
480,192,70709,1,0,0:0:0:0:
288,192,71065,1,0,0:0:0:0:
224,192,71423,1,0,0:0:0:0:
288,192,71780,1,0,0:0:0:0:
160,192,72138,1,0,0:0:0:0:
288,192,72494,1,0,0:0:0:0:
224,192,72852,1,0,0:0:0:0:
288,192,73208,1,0,0:0:0:0:
96,192,73566,1,0,0:0:0:0:
288,192,73923,1,0,0:0:0:0:
96,192,74280,1,0,0:0:0:0:
288,192,74637,1,0,0:0:0:0:
224,192,74995,1,0,0:0:0:0:
224,192,75352,1,0,0:0:0:0:
352,192,75531,1,0,0:0:0:0:
224,192,75709,1,0,0:0:0:0:
352,192,76066,1,0,0:0:0:0:
352,192,76424,1,0,0:0:0:0:
160,192,76424,1,0,0:0:0:0:
416,192,76780,1,0,0:0:0:0:
352,192,76870,1,0,0:0:0:0:
288,192,76959,1,0,0:0:0:0:
160,192,77495,1,0,0:0:0:0:
224,192,77584,1,0,0:0:0:0:
288,192,77673,1,0,0:0:0:0:
224,192,77852,1,0,0:0:0:0:
288,192,78209,1,0,0:0:0:0:
480,192,78566,1,0,0:0:0:0:
480,192,78745,1,0,0:0:0:0:
352,192,79280,1,0,0:0:0:0:
32,192,79280,1,0,0:0:0:0:
288,192,79816,1,0,0:0:0:0:
352,192,79905,1,0,0:0:0:0:
416,192,79995,1,0,0:0:0:0:
224,192,80709,1,0,0:0:0:0:
288,192,81245,1,0,0:0:0:0:
224,192,81334,1,0,0:0:0:0:
160,192,81423,1,0,0:0:0:0:
32,192,82137,1,0,0:0:0:0:
96,192,82137,1,0,0:0:0:0:
224,192,82495,1,0,0:0:0:0:
352,192,82852,1,0,0:0:0:0:
288,192,83120,1,0,0:0:0:0:
96,192,83209,1,0,0:0:0:0:
32,192,83298,1,0,0:0:0:0:
288,192,83387,1,0,0:0:0:0:
288,192,83923,1,0,0:0:0:0:
416,192,84280,1,0,0:0:0:0:
416,192,84637,1,0,0:0:0:0:
224,192,84995,1,0,0:0:0:0:
352,192,85372,1,0,0:0:0:0:
224,192,85561,1,0,0:0:0:0:
288,192,85980,1,0,0:0:0:0:
96,192,86295,1,0,0:0:0:0:
