osu file format v12

[General]
AudioFilename: starlog.mp3
AudioLeadIn: 1500
PreviewTime: 49958
Countdown: 0
SampleSet: Soft
StackLeniency: 0.7
Mode: 3
LetterboxInBreaks: 0
SpecialStyle: 1
WidescreenStoryboard: 1

[Editor]
Bookmarks: 3213,4291,10710,16424,23388,26067,27853,32138,32853,33656,37853,38565,39278,42134,45704,46418,47490,47847,48561,49275,50347,62138,66066,66423,66780,67852,79280,82137,83298,84995
DistanceSpacing: 1
BeatDivisor: 4
GridSize: 4

[Metadata]
Title:starlog (TV Size)
TitleUnicode:starlog (TV Size)
Artist:ChouCho
ArtistUnicode:ちょうちょ
Creator:[DNA]HMSDevonshire
Version:Another(CN)
Source:Fate/kaleid liner PRISMA☆ILLYA
Tags:
BeatmapID:364538
BeatmapSetID:147215

[Difficulty]
HPDrainRate:7
CircleSize:8
OverallDifficulty:7
ApproachRate:9
SliderMultiplier:1.6
SliderTickRate:1

[Events]
//Background and Video events
0,0,"yande.re 234336 sample.jpg",0,0
//Break Periods
//Storyboard Layer 0 (Background)
//Storyboard Layer 1 (Fail)
//Storyboard Layer 2 (Pass)
//Storyboard Layer 3 (Foreground)
//Storyboard Sound Samples
//Background Colour Transformations
3,100,163,162,255

[TimingPoints]
714,357.142857142857,4,2,1,40,1,0
4291,352.941176470588,4,2,1,80,1,0
4996,357.142857142857,4,2,1,80,1,0
37853,356.442857142857,4,2,1,60,1,0
39278,357.036596251116,4,2,1,70,1,0
44990,357.142857142857,4,2,1,70,1,0
50704,358.744394618834,4,2,1,80,1,1
52138,357.142857142857,4,2,1,80,1,1
84995,377.358490566038,4,2,1,60,1,0
85561,419.58041958042,4,2,1,60,1,0

[Colours]
Combo1 : 171,86,86
Combo2 : 255,0,255
Combo3 : 255,255,128

[HitObjects]
96,192,535,1,0,0:0:0:0:
224,192,624,1,0,0:0:0:0:
288,192,669,1,0,0:0:0:0:
416,192,1071,1,0,0:0:0:0:
288,192,1249,1,0,0:0:0:0:
160,192,1606,1,0,0:0:0:0:
96,192,2142,1,0,0:0:0:0:
352,192,2142,1,0,0:0:0:0:
96,192,2321,1,0,0:0:0:0:
352,192,2321,1,0,0:0:0:0:
352,192,2499,1,0,0:0:0:0:
224,192,2499,1,0,0:0:0:0:
160,192,2678,1,0,0:0:0:0:
352,192,3035,1,0,0:0:0:0:
32,192,3213,128,0,4106:0:0:0:0:
32,192,4285,1,0,0:0:0:0:
416,192,4285,1,0,0:0:0:0:
96,192,4291,1,0,0:0:0:0:
352,192,4467,1,0,0:0:0:0:
224,192,4555,1,0,0:0:0:0:
96,192,4643,1,0,0:0:0:0:
160,192,4732,1,0,0:0:0:0:
288,192,4820,1,0,0:0:0:0:
416,192,4908,1,0,0:0:0:0:
288,192,4996,1,0,0:0:0:0:
96,192,4996,1,0,0:0:0:0:
288,192,5174,1,0,0:0:0:0:
288,192,5353,1,0,0:0:0:0:
96,192,5353,1,0,0:0:0:0:
224,192,5353,1,0,0:0:0:0:
480,192,5531,1,0,0:0:0:0:
352,192,5531,1,0,0:0:0:0:
224,192,5531,1,0,0:0:0:0:
288,192,5710,1,0,0:0:0:0:
96,192,5710,1,0,0:0:0:0:
416,192,5888,1,0,0:0:0:0:
288,192,5888,1,0,0:0:0:0:
160,192,5888,1,0,0:0:0:0:
224,192,6067,1,0,0:0:0:0:
288,192,6246,128,0,7138:0:0:0:0:
416,192,6246,128,0,7138:0:0:0:0:
96,192,6424,1,0,0:0:0:0:
224,192,6781,1,0,0:0:0:0:
96,192,6781,1,0,0:0:0:0:
96,192,7138,1,0,0:0:0:0:
96,192,7317,1,0,0:0:0:0:
416,192,7406,1,0,0:0:0:0:
224,192,7495,1,0,0:0:0:0:
352,192,7495,1,0,0:0:0:0:
96,192,7495,1,0,0:0:0:0:
288,192,7585,1,0,0:0:0:0:
352,192,7674,1,0,0:0:0:0:
416,192,7763,1,0,0:0:0:0:
288,192,7853,1,0,0:0:0:0:
96,192,7853,1,0,0:0:0:0:
288,192,8031,1,0,0:0:0:0:
288,192,8210,1,0,0:0:0:0:
224,192,8210,1,0,0:0:0:0:
480,192,8388,1,0,0:0:0:0:
352,192,8388,1,0,0:0:0:0:
224,192,8388,1,0,0:0:0:0:
96,192,8567,1,0,0:0:0:0:
352,192,8745,1,0,0:0:0:0:
160,192,8745,1,0,0:0:0:0:
480,192,8745,1,0,0:0:0:0:
224,192,8924,1,0,0:0:0:0:
480,192,9103,1,0,0:0:0:0:
160,192,9103,1,0,0:0:0:0:
288,192,9103,128,0,9638:0:0:0:0:
96,192,9281,1,0,0:0:0:0:
224,192,9638,1,0,0:0:0:0:
480,192,9638,1,0,0:0:0:0:
224,192,9995,1,0,0:0:0:0:
416,192,9995,1,0,0:0:0:0:
288,192,10263,1,0,0:0:0:0:
96,192,10263,1,0,0:0:0:0:
416,192,10531,1,0,0:0:0:0:
224,192,10531,1,0,0:0:0:0:
96,192,10710,1,0,0:0:0:0:
480,192,10710,1,0,0:0:0:0:
288,192,10710,1,0,0:0:0:0:
32,192,10710,1,0,0:0:0:0:
224,192,11067,1,0,0:0:0:0:
416,192,11067,128,0,11424:0:0:0:0:
96,192,11067,1,0,0:0:0:0:
96,192,11424,1,0,0:0:0:0:
352,192,11424,128,0,11781:0:0:0:0:
224,192,11781,1,0,0:0:0:0:
288,192,11781,128,0,12138:0:0:0:0:
96,192,11781,1,0,0:0:0:0:
96,192,12138,1,0,0:0:0:0:
416,192,12138,128,0,12674:0:0:0:0:
224,192,12495,1,0,0:0:0:0:
96,192,12495,1,0,0:0:0:0:
352,192,12674,128,0,13210:0:0:0:0:
96,192,12853,1,0,0:0:0:0:
160,192,13031,1,0,0:0:0:0:
224,192,13210,1,0,0:0:0:0:
288,192,13210,128,0,13567:0:0:0:0:
96,192,13210,1,0,0:0:0:0:
160,192,13567,1,0,0:0:0:0:
96,192,13567,128,0,14103:0:0:0:0:
224,192,13924,1,0,0:0:0:0:
288,192,14103,128,0,14638:0:0:0:0:
160,192,14281,1,0,0:0:0:0:
224,192,14638,1,0,0:0:0:0:
96,192,14638,1,0,0:0:0:0:
416,192,14817,1,0,0:0:0:0:
352,192,14906,1,0,0:0:0:0:
96,192,14995,1,0,0:0:0:0:
416,192,14995,128,0,15531:0:0:0:0:
224,192,14995,1,0,0:0:0:0:
160,192,15353,1,0,0:0:0:0:
96,192,15531,1,0,0:0:0:0:
352,192,15531,128,0,15888:0:0:0:0:
224,192,15531,1,0,0:0:0:0:
288,192,15531,1,0,0:0:0:0:
224,192,15888,1,0,0:0:0:0:
160,192,15978,1,0,0:0:0:0:
224,192,16067,1,0,0:0:0:0:
32,192,16424,1,0,0:0:0:0:
288,192,16424,1,0,0:0:0:0:
96,192,16424,1,0,0:0:0:0:
96,192,16781,1,0,0:0:0:0:
96,192,17138,1,0,0:0:0:0:
96,192,17495,1,0,0:0:0:0:
96,192,17853,1,0,0:0:0:0:
224,192,17853,1,0,0:0:0:0:
96,192,18210,1,0,0:0:0:0:
96,192,18567,1,0,0:0:0:0:
96,192,18924,1,0,0:0:0:0:
96,192,19281,1,0,0:0:0:0:
352,192,19281,1,0,0:0:0:0:
96,192,19638,1,0,0:0:0:0:
96,192,19995,1,0,0:0:0:0:
96,192,20353,1,0,0:0:0:0:
96,192,20710,1,0,0:0:0:0:
480,192,20710,1,0,0:0:0:0:
288,192,20888,1,0,0:0:0:0:
96,192,21067,1,0,0:0:0:0:
416,192,21245,1,0,0:0:0:0:
96,192,21424,1,0,0:0:0:0:
352,192,21424,1,0,0:0:0:0:
160,192,21603,1,0,0:0:0:0:
96,192,21781,1,0,0:0:0:0:
160,192,21960,1,0,0:0:0:0:
96,192,22138,1,0,0:0:0:0:
224,192,22138,1,0,0:0:0:0:
96,192,22495,1,0,0:0:0:0:
96,192,22853,1,0,0:0:0:0:
96,192,23210,1,0,0:0:0:0:
32,192,23388,1,0,0:0:0:0:
96,192,23567,1,0,0:0:0:0:
416,192,23567,1,0,0:0:0:0:
96,192,23924,1,0,0:0:0:0:
352,192,24103,1,0,0:0:0:0:
96,192,24281,1,0,0:0:0:0:
96,192,24638,1,0,0:0:0:0:
96,192,24995,1,0,0:0:0:0:
224,192,24995,1,0,0:0:0:0:
96,192,25353,1,0,0:0:0:0:
352,192,25531,1,0,0:0:0:0:
96,192,25710,1,0,0:0:0:0:
96,192,26067,1,0,0:0:0:0:
32,192,26067,1,0,0:0:0:0:
416,192,26424,1,0,0:0:0:0:
480,192,26960,1,0,0:0:0:0:
416,192,27495,1,0,0:0:0:0:
96,192,27495,1,0,0:0:0:0:
224,192,27495,1,0,0:0:0:0:
96,192,27853,1,0,0:0:0:0:
32,192,27853,1,0,0:0:0:0:
288,192,28031,1,0,0:0:0:0:
224,192,28210,1,0,0:0:0:0:
288,192,28388,1,0,0:0:0:0:
96,192,28567,1,0,0:0:0:0:
288,192,28745,1,0,0:0:0:0:
224,192,28924,1,0,0:0:0:0:
288,192,29103,1,0,0:0:0:0:
96,192,29281,1,0,0:0:0:0:
352,192,29281,1,0,0:0:0:0:
288,192,29460,1,0,0:0:0:0:
224,192,29638,1,0,0:0:0:0:
288,192,29817,1,0,0:0:0:0:
96,192,29995,1,0,0:0:0:0:
288,192,30174,1,0,0:0:0:0:
224,192,30353,1,0,0:0:0:0:
288,192,30531,1,0,0:0:0:0:
96,192,30710,1,0,0:0:0:0:
416,192,30710,1,0,0:0:0:0:
288,192,30888,1,0,0:0:0:0:
224,192,31067,1,0,0:0:0:0:
288,192,31245,1,0,0:0:0:0:
96,192,31424,1,0,0:0:0:0:
288,192,31603,1,0,0:0:0:0:
224,192,31781,1,0,0:0:0:0:
288,192,31960,1,0,0:0:0:0:
96,192,32138,1,0,0:0:0:0:
480,192,32138,1,0,0:0:0:0:
32,192,32138,1,0,0:0:0:0:
288,192,32317,1,0,0:0:0:0:
224,192,32495,1,0,0:0:0:0:
288,192,32674,1,0,0:0:0:0:
96,192,32853,1,0,0:0:0:0:
416,192,32853,1,0,0:0:0:0:
32,192,32853,1,0,0:0:0:0:
288,192,33031,1,0,0:0:0:0:
224,192,33210,1,0,0:0:0:0:
288,192,33388,1,0,0:0:0:0:
96,192,33567,1,0,0:0:0:0:
352,192,33567,1,0,0:0:0:0:
32,192,33567,1,0,0:0:0:0:
288,192,33745,1,0,0:0:0:0:
224,192,33924,1,0,0:0:0:0:
288,192,34103,1,0,0:0:0:0:
96,192,34281,1,0,0:0:0:0:
288,192,34460,1,0,0:0:0:0:
224,192,34638,1,0,0:0:0:0:
288,192,34817,1,0,0:0:0:0:
96,192,34995,1,0,0:0:0:0:
352,192,34995,1,0,0:0:0:0:
288,192,35174,1,0,0:0:0:0:
224,192,35353,1,0,0:0:0:0:
288,192,35531,1,0,0:0:0:0:
96,192,35710,1,0,0:0:0:0:
288,192,35888,1,0,0:0:0:0:
224,192,36067,1,0,0:0:0:0:
288,192,36245,1,0,0:0:0:0:
96,192,36424,1,0,0:0:0:0:
352,192,36424,1,0,0:0:0:0:
288,192,36603,1,0,0:0:0:0:
224,192,36781,1,0,0:0:0:0:
480,192,36960,1,0,0:0:0:0:
288,192,36960,1,0,0:0:0:0:
96,192,37138,1,0,0:0:0:0:
288,192,37317,1,0,0:0:0:0:
224,192,37495,1,0,0:0:0:0:
288,192,37674,1,0,0:0:0:0:
96,192,37853,1,0,0:0:0:0:
352,192,37853,1,0,0:0:0:0:
32,192,37853,1,0,0:0:0:0:
224,192,38209,1,0,0:0:0:0:
32,192,38565,1,0,0:0:0:0:
288,192,38565,1,0,0:0:0:0:
96,192,38565,1,0,0:0:0:0:
224,192,38565,1,0,0:0:0:0:
96,192,38922,5,0,0:0:0:0:
224,192,38922,1,0,0:0:0:0:
288,192,39011,1,0,0:0:0:0:
416,192,39100,1,0,0:0:0:0:
288,192,39189,1,0,0:0:0:0:
96,192,39278,5,0,0:0:0:0:
160,192,39278,1,0,0:0:0:0:
352,192,39278,1,0,0:0:0:0:
480,192,39278,1,0,0:0:0:0:
32,192,39278,1,0,0:0:0:0:
96,192,39813,1,0,0:0:0:0:
160,192,39813,1,0,0:0:0:0:
352,192,39813,1,0,0:0:0:0:
480,192,39813,1,0,0:0:0:0:
96,192,40349,1,0,0:0:0:0:
224,192,40349,1,0,0:0:0:0:
288,192,40349,1,0,0:0:0:0:
416,192,40349,1,0,0:0:0:0:
288,192,40527,1,0,0:0:0:0:
160,192,40706,1,0,0:0:0:0:
96,192,40884,1,0,0:0:0:0:
224,192,40884,1,0,0:0:0:0:
352,192,40884,1,0,0:0:0:0:
480,192,40884,1,0,0:0:0:0:
160,192,41063,1,0,0:0:0:0:
288,192,41241,1,0,0:0:0:0:
224,192,41420,1,0,0:0:0:0:
352,192,41420,1,0,0:0:0:0:
480,192,41420,1,0,0:0:0:0:
96,192,41777,1,0,0:0:0:0:
224,192,41777,1,0,0:0:0:0:
416,192,41777,1,0,0:0:0:0:
224,192,42134,1,0,0:0:0:0:
352,192,42134,1,0,0:0:0:0:
480,192,42134,1,0,0:0:0:0:
32,192,42134,1,0,0:0:0:0:
288,192,42312,1,0,0:0:0:0:
288,192,42491,1,0,0:0:0:0:
224,192,42669,1,0,0:0:0:0:
96,192,42669,1,0,0:0:0:0:
352,192,42669,1,0,0:0:0:0:
288,192,42848,1,0,0:0:0:0:
288,192,43026,1,0,0:0:0:0:
224,192,43205,1,0,0:0:0:0:
352,192,43205,1,0,0:0:0:0:
480,192,43205,1,0,0:0:0:0:
416,192,43383,1,0,0:0:0:0:
416,192,43562,1,0,0:0:0:0:
352,192,43740,1,0,0:0:0:0:
224,192,43740,1,0,0:0:0:0:
480,192,43740,1,0,0:0:0:0:
416,192,43919,1,0,0:0:0:0:
160,192,43919,1,0,0:0:0:0:
416,192,44097,1,0,0:0:0:0:
160,192,44097,1,0,0:0:0:0:
224,192,44276,1,0,0:0:0:0:
96,192,44276,1,0,0:0:0:0:
352,192,44276,1,0,0:0:0:0:
96,192,44633,1,0,0:0:0:0:
224,192,44990,1,0,0:0:0:0:
160,192,45525,1,0,0:0:0:0:
352,192,45525,1,0,0:0:0:0:
288,192,45704,1,0,0:0:0:0:
32,192,45704,128,0,46240:0:0:0:0:
224,192,46418,1,0,0:0:0:0:
32,192,46418,1,0,0:0:0:0:
160,192,46597,1,0,0:0:0:0:
416,192,46597,1,0,0:0:0:0:
32,192,46775,1,0,0:0:0:0:
96,192,46954,1,0,0:0:0:0:
96,192,47132,1,0,0:0:0:0:
32,192,47132,1,0,0:0:0:0:
96,192,47847,1,0,0:0:0:0:
288,192,47847,1,0,0:0:0:0:
416,192,47847,1,0,0:0:0:0:
32,192,47847,1,0,0:0:0:0:
160,192,48204,1,0,0:0:0:0:
96,192,48382,1,0,0:0:0:0:
224,192,48382,1,0,0:0:0:0:
416,192,48382,1,0,0:0:0:0:
32,192,48561,1,0,0:0:0:0:
224,192,48918,1,0,0:0:0:0:
160,192,49097,1,0,0:0:0:0:
288,192,49097,1,0,0:0:0:0:
416,192,49097,1,0,0:0:0:0:
32,192,49275,1,0,0:0:0:0:
288,192,49632,1,0,0:0:0:0:
416,192,49632,1,0,0:0:0:0:
96,192,49990,1,0,0:0:0:0:
288,192,49990,1,0,0:0:0:0:
416,192,50347,5,0,0:0:0:0:
224,192,50347,5,0,0:0:0:0:
32,192,50347,1,0,0:0:0:0:
96,192,50704,128,0,51780:0:0:0:0:
224,192,50704,1,0,0:0:0:0:
352,192,50883,1,0,0:0:0:0:
288,192,51062,1,0,0:0:0:0:
480,192,51062,1,0,0:0:0:0:
416,192,51242,1,0,0:0:0:0:
224,192,51421,1,0,0:0:0:0:
288,192,51600,1,0,0:0:0:0:
480,192,51780,1,0,0:0:0:0:
224,192,51780,1,0,0:0:0:0:
352,192,51959,1,0,0:0:0:0:
288,192,52138,128,0,52852:0:0:0:0:
96,192,52138,1,0,0:0:0:0:
96,192,52316,1,0,0:0:0:0:
96,192,52495,1,0,0:0:0:0:
96,192,52673,1,0,0:0:0:0:
416,192,52852,128,0,53566:0:0:0:0:
224,192,52852,1,0,0:0:0:0:
224,192,53030,1,0,0:0:0:0:
224,192,53209,1,0,0:0:0:0:
224,192,53388,1,0,0:0:0:0:
352,192,53566,128,0,54280:0:0:0:0:
160,192,53566,1,0,0:0:0:0:
160,192,53745,1,0,0:0:0:0:
160,192,53923,1,0,0:0:0:0:
160,192,54102,1,0,0:0:0:0:
416,192,54280,128,0,54995:0:0:0:0:
224,192,54280,1,0,0:0:0:0:
224,192,54459,1,0,0:0:0:0:
224,192,54638,1,0,0:0:0:0:
224,192,54816,1,0,0:0:0:0:
224,192,54995,128,0,55709:0:0:0:0:
480,192,54995,1,0,0:0:0:0:
480,192,55173,1,0,0:0:0:0:
480,192,55352,1,0,0:0:0:0:
480,192,55530,1,0,0:0:0:0:
96,192,55709,128,0,56423:0:0:0:0:
352,192,55709,1,0,0:0:0:0:
352,192,55888,1,0,0:0:0:0:
352,192,56066,1,0,0:0:0:0:
352,192,56245,1,0,0:0:0:0:
352,192,56423,128,0,57495:0:0:0:0:
288,192,56423,1,0,0:0:0:0:
224,192,56602,1,0,0:0:0:0:
160,192,56780,1,0,0:0:0:0:
96,192,56959,1,0,0:0:0:0:
288,192,57138,1,0,0:0:0:0:
224,192,57316,1,0,0:0:0:0:
160,192,57495,1,0,0:0:0:0:
96,192,57673,1,0,0:0:0:0:
288,192,57852,128,0,58388:0:0:0:0:
160,192,57852,1,0,0:0:0:0:
224,192,58030,1,0,0:0:0:0:
480,192,58209,1,0,0:0:0:0:
352,192,58388,128,0,58923:0:0:0:0:
96,192,58388,1,0,0:0:0:0:
224,192,58566,1,0,0:0:0:0:
96,192,58745,1,0,0:0:0:0:
480,192,58923,128,0,59280:0:0:0:0:
224,192,58923,1,0,0:0:0:0:
416,192,59102,1,0,0:0:0:0:
160,192,59280,1,0,0:0:0:0:
288,192,59280,1,0,0:0:0:0:
352,192,59280,128,0,59816:0:0:0:0:
96,192,59638,1,0,0:0:0:0:
224,192,59638,1,0,0:0:0:0:
96,192,59816,128,0,60352:0:0:0:0:
224,192,59816,128,0,60352:0:0:0:0:
416,192,59995,128,0,60352:0:0:0:0:
352,192,60352,128,0,60530:0:0:0:0:
288,192,60530,128,0,60709:0:0:0:0:
96,192,60709,1,0,0:0:0:0:
480,192,60709,1,0,0:0:0:0:
224,192,61066,1,0,0:0:0:0:
352,192,61066,1,0,0:0:0:0:
224,192,61423,1,0,0:0:0:0:
352,192,61423,1,0,0:0:0:0:
352,192,61602,1,0,0:0:0:0:
96,192,61602,1,0,0:0:0:0:
224,192,61691,1,0,0:0:0:0:
352,192,61780,1,0,0:0:0:0:
224,192,61870,1,0,0:0:0:0:
352,192,61959,1,0,0:0:0:0:
224,192,62048,1,0,0:0:0:0:
96,192,62138,128,0,62495:0:0:0:0:
352,192,62138,1,0,0:0:0:0:
32,192,62138,1,0,0:0:0:0:
224,192,62495,1,0,0:0:0:0:
352,192,62495,1,0,0:0:0:0:
96,192,62673,128,0,63030:0:0:0:0:
160,192,63209,1,0,0:0:0:0:
352,192,63209,1,0,0:0:0:0:
480,192,63209,1,0,0:0:0:0:
224,192,63298,1,0,0:0:0:0:
288,192,63387,1,0,0:0:0:0:
224,192,63477,1,0,0:0:0:0:
160,192,63566,128,0,64102:0:0:0:0:
224,192,63923,1,0,0:0:0:0:
352,192,63923,1,0,0:0:0:0:
352,192,64102,128,0,64637:0:0:0:0:
96,192,64637,1,0,0:0:0:0:
224,192,64637,1,0,0:0:0:0:
224,192,64995,128,0,65709:0:0:0:0:
288,192,65352,1,0,0:0:0:0:
416,192,65352,1,0,0:0:0:0:
160,192,65709,128,0,66423:0:0:0:0:
288,192,66066,1,0,0:0:0:0:
416,192,66066,1,0,0:0:0:0:
32,192,66066,1,0,0:0:0:0:
32,192,66423,1,0,0:0:0:0:
96,192,66602,5,0,0:0:0:0:
96,192,66780,5,0,0:0:0:0:
224,192,66780,1,0,0:0:0:0:
32,192,66780,1,0,0:0:0:0:
160,192,67138,1,0,0:0:0:0:
416,192,67138,1,0,0:0:0:0:
288,192,67316,1,0,0:0:0:0:
96,192,67495,1,0,0:0:0:0:
480,192,67495,1,0,0:0:0:0:
288,192,67673,1,0,0:0:0:0:
32,192,67852,1,0,0:0:0:0:
416,192,67852,128,0,68923:0:0:0:0:
288,192,67852,128,0,68923:0:0:0:0:
96,192,67852,1,0,0:0:0:0:
160,192,68030,1,0,0:0:0:0:
224,192,68209,1,0,0:0:0:0:
160,192,68388,1,0,0:0:0:0:
96,192,68566,1,0,0:0:0:0:
160,192,68745,1,0,0:0:0:0:
224,192,68923,1,0,0:0:0:0:
160,192,69102,1,0,0:0:0:0:
288,192,69280,128,0,69995:0:0:0:0:
480,192,69280,128,0,69995:0:0:0:0:
96,192,69280,1,0,0:0:0:0:
96,192,69459,1,0,0:0:0:0:
416,192,69638,1,0,0:0:0:0:
224,192,69816,1,0,0:0:0:0:
160,192,69995,128,0,70709:0:0:0:0:
416,192,69995,128,0,70709:0:0:0:0:
96,192,70173,1,0,0:0:0:0:
288,192,70352,1,0,0:0:0:0:
288,192,70530,1,0,0:0:0:0:
288,192,70709,128,0,72138:0:0:0:0:
96,192,70709,128,0,72138:0:0:0:0:
160,192,70888,1,0,0:0:0:0:
416,192,71066,1,0,0:0:0:0:
160,192,71245,1,0,0:0:0:0:
480,192,71423,1,0,0:0:0:0:
224,192,71602,1,0,0:0:0:0:
480,192,71780,1,0,0:0:0:0:
224,192,71780,1,0,0:0:0:0:
416,192,71959,1,0,0:0:0:0:
160,192,72138,128,0,72852:0:0:0:0:
352,192,72138,128,0,72852:0:0:0:0:
224,192,72316,1,0,0:0:0:0:
288,192,72495,1,0,0:0:0:0:
224,192,72673,1,0,0:0:0:0:
96,192,72852,128,0,73566:0:0:0:0:
288,192,72852,128,0,73566:0:0:0:0:
160,192,73030,1,0,0:0:0:0:
352,192,73209,1,0,0:0:0:0:
416,192,73388,1,0,0:0:0:0:
352,192,73566,128,0,74995:0:0:0:0:
224,192,73566,128,0,74995:0:0:0:0:
288,192,73745,1,0,0:0:0:0:
96,192,73923,1,0,0:0:0:0:
480,192,73923,1,0,0:0:0:0:
416,192,74102,1,0,0:0:0:0:
160,192,74102,1,0,0:0:0:0:
288,192,74280,1,0,0:0:0:0:
416,192,74459,1,0,0:0:0:0:
160,192,74459,1,0,0:0:0:0:
96,192,74637,1,0,0:0:0:0:
480,192,74637,1,0,0:0:0:0:
288,192,74816,1,0,0:0:0:0:
480,192,74995,1,0,0:0:0:0:
96,192,74995,1,0,0:0:0:0:
288,192,75173,1,0,0:0:0:0:
96,192,75352,1,0,0:0:0:0:
224,192,75352,1,0,0:0:0:0:
160,192,75530,1,0,0:0:0:0:
416,192,75530,1,0,0:0:0:0:
96,192,75709,1,0,0:0:0:0:
352,192,75709,1,0,0:0:0:0:
288,192,75887,1,0,0:0:0:0:
224,192,76066,1,0,0:0:0:0:
96,192,76066,1,0,0:0:0:0:
352,192,76066,1,0,0:0:0:0:
416,192,76245,1,0,0:0:0:0:
352,192,76423,1,0,0:0:0:0:
96,192,76423,1,0,0:0:0:0:
288,192,76602,1,0,0:0:0:0:
352,192,76691,1,0,0:0:0:0:
416,192,76780,1,0,0:0:0:0:
352,192,76870,1,0,0:0:0:0:
288,192,76959,128,0,77495:0:0:0:0:
160,192,76959,128,0,77495:0:0:0:0:
224,192,77584,1,0,0:0:0:0:
352,192,77673,1,0,0:0:0:0:
416,192,77762,1,0,0:0:0:0:
480,192,77852,1,0,0:0:0:0:
96,192,77852,1,0,0:0:0:0:
160,192,78030,1,0,0:0:0:0:
352,192,78209,1,0,0:0:0:0:
224,192,78209,1,0,0:0:0:0:
288,192,78387,1,0,0:0:0:0:
96,192,78566,1,0,0:0:0:0:
96,192,78745,1,0,0:0:0:0:
224,192,78923,1,0,0:0:0:0:
288,192,79102,1,0,0:0:0:0:
352,192,79191,1,0,0:0:0:0:
288,192,79280,128,0,79816:0:0:0:0:
416,192,79280,1,0,0:0:0:0:
224,192,79905,1,0,0:0:0:0:
160,192,79995,1,0,0:0:0:0:
96,192,80084,1,0,0:0:0:0:
224,192,80173,128,0,80709:0:0:0:0:
96,192,80709,128,0,81066:0:0:0:0:
160,192,81155,1,0,0:0:0:0:
224,192,81245,1,0,0:0:0:0:
288,192,81334,1,0,0:0:0:0:
160,192,81423,128,0,81959:0:0:0:0:
352,192,81780,1,0,0:0:0:0:
416,192,81959,1,0,0:0:0:0:
416,192,82137,1,0,0:0:0:0:
32,192,82137,128,0,82852:0:0:0:0:
224,192,82316,1,0,0:0:0:0:
352,192,82495,1,0,0:0:0:0:
160,192,82673,1,0,0:0:0:0:
416,192,82852,1,0,0:0:0:0:
224,192,82941,1,0,0:0:0:0:
32,192,83030,1,0,0:0:0:0:
416,192,83030,1,0,0:0:0:0:
224,192,83120,1,0,0:0:0:0:
96,192,83209,1,0,0:0:0:0:
32,192,83298,128,0,84102:0:0:0:0:
288,192,83387,1,0,0:0:0:0:
480,192,83387,1,0,0:0:0:0:
224,192,83566,1,0,0:0:0:0:
288,192,83655,1,0,0:0:0:0:
352,192,83745,1,0,0:0:0:0:
288,192,83923,1,0,0:0:0:0:
96,192,83923,1,0,0:0:0:0:
416,192,83923,1,0,0:0:0:0:
32,192,84280,1,0,0:0:0:0:
224,192,84280,1,0,0:0:0:0:
224,192,84637,1,0,0:0:0:0:
288,192,84861,1,0,0:0:0:0:
352,192,84905,1,0,0:0:0:0:
416,192,84950,1,0,0:0:0:0:
96,192,84995,1,0,0:0:0:0:
480,192,84995,1,0,0:0:0:0:
224,192,84995,1,0,0:0:0:0:
32,192,84995,1,0,0:0:0:0:
416,192,85372,1,0,0:0:0:0:
288,192,85372,1,0,0:0:0:0:
224,192,85561,1,0,0:0:0:0:
352,192,85561,1,0,0:0:0:0:
480,192,85561,1,0,0:0:0:0:
96,192,85561,1,0,0:0:0:0:
288,192,85980,1,0,0:0:0:0:
160,192,85980,1,0,0:0:0:0:
96,192,86295,1,0,0:0:0:0:
224,192,86295,1,0,0:0:0:0:
288,192,86347,1,0,0:0:0:0:
352,192,86400,1,0,0:0:0:0:
