osu file format v12

[General]
AudioFilename: Fate_Kaleid Liner Prisma-Illya OP_OPENING HD.mp3
AudioLeadIn: 0
PreviewTime: 49990
Countdown: 0
SampleSet: Soft
StackLeniency: 0.7
Mode: 0
LetterboxInBreaks: 0
WidescreenStoryboard: 0

[Editor]
DistanceSpacing: 1
BeatDivisor: 4
GridSize: 4

[Metadata]
Title:starlog (TV Size)
TitleUnicode:starlog (TV Size)
Artist:ChouCho
ArtistUnicode:ちょうちょ
Creator:[ Yuki ]
Version:Normal
Source:Fate/kaleid liner PRISMA☆ILLYA
Tags:Opening プリズマ☆イリヤ Silver Link Prisma Illya Prismaillya HabiHolic [ Zzz ] Nardoxyribonucleic 17VA
BeatmapID:317935
BeatmapSetID:124689

[Difficulty]
HPDrainRate:4
CircleSize:3
OverallDifficulty:4
ApproachRate:5
SliderMultiplier:1.2
SliderTickRate:1

[Events]
//Background and Video events
0,0,"BG.jpg",0,0
Video,0,"Fate Kaleid.avi"
//Break Periods
//Storyboard Layer 0 (Background)
//Storyboard Layer 1 (Fail)
//Storyboard Layer 2 (Pass)
//Storyboard Layer 3 (Foreground)
//Storyboard Sound Samples
//Background Colour Transformations
3,100,163,162,255

[TimingPoints]
714,357.142857142857,4,2,1,25,1,0
714,-100,4,2,1,25,0,0
4291,352.941176470588,4,2,3,60,1,0
4996,357.142857142857,4,2,1,65,1,0
4996,-100,4,2,0,65,0,0
5174,-100,4,2,1,65,0,0
16424,-100,4,2,0,60,0,0
16603,-100,4,2,1,60,0,0
27853,-100,4,2,1,65,0,0
37853,356.442857142857,4,2,1,65,1,0
39278,357.036596251116,4,2,1,75,1,0
39278,-100,4,2,3,75,0,0
44990,357.142857142857,4,2,1,65,1,0
50704,358.744394618834,4,2,1,85,1,0
50704,-100,4,2,1,85,0,1
52138,357.142857142857,4,2,1,85,1,1
84995,377.358490566038,4,2,1,60,1,0
84995,-100,4,2,1,60,0,0
85561,419.58041958042,4,2,1,40,1,0
85561,-100,4,2,1,40,0,0
88917,-100,4,2,1,20,0,0

[Colours]
Combo1 : 171,86,86
Combo2 : 255,140,255
Combo3 : 255,255,128

[HitObjects]
384,80,714,5,2,0:0:0:0:
288,152,1071,2,0,L|228:152,1,60,0|2,0:0|0:0,0:0:0:0:
108,152,1606,1,2,0:0:0:0:
288,152,2142,6,0,L|330:194,1,60
388,212,2499,2,0,L|413:266,1,60,0|2,0:0|0:0,0:0:0:0:
308,324,3035,1,2,0:0:0:0:
140,260,3571,6,0,P|138:140|227:71,1,240,0|8,0:0|0:0,0:0:0:0:
348,52,4643,1,8,0:0:0:0:
428,140,4996,6,0,P|387:181|327:198,1,120,4|8,0:0|0:0,0:0:0:0:
269,192,5531,2,0,P|215:217|181:266,1,120,2|2,0:0|0:0,0:0:0:0:
73,318,6246,2,0,P|41:234|73:154,1,180,2|8,0:0|0:0,0:0:0:0:
136,52,7138,2,0,P|180:88|204:156,1,120,0|8,0:0|0:0,0:0:0:0:
120,232,7853,6,0,P|200:264|284:232,1,180,2|2,0:0|0:0,0:0:0:0:
360,140,8745,1,0,0:0:0:0:
316,28,9103,2,0,B|252:44|236:116|236:116|184:164,1,180,2|14,0:0|0:0,0:0:0:0:
152,264,9995,2,0,L|84:331,2,90,4|4|4,0:0|0:0|0:0,0:0:0:0:
212,256,10710,6,0,P|268:272|328:256,1,120,2|8,0:0|0:0,0:0:0:0:
392,156,11424,2,0,P|336:140|276:156,1,120,2|8,0:0|0:0,0:0:0:0:
212,256,12138,2,0,P|139:212|117:115,1,180,2|2,0:0|0:0,0:0:0:0:
296,100,13210,5,10,0:0:0:0:
333,213,13567,2,0,P|409:145|401:49,2,180,2|2|10,0:0|0:0|0:0,0:0:0:0:
296,100,14995,6,0,P|242:131|219:187,1,120,4|8,0:0|0:0,0:0:0:0:
240,238,15531,2,0,P|147:234|82:180,1,180,4|8,0:0|0:0,0:0:0:0:
104,64,16424,5,2,0:0:0:0:
200,136,16781,1,0,0:0:0:0:
304,76,17138,2,0,P|365:88|400:132,1,120
408,252,17853,2,0,P|346:239|311:196,1,120,2|0,0:0|0:0,0:0:0:0:
192,196,18567,2,0,L|117:305,2,120,0|0|2,0:0|0:0|0:0,0:0:0:0:
296,132,19638,6,0,P|253:90|195:74,1,120
137,64,20174,1,0,0:0:0:0:
144,183,20531,2,0,L|264:183,1,120,0|2,0:0|0:0,0:0:0:0:
296,132,21067,2,0,L|425:171,1,120,0|2,0:0|0:0,0:0:0:0:
324,248,21781,2,0,L|184:296,1,120,0|2,0:0|0:0,0:0:0:0:
91,300,22495,6,0,P|71:244|91:188,1,120
192,124,23210,2,0,L|234:81,1,60
336,144,23745,2,0,P|392:124|448:144,1,120
396,316,24638,5,0,0:0:0:0:
300,244,24995,2,0,P|241:254|203:300,1,120,2|0,0:0|0:0,0:0:0:0:
188,356,25531,2,0,L|97:200,1,180
218,194,26424,6,0,P|189:109|107:83,2,180,2|2|10,0:0|0:0|0:0,0:0:0:0:
276,300,27853,6,0,P|341:257|358:206,1,120,4|8,0:0|0:0,0:0:0:0:
299,114,28567,2,0,P|236:159|216:218,1,120,0|8,0:0|0:0,0:0:0:0:
187,246,29103,2,0,P|124:200|104:141,1,120
75,114,29638,1,8,0:0:0:0:
51,58,29817,2,0,P|11:122|3:234,1,180,0|8,0:0|0:0,0:0:0:0:
56,332,30710,5,0,0:0:0:0:
56,332,31067,2,0,P|144:348|232:332,2,180,8|0|0,0:0|0:0|0:0,0:0:0:0:
28,280,32317,1,0,0:0:0:0:
52,224,32495,2,0,B|52:104,1,120,8|0,0:0|0:0,0:0:0:0:
168,72,33210,1,8,0:0:0:0:
212,184,33567,6,0,P|268:152|284:100,1,120,0|8,0:0|0:0,0:0:0:0:
168,72,34281,2,0,P|112:104|96:156,1,120,0|8,0:0|0:0,0:0:0:0:
212,184,34995,2,0,P|268:216|284:268,1,120,0|8,0:0|0:0,0:0:0:0:
244,312,35531,2,0,P|297:354|408:345,1,180,0|8,0:0|0:0,0:0:0:0:
392,228,36424,6,0,L|423:173,2,60,0|0|8,0:0|0:0|0:0,0:0:0:0:
280,184,37138,1,0,0:0:0:0:
196,272,37495,1,8,0:0:0:0:
196,272,37674,2,0,P|139:291|84:270,1,120,0|0,0:0|0:0,0:0:0:0:
140,164,38387,2,0,P|140:103|160:44,1,120
204,8,38922,1,8,0:0:0:0:
264,112,39278,6,0,P|352:136|436:112,2,180,4|8|8,0:0|0:0|0:0,0:0:0:0:
86,81,40884,2,0,P|84:170|152:222,1,180,8|12,0:0|0:0,0:0:0:0:
208,116,41777,1,8,0:0:0:0:
208,116,42134,6,0,P|296:105|354:169,2,180,4|8|8,0:0|0:0|0:0,0:0:0:0:
118,272,43740,2,0,P|207:274|259:206,1,180,8|4,0:0|0:0,0:0:0:0:
152,152,44633,1,8,0:0:0:0:
152,152,44990,6,0,P|183:73|270:35,2,180,4|8|8,0:0|0:0|0:0,0:0:0:0:
169,209,46240,2,0,P|180:259|154:331,1,120
114,362,46775,2,0,L|234:362,1,120,8|4,0:0|0:0,0:0:0:0:
332,292,47490,5,8,0:0:0:0:
382,183,47847,2,0,P|307:112|207:100,1,180,4|12,0:0|0:0,0:0:0:0:
116,116,48740,2,0,L|120:192,1,60
128,236,49097,2,0,P|212:273|303:227,1,180,4|8,0:0|0:0,0:0:0:0:
408,256,49990,5,2,0:0:0:0:
460,148,50347,1,8,0:0:0:0:
372,68,50704,6,0,P|310:71|259:98,1,120,4|8,0:0|0:0,0:0:0:0:
160,164,51421,1,0,0:0:0:0:
216,272,51780,1,8,0:0:0:0:
320,208,52138,2,0,P|380:200|428:164,2,120,0|8|0,0:0|0:0|0:0,0:0:0:0:
336,92,53209,1,8,0:0:0:0:
220,60,53566,6,0,L|100:60,1,120,0|8,0:0|0:0,0:0:0:0:
18,148,54280,2,0,L|138:148,1,120,0|8,0:0|0:0,0:0:0:0:
217,238,54995,2,0,L|97:238,1,120,0|8,0:0|0:0,0:0:0:0:
17,328,55709,2,0,L|137:328,1,120,0|8,0:0|0:0,0:0:0:0:
256,348,56423,6,0,P|366:305|405:198,1,240
320,112,57495,1,8,0:0:0:0:
208,68,57852,6,0,P|124:84|32:68,2,180,0|0|8,0:0|0:0|0:0,0:0:0:0:
320,112,59280,2,0,L|321:249,1,120,0|8,0:0|0:0,0:0:0:0:
288,284,59816,2,0,P|216:248|120:284,1,180,0|8,0:0|0:0,0:0:0:0:
96,164,60709,2,0,P|59:88|12:73,2,120,0|8|0,0:0|0:0|0:0,0:0:0:0:
96,164,61602,1,8,0:0:0:0:
156,340,62138,6,0,P|199:296|214:239,1,120,4|8,0:0|0:0,0:0:0:0:
202,182,62673,2,0,P|240:110|336:68,2,180,0|8|0,0:0|0:0|0:0,0:0:0:0:
156,220,63923,2,0,L|156:340,1,120,8|0,0:0|0:0,0:0:0:0:
256,276,64637,5,8,0:0:0:0:
360,336,64995,2,0,P|416:317|455:273,1,120,0|8,0:0|0:0,0:0:0:0:
440,216,65530,2,0,P|396:144|440:44,1,180,0|8,0:0|0:0,0:0:0:0:
368,32,66245,1,2,0:0:0:0:
324,144,66602,2,0,L|272:196,1,60,0|4,0:0|0:0,0:0:0:0:
168,228,67138,2,0,P|126:208|67:222,2,90,10|2|10,0:0|0:0|0:0,0:0:0:0:
220,260,67852,6,0,P|276:281|347:242,1,120,4|8,0:0|0:0,0:0:0:0:
428,188,68566,1,0,0:0:0:0:
320,140,68923,1,8,0:0:0:0:
328,260,69280,6,0,P|324:316|280:364,1,120,0|8,0:0|0:0,0:0:0:0:
220,260,69995,2,0,P|173:228|153:166,1,120,0|8,0:0|0:0,0:0:0:0:
272,164,70709,2,0,P|322:139|386:153,1,120,0|8,0:0|0:0,0:0:0:0:
460,244,71423,2,0,P|409:268|345:254,1,120,0|8,0:0|0:0,0:0:0:0:
272,164,72138,6,0,P|183:72|78:90,1,240
152,188,73209,1,8,0:0:0:0:
252,252,73566,2,0,P|359:290|467:233,1,240
384,148,74637,1,8,0:0:0:0:
384,148,74995,6,0,P|397:81|490:27,2,180,0|0|8,0:0|0:0|0:0,0:0:0:0:
397,267,76423,2,0,B|354:276|325:254|325:254|266:275,1,120,0|8,0:0|0:0,0:0:0:0:
236,308,76959,2,0,P|149:335|65:294,1,180,0|8,0:0|0:0,0:0:0:0:
164,222,77852,6,0,P|152:162|104:118,1,120,0|8,0:0|0:0,0:0:0:0:
48,224,78566,2,0,P|20:207|-2:184,1,60,0|8,0:0|0:0,0:0:0:0:
106,42,79280,5,4,0:0:0:0:
168,144,79637,1,8,0:0:0:0:
168,144,79816,2,0,P|196:192|316:208,1,180,0|8,0:0|0:0,0:0:0:0:
368,192,80530,2,0,P|407:262|392:316,1,120
352,332,81066,2,0,P|300:353|234:329,1,120,8|0,0:0|0:0,0:0:0:0:
292,228,81780,6,0,L|292:105,1,120,8|0,0:0|0:0,0:0:0:0:
176,144,82495,1,8,0:0:0:0:
176,144,82673,2,0,P|99:192|51:268,2,180,0|8|0,0:0|0:0|0:0,0:0:0:0:
228,116,83923,1,8,0:0:0:0:
228,236,84280,5,2,0:0:0:0:
332,176,84637,2,0,L|396:176,1,60,8|2,0:0|0:0,0:0:0:0:
256,192,84995,12,0,88917,0:0:0:0:
