osu file format v12

[General]
AudioFilename: Fate_Kaleid Liner Prisma-Illya OP_OPENING HD.mp3
AudioLeadIn: 0
PreviewTime: 49990
Countdown: 0
SampleSet: Soft
StackLeniency: 0.7
Mode: 0
LetterboxInBreaks: 0
WidescreenStoryboard: 0

[Editor]
DistanceSpacing: 1.2
BeatDivisor: 4
GridSize: 4

[Metadata]
Title:starlog (TV Size)
TitleUnicode:starlog (TV Size)
Artist:ChouCho
ArtistUnicode:ちょうちょ
Creator:[ Yuki ]
Version:Insane
Source:Fate/kaleid liner PRISMA☆ILLYA
Tags:Opening プリズマ☆イリヤ Silver Link Prisma Illya Prismaillya HabiHolic [ Zzz ] Nardoxyribonucleic 17VA
BeatmapID:317717
BeatmapSetID:124689

[Difficulty]
HPDrainRate:7
CircleSize:4
OverallDifficulty:7
ApproachRate:8
SliderMultiplier:1.6
SliderTickRate:1

[Events]
//Background and Video events
0,0,"BG.jpg",0,0
Video,0,"Fate Kaleid.avi"
//Break Periods
//Storyboard Layer 0 (Background)
//Storyboard Layer 1 (Fail)
//Storyboard Layer 2 (Pass)
//Storyboard Layer 3 (Foreground)
//Storyboard Sound Samples
//Background Colour Transformations
3,100,163,162,255

[TimingPoints]
714,357.142857142857,4,2,1,25,1,0
714,-133.333333333333,4,2,1,25,0,0
4291,352.941176470588,4,2,3,60,1,0
4996,357.142857142857,4,2,1,65,1,0
4996,-100,4,2,1,65,0,0
9638,-100,4,1,0,65,0,0
9995,-100,4,2,1,65,0,0
10710,-100,4,1,0,65,0,0
11067,-100,4,2,1,65,0,0
16424,-100,4,2,0,60,0,0
16603,-100,4,2,1,60,0,0
27853,-100,4,2,1,65,0,0
37853,356.442857142857,4,2,1,65,1,0
39278,357.036596251116,4,2,1,75,1,0
39278,-100,4,2,3,75,0,0
44990,357.142857142857,4,2,1,65,1,0
50704,358.744394618834,4,2,1,85,1,0
50704,-100,4,2,1,85,0,1
52138,357.142857142857,4,2,1,85,1,1
84995,377.358490566038,4,2,1,60,1,0
84995,-100,4,2,1,60,0,0
85561,419.58041958042,4,2,1,40,1,0
85561,-100,4,2,1,40,0,0
88917,-100,4,2,1,5,0,0

[Colours]
Combo1 : 171,86,86
Combo2 : 255,140,255
Combo3 : 255,255,128

[HitObjects]
200,296,714,6,0,P|146:276|123:219,1,120.000004577637,4|0,0:0|0:0,0:0:0:0:
196,224,1249,1,2,0:0:0:0:
196,224,1606,1,0,0:0:0:0:
380,112,2142,6,0,L|435:80,2,60.0000022888184,2|0|0,0:0|0:0|0:0,0:0:0:0:
316,148,2678,1,2,0:0:0:0:
316,148,3035,1,0,0:0:0:0:
256,192,3213,12,8,4291,0:0:0:0:
373,250,4467,5,2,0:0:0:0:
387,226,4555,1,0,0:0:0:0:
390,199,4643,1,8,0:0:0:0:
381,172,4731,1,0,0:0:0:0:
361,153,4819,1,0,0:0:0:0:
335,144,4908,1,0,0:0:0:0:
308,148,4996,6,0,P|228:160|148:148,1,160,4|8,0:0|0:0,0:0:0:0:
84,80,5531,2,0,P|96:160|84:240,1,160
36,320,6067,2,0,P|74:334|116:336,1,80,8|0,0:0|0:0,0:0:0:0:
208,332,6424,5,2,0:0:0:0:
300,304,6603,1,0,0:0:0:0:
392,336,6781,1,8,0:0:0:0:
492,172,6960,1,2,0:0:0:0:
424,244,7138,1,0,0:0:0:0:
300,304,7317,5,2,0:0:0:0:
268,308,7406,1,0,0:0:0:0:
236,307,7495,1,8,0:0:0:0:
205,299,7584,1,0,0:0:0:0:
177,284,7674,1,0,0:0:0:0:
155,261,7763,1,0,0:0:0:0:
138,234,7853,6,0,P|105:165|137:88,1,160,4|8,2:0|0:0,0:0:0:0:
301,44,8388,2,0,P|272:116|200:144,1,160,0|0,2:0|0:0,0:0:0:0:
200,48,8924,1,8,0:0:0:0:
200,48,9103,2,0,L|313:161,1,160
384,224,9638,1,4,0:0:0:0:
88,264,9995,5,4,0:0:0:0:
197,192,10263,1,4,0:0:0:0:
92,144,10531,1,4,0:0:0:0:
196,308,10710,5,4,0:0:0:0:
312,160,11067,2,0,B|356:136|392:160|428:184|472:160,1,160,8|0,0:0|0:0,0:0:0:0:
436,72,11603,1,0,0:0:0:0:
348,240,11781,2,0,P|268:252|188:240,1,160,8|0,0:0|0:0,0:0:0:0:
83,106,12317,2,0,P|118:124|135:159,1,80,0|8,0:0|0:0,0:0:0:0:
32,180,12674,2,0,P|1:108|32:37,1,160,0|0,2:0|0:0,0:0:0:0:
112,92,13210,2,0,P|183:122|254:91,1,160,8|0,2:0|0:0,0:0:0:0:
184,28,13745,6,0,L|184:108,1,80,0|8,0:0|0:0,0:0:0:0:
152,200,14103,2,0,P|224:228|253:301,1,160,0|0,2:0|0:0,0:0:0:0:
156,296,14638,1,8,0:0:0:0:
296,176,14817,1,0,0:0:0:0:
296,176,14906,1,0,0:0:0:0:
296,176,14995,1,4,0:0:0:0:
376,252,15174,5,0,0:0:0:0:
312,68,15353,1,8,0:0:0:0:
152,200,15531,2,0,L|90:147,1,80,4|0,0:0|0:0,0:0:0:0:
136,56,15888,1,0,0:0:0:0:
136,56,15978,1,0,0:0:0:0:
136,56,16067,1,8,0:0:0:0:
136,56,16424,5,4,0:0:0:0:
261,196,16781,6,0,P|218:195|187:215,1,80
118,282,17138,2,0,P|189:313|260:282,1,160,0|0,2:0|0:0,0:0:0:0:
332,220,17674,2,0,P|342:181|345:141,1,80,0|2,0:0|0:0,0:0:0:0:
248,76,18031,2,0,P|251:116|261:154,1,80
332,220,18388,2,0,P|268:270|193:300,1,160
100,292,18924,5,0,0:0:0:0:
156,212,19103,1,0,0:0:0:0:
195,299,19281,2,0,P|273:310|352:298,1,160,2|0,0:0|0:0,0:0:0:0:
404,216,19817,2,0,P|412:138|475:92,1,160,0|0,2:0|0:0,0:0:0:0:
488,188,20353,1,0,0:0:0:0:
475,92,20531,6,0,P|445:61|409:53,1,80,0|2,0:0|0:0,0:0:0:0:
325,99,20888,1,0,0:0:0:0:
256,168,21067,1,0,0:0:0:0:
56,328,21424,5,2,0:0:0:0:
256,168,21781,1,0,0:0:0:0:
432,328,22138,1,2,0:0:0:0:
256,220,22495,5,0,0:0:0:0:
256,220,22674,1,0,0:0:0:0:
180,168,22853,2,0,P|209:137|245:130,1,80
332,176,23210,2,0,P|373:188|408:176,1,80
410,23,23567,2,0,P|380:49|372:88,1,80,2|0,0:0|0:0,0:0:0:0:
468,104,23924,1,0,0:0:0:0:
468,104,24103,2,0,P|499:175|468:246,1,160,0|0,2:0|0:0,0:0:0:0:
356,308,24638,5,0,0:0:0:0:
208,180,24817,1,0,0:0:0:0:
316,108,24995,2,0,P|347:179|316:250,1,160,2|0,2:0|0:0,0:0:0:0:
208,180,25531,2,0,L|368:180,1,160
368,180,26067,1,0,0:0:0:0:
452,44,26424,5,6,0:0:0:0:
440,64,26960,1,6,0:0:0:0:
428,84,27495,1,2,0:0:0:0:
220,160,27853,6,0,P|163:213|86:208,1,160,4|8,2:0|0:0,0:0:0:0:
132,124,28388,1,0,0:0:0:0:
220,84,28567,2,0,L|304:84,1,80
364,12,28924,1,8,0:0:0:0:
400,176,29103,1,2,0:0:0:0:
428,84,29281,5,0,0:0:0:0:
348,276,29460,2,0,P|358:317|385:341,1,80,0|8,0:0|0:0,0:0:0:0:
472,268,29817,2,0,P|502:238|510:202,1,80
400,176,30174,1,0,0:0:0:0:
348,276,30353,1,8,0:0:0:0:
240,308,30531,1,0,0:0:0:0:
128,288,30710,6,0,P|85:285|56:262,1,80,2|0,0:0|0:0,0:0:0:0:
24,172,31067,1,8,0:0:0:0:
144,124,31245,1,0,0:0:0:0:
256,192,31424,2,0,P|297:204|332:192,1,80
396,120,31781,1,8,0:0:0:0:
284,52,31960,1,0,0:0:0:0:
256,192,32138,6,0,L|256:352,1,160,2|8,0:0|0:0,0:0:0:0:
256,352,32674,1,0,0:0:0:0:
328,236,32853,2,0,P|257:267|186:236,1,160,2|8,2:0|0:0,0:0:0:0:
128,180,33388,1,0,0:0:0:0:
276,44,33567,1,2,0:0:0:0:
276,44,33924,6,0,P|313:64|329:97,1,80,8|0,0:0|0:0,0:0:0:0:
328,236,34281,2,0,P|290:215|274:182,1,80
224,100,34638,1,8,0:0:0:0:
140,52,34817,1,0,0:0:0:0:
164,192,34995,2,0,L|164:276,1,80,2|0,0:0|0:0,0:0:0:0:
252,176,35353,1,8,0:0:0:0:
320,104,35531,2,0,L|362:31,1,80
424,104,35888,5,0,0:0:0:0:
372,184,36067,1,8,0:0:0:0:
320,104,36245,2,0,L|240:104,1,80,0|2,0:0|0:0,0:0:0:0:
144,104,36603,1,0,0:0:0:0:
208,32,36781,2,0,P|239:103|208:174,1,160,8|0,2:0|0:0,0:0:0:0:
124,312,37317,1,0,0:0:0:0:
12,300,37495,1,8,0:0:0:0:
140,208,37674,1,0,0:0:0:0:
284,264,37853,6,0,P|244:276|204:264,1,80,4|0,0:0|0:0,0:0:0:0:
248,180,38209,1,8,0:0:0:0:
376,88,38387,1,0,0:0:0:0:
484,196,38565,2,0,L|405:209,1,80,4|0,0:0|0:0,0:0:0:0:
320,336,38922,2,0,P|280:324|240:336,1,80,8|0,0:0|0:0,0:0:0:0:
160,288,39278,6,0,L|103:231,1,80,12|0,0:0|0:0,0:0:0:0:
28,148,39635,1,0,0:0:0:0:
140,144,39813,2,0,L|209:103,1,80,8|0,0:0|0:0,0:0:0:0:
304,44,40170,1,0,0:0:0:0:
368,136,40349,2,0,L|368:216,1,80,8|0,0:0|0:0,0:0:0:0:
368,328,40706,1,0,0:0:0:0:
276,264,40884,2,0,L|219:207,1,80,8|0,0:0|0:0,0:0:0:0:
300,128,41241,1,0,0:0:0:0:
392,192,41420,2,0,P|361:263|392:334,1,160,12|8,2:0|0:0,0:0:0:0:
452,260,41955,1,0,0:0:0:0:
284,320,42134,6,0,L|208:347,1,80,8|0,0:0|0:0,0:0:0:0:
116,280,42491,1,0,0:0:0:0:
104,168,42669,2,0,L|179:195,1,80,8|0,0:0|0:0,0:0:0:0:
264,120,43026,1,0,0:0:0:0:
451,151,43205,2,0,L|376:124,1,80,8|0,0:0|0:0,0:0:0:0:
387,244,43562,1,0,0:0:0:0:
276,232,43740,2,0,P|213:279|165:343,1,160,8|0,0:0|0:0,0:0:0:0:
96,276,44276,2,0,P|59:256|42:222,1,80,12|0,0:0|0:0,0:0:0:0:
96,96,44633,2,0,P|108:136|96:172,1,80,8|0,0:0|0:0,0:0:0:0:
28,52,44990,6,0,P|96:16|164:52,1,160,4|0,2:0|0:0,0:0:0:0:
208,136,45525,1,0,0:0:0:0:
324,4,45704,2,0,L|267:60,1,80,8|0,0:0|0:0,0:0:0:0:
208,136,46061,1,0,0:0:0:0:
140,204,46240,2,0,L|140:284,1,80,0|2,0:0|0:0,0:0:0:0:
140,380,46597,1,8,0:0:0:0:
207,315,46775,2,0,P|139:280|72:315,1,160,0|0,2:0|0:0,0:0:0:0:
400,332,47490,5,0,0:0:0:0:
140,204,47668,1,0,0:0:0:0:
260,296,47847,6,0,P|332:267|360:195,1,160,4|0,2:0|0:0,0:0:0:0:
256,48,48382,2,0,P|225:118|256:190,1,160,4|0,2:0|0:0,3:0:0:0:
324,120,48918,1,0,0:0:0:0:
324,120,49097,2,0,L|164:120,1,160,4|0,0:0|0:0,0:0:0:0:
68,120,49632,1,4,0:0:0:0:
324,120,49990,5,2,0:0:0:0:
124,280,50347,1,8,0:0:0:0:
144,80,50704,6,0,P|192:145|257:193,1,160,4|8,0:0|0:0,0:0:0:0:
400,204,51242,1,0,0:0:0:0:
324,120,51421,1,2,0:0:0:0:
304,260,51600,2,0,P|283:297|250:313,1,80,0|8,0:0|0:0,0:0:0:0:
224,220,51959,1,0,0:0:0:0:
224,220,52049,1,0,0:0:0:0:
224,220,52138,6,0,P|193:150|224:78,1,160,2|8,2:0|0:0,3:0:0:0:
144,240,52673,1,2,0:0:0:0:
268,148,52852,1,0,0:0:0:0:
128,88,53030,1,0,0:0:0:0:
12,184,53209,1,8,0:0:0:0:
224,220,53388,1,0,0:0:0:0:
224,220,53477,1,0,0:0:0:0:
224,220,53566,6,0,P|302:231|381:219,1,160,2|8,0:0|0:0,0:0:0:0:
452,102,54102,1,0,0:0:0:0:
336,32,54280,1,2,0:0:0:0:
268,148,54459,1,0,0:0:0:0:
132,148,54638,1,8,0:0:0:0:
200,32,54816,1,0,0:0:0:0:
196,200,54995,6,0,P|204:276|267:322,1,160,2|8,2:0|0:0,3:0:0:0:
284,228,55530,1,0,0:0:0:0:
284,228,55709,2,0,L|145:308,1,160,2|8,0:0|0:0,0:0:0:0:
56,268,56245,1,0,0:0:0:0:
56,268,56334,1,0,0:0:0:0:
56,268,56423,6,0,P|67:190|55:111,1,160,4|8,0:0|0:0,0:0:0:0:
128,48,56959,1,0,0:0:0:0:
248,96,57138,1,2,0:0:0:0:
148,176,57316,1,0,0:0:0:0:
128,48,57495,1,8,0:0:0:0:
248,96,57673,1,0,0:0:0:0:
272,188,57852,6,0,P|226:249|149:259,1,160,10|8,2:0|0:0,3:0:0:0:
56,236,58388,2,0,P|101:174|178:165,1,160,2|0,2:0|0:0,3:0:0:0:
272,188,58923,2,0,L|352:188,1,80,8|0,0:0|0:0,0:0:0:0:
456,136,59280,6,0,L|399:79,1,80,2|0,0:0|0:0,0:0:0:0:
352,188,59638,1,8,0:0:0:0:
256,252,59816,2,0,L|199:308,1,80,2|0,0:0|0:0,0:0:0:0:
168,216,60173,1,0,0:0:0:0:
352,188,60352,1,0,0:0:0:0:
252,140,60530,1,8,0:0:0:0:
380,280,60709,6,0,L|436:336,1,80,2|0,0:0|0:0,0:0:0:0:
502,266,61066,2,0,L|446:210,1,80,8|0,0:0|0:0,0:0:0:0:
352,188,61423,1,2,0:0:0:0:
256,252,61602,5,0,0:0:0:0:
235,285,61691,1,0,0:0:0:0:
201,306,61780,1,8,0:0:0:0:
162,310,61869,1,8,0:0:0:0:
124,296,61959,1,8,0:0:0:0:
97,267,62048,1,0,0:0:0:0:
80,232,62138,6,0,P|68:156|116:94,1,160,4|8,0:0|0:0,0:0:0:0:
288,140,62673,2,0,P|228:188|150:177,1,160,2|0,0:0|0:0,0:0:0:0:
200,96,63209,1,8,0:0:0:0:
292,200,63387,2,0,L|361:240,1,80,0|2,0:0|0:0,0:0:0:0:
440,296,63745,1,0,0:0:0:0:
420,192,63923,2,0,P|357:238|349:315,1,160,8|2,2:0|0:0,3:0:0:0:
440,296,64459,1,0,0:0:0:0:
440,296,64637,5,8,0:0:0:0:
356,248,64816,1,0,0:0:0:0:
288,316,64995,2,0,P|247:306|218:276,1,80,2|0,0:0|0:0,0:0:0:0:
164,200,65352,1,8,0:0:0:0:
92,140,65530,2,0,P|163:108|234:140,1,160,2|0,2:0|0:0,3:0:0:0:
300,188,66066,1,8,0:0:0:0:
360,136,66245,1,0,0:0:0:0:
296,28,66423,2,0,L|296:108,1,80
300,188,66780,1,4,0:0:0:0:
260,344,67138,5,8,0:0:0:0:
360,188,67405,1,8,0:0:0:0:
456,344,67673,1,8,0:0:0:0:
360,188,67852,6,0,P|290:151|233:94,1,160,4|8,0:0|0:0,0:0:0:0:
188,180,68388,1,0,0:0:0:0:
112,104,68566,1,2,0:0:0:0:
84,232,68745,2,0,L|84:312,1,80,0|8,0:0|0:0,0:0:0:0:
172,276,69102,1,0,0:0:0:0:
172,276,69191,1,0,0:0:0:0:
172,276,69280,6,0,P|252:276|340:288,1,160,2|8,0:0|0:0,0:0:0:0:
464,252,69816,1,0,0:0:0:0:
416,336,69995,1,2,0:0:0:0:
340,208,70173,2,0,P|303:188|283:151,1,80,0|8,0:0|0:0,0:0:0:0:
284,16,70530,1,0,0:0:0:0:
284,16,70620,1,0,0:0:0:0:
284,16,70709,6,0,P|347:61|355:138,1,160,2|8,2:0|0:0,3:0:0:0:
424,36,71245,1,2,0:0:0:0:
284,100,71423,1,0,0:0:0:0:
408,188,71602,1,0,0:0:0:0:
284,100,71780,2,0,L|204:100,1,80,8|0,0:0|0:0,0:0:0:0:
137,29,72138,6,0,P|105:100|137:171,1,160,2|8,2:0|0:0,3:0:0:0:
136,268,72673,1,0,0:0:0:0:
236,272,72852,2,0,P|208:199|136:171,1,160,2|8,2:0|0:0,3:0:0:0:
136,268,73388,1,0,0:0:0:0:
136,268,73477,1,0,0:0:0:0:
136,268,73566,6,0,P|163:340|236:368,1,160,4|8,2:0|0:0,3:0:0:0:
420,316,74102,1,0,0:0:0:0:
324,328,74280,1,0,0:0:0:0:
480,240,74459,1,2,0:0:0:0:
324,328,74637,2,0,L|246:307,1,80,8|0,0:0|0:0,0:0:0:0:
136,268,74995,6,0,P|104:197|136:126,1,160,2|8,2:0|0:0,3:0:0:0:
280,96,75530,2,0,P|252:168|179:196,1,160,2|0,2:0|0:0,3:0:0:0:
136,64,76066,2,0,L|197:114,1,80,8|0,0:0|0:0,0:0:0:0:
88,152,76423,6,0,L|26:101,1,80,2|0,0:0|0:0,0:0:0:0:
32,208,76780,1,8,0:0:0:0:
32,208,76959,2,0,L|32:368,1,160,2|0,0:0|0:0,0:0:0:0:
112,312,77495,1,8,0:0:0:0:
188,368,77673,1,0,0:0:0:0:
264,308,77852,6,0,L|352:308,1,80,2|0,0:0|0:0,0:0:0:0:
440,308,78209,1,8,0:0:0:0:
368,146,78387,1,0,0:0:0:0:
368,146,78477,1,0,0:0:0:0:
368,146,78566,2,0,L|408:216,1,80,2|8,0:0|0:0,0:0:0:0:
312,224,78923,1,8,0:0:0:0:
224,264,79102,5,0,0:0:0:0:
224,264,79191,1,0,0:0:0:0:
224,264,79280,2,0,P|146:275|67:263,1,160,4|8,0:0|0:0,0:0:0:0:
108,352,79816,1,0,0:0:0:0:
224,264,79995,1,2,0:0:0:0:
96,200,80173,1,0,0:0:0:0:
224,264,80352,6,0,L|304:264,1,80,8|0,0:0|0:0,0:0:0:0:
372,196,80709,1,2,0:0:0:0:
436,280,80887,1,0,0:0:0:0:
304,340,81066,2,0,L|224:340,1,80,8|0,0:0|0:0,0:0:0:0:
152,276,81423,1,2,0:0:0:0:
96,200,81602,1,0,0:0:0:0:
148,120,81780,6,0,L|148:40,2,80,8|0|2,0:0|0:0|0:0,0:0:0:0:
352,276,82495,2,0,L|392:345,2,80,8|0|8,0:0|0:0|0:0,0:0:0:0:
304,192,83030,1,8,0:0:0:0:
304,192,83120,1,8,0:0:0:0:
304,192,83209,1,8,0:0:0:0:
272,284,83387,2,0,P|349:276|394:212,1,160,10|0,2:0|0:0,3:0:0:0:
304,192,83923,1,8,0:0:0:0:
256,40,84280,5,2,0:0:0:0:
40,192,84637,1,8,0:0:0:0:
40,192,84816,1,0,0:0:0:0:
132,192,84995,6,0,L|292:192,1,160,2|2,0:0|0:0,0:0:0:0:
379,192,85561,1,2,0:0:0:0:
214,291,85980,2,0,P|150:309|113:349,1,120
256,192,86400,12,0,88917,0:0:0:0:
