osu file format v12

[General]
AudioFilename: starlog~.mp3
AudioLeadIn: 1500
PreviewTime: 49615
Countdown: 0
SampleSet: Soft
StackLeniency: 0.7
Mode: 0
LetterboxInBreaks: 0
WidescreenStoryboard: 0

[Editor]
DistanceSpacing: 1
BeatDivisor: 4
GridSize: 4
TimelineZoom: 1

[Metadata]
Title:starlog (Short Ver.)
TitleUnicode:starlog (Short Ver.)
Artist:ChouCho
ArtistUnicode:ChouCho
Creator:Karia
Version:Normal
Source:Fate/kaleid liner PRISMA☆ILLYA
Tags:op opening Prismaillya Illyasviel von Einzbern Miyu Edelfelt Kadowaki Mai Nazuka Kaori プリズマ☆イリヤ
BeatmapID:337889
BeatmapSetID:134220

[Difficulty]
HPDrainRate:4
CircleSize:3
OverallDifficulty:4
ApproachRate:5
SliderMultiplier:1.2
SliderTickRate:1

[Events]
//Background and Video events
Video,0,"video.avi"
0,0,"BG.jpg",0,0
//Break Periods
//Storyboard Layer 0 (Background)
//Storyboard Layer 1 (Fail)
//Storyboard Layer 2 (Pass)
//Storyboard Layer 3 (Foreground)
//Storyboard Sound Samples
//Background Colour Transformations
3,100,0,0,0

[TimingPoints]
533,357.142857142857,4,2,1,40,1,0
4110,352.941176470588,4,2,1,60,1,0
4815,357.142857142857,4,2,1,60,1,0
9368,-100,4,2,1,40,0,0
9547,-100,4,2,1,60,0,0
12225,-100,4,2,3,60,0,0
12404,-100,4,2,1,60,0,0
13654,-100,4,2,3,60,0,0
13832,-100,4,2,1,60,0,0
14814,-100,4,2,1,45,0,0
14904,-100,4,2,1,60,0,0
15261,-100,4,2,1,45,0,0
15439,-100,4,2,1,60,0,0
15618,-100,4,2,3,60,0,0
15797,-100,4,2,1,60,0,0
16243,-100,4,2,1,50,0,0
23832,-100,4,2,1,35,0,0
24011,-100,4,2,1,50,0,0
25261,-100,4,2,1,40,0,0
25439,-100,4,2,1,50,0,0
27672,-100,4,2,1,65,0,0
28029,-100,4,2,1,65,0,0
37672,356.44270183568,4,2,1,70,1,0
39097,357.036596251116,4,2,2,75,1,0
44809,357.142857142857,4,2,2,80,1,0
46951,-100,4,2,1,80,0,0
47666,-100,4,2,2,70,0,0
47934,-100,4,2,3,70,0,0
48201,-100,4,2,2,75,0,0
48737,-100,4,2,1,75,0,0
48916,-100,4,2,2,80,0,0
49184,-100,4,2,3,80,0,0
49362,-100,4,2,1,80,0,0
49809,-100,4,2,1,65,0,0
50523,358.744394618834,4,2,1,85,1,1
50523,-100,4,2,1,85,0,1
51957,357.142857142857,4,2,1,85,1,1
52224,-100,4,2,3,85,0,1
52403,-100,4,2,1,85,0,1
55082,-100,4,2,3,85,0,1
55260,-100,4,2,1,85,0,1
57939,-100,4,2,3,85,0,1
58117,-100,4,2,1,85,0,1
61421,-100,4,2,1,60,0,1
61957,-100,4,2,1,85,0,1
66599,-100,4,2,1,85,0,0
66957,-100,4,2,1,70,0,1
67046,-100,4,2,1,70,0,0
67671,-100,4,2,1,85,0,1
69367,-100,4,2,3,85,0,1
69546,-100,4,2,1,85,0,1
72224,-100,4,2,3,85,0,1
72403,-100,4,2,1,85,0,1
75081,-100,4,2,3,85,0,1
75260,-100,4,2,1,85,0,1
83742,-100,4,2,1,85,0,0
84099,-100,4,2,1,50,0,0
84635,-100,4,2,1,40,0,0
84814,377.358490566038,4,2,1,40,1,0
85380,419.58041958042,4,2,1,40,1,0
86219,-100,4,2,1,35,0,0
86638,-100,4,2,1,30,0,0
87058,-100,4,2,1,25,0,0
87477,-100,4,2,1,20,0,0
87897,-100,4,2,1,15,0,0
88317,-100,4,2,1,10,0,0
88736,-100,4,2,0,5,0,0

[Colours]
Combo1 : 188,121,255
Combo2 : 255,206,157
Combo3 : 255,157,255
Combo4 : 83,169,255

[HitObjects]
456,140,533,6,0,P|400:136|340:108,1,120,2|0,0:0|0:0,0:0:0:0:
284,92,1068,2,0,P|224:97|170:122,1,120,2|2,0:0|0:0,0:0:0:0:
176,300,1961,6,0,P|236:295|290:270,1,120,2|0,0:0|0:0,0:0:0:0:
348,252,2497,2,0,P|404:256|464:284,1,120,2|2,0:0|0:0,0:0:0:0:
256,192,3032,12,8,4110,0:0:0:0:
176,120,4815,6,0,P|240:108|308:124,1,120,4|8,0:0|0:0,0:0:0:0:
352,132,5350,1,2,0:0:0:0:
368,252,5707,2,0,L|348:308,1,60,2|8,0:0|0:0,0:0:0:0:
316,360,6065,2,0,P|228:368|132:336,1,180,2|8,0:0|0:0,0:0:0:0:
48,264,6957,2,0,L|52:124,1,120,2|8,0:0|0:0,0:0:0:0:
100,36,7672,6,0,P|154:47|210:80,1,120,2|8,0:0|0:0,0:0:0:0:
236,132,8207,1,2,0:0:0:0:
212,248,8564,2,0,L|204:324,1,60,2|8,0:0|0:0,0:0:0:0:
236,360,8922,2,0,P|324:372|416:320,1,180,2|12,0:0|0:0,0:0:0:0:
420,216,9814,2,4,L|432:116,2,90,4|4|4,0:0|0:0|0:0,0:0:0:0:
368,244,10529,6,0,P|308:244|248:264,1,120,4|8,0:0|0:0,0:0:0:0:
156,336,11243,2,0,P|96:335|40:314,1,120,2|8,0:0|0:0,0:0:0:0:
16,196,11957,2,0,P|104:156|208:148,2,180,2|2|10,0:0|0:0|0:0,0:0:0:0:
32,316,13386,6,0,P|116:342|207:342,2,180,2|2|10,0:0|0:0|0:0,0:0:0:0:
4,200,14814,2,0,L|8:72,1,120,4|8,0:0|0:0,0:0:0:0:
48,36,15350,2,0,P|144:28|224:48,1,180,4|8,0:0|0:0,0:0:0:0:
336,92,16243,5,4,0:0:0:0:
336,92,16600,2,0,L|328:220,1,120
208,224,17314,2,0,L|216:96,1,120,0|2,0:0|0:0,0:0:0:0:
104,64,18029,1,0,0:0:0:0:
60,176,18386,2,0,P|56:240|76:304,1,120
192,304,19100,6,0,P|256:296|328:312,1,120,2|0,0:0|0:0,0:0:0:0:
368,320,19636,2,0,P|424:344|492:344,2,120
352,261,20529,2,0,P|344:197|352:141,1,120,2|0,0:0|0:0,0:0:0:0:
472,124,21243,2,0,P|480:188|472:244,2,120,2|0|2,0:0|0:0|0:0,0:0:0:0:
382,43,22314,6,0,P|324:28|237:39,1,120
148,64,23029,1,0,0:0:0:0:
105,175,23386,2,0,P|113:231|152:295,1,120,2|0,0:0|0:0,0:0:0:0:
188,326,23922,2,0,L|328:338,1,120,2|0,0:0|0:0,0:0:0:0:
360,308,24457,2,0,L|424:272,2,60,0|0|2,0:0|0:0|0:0,0:0:0:0:
300,204,25172,5,0,0:0:0:0:
300,204,25350,2,0,L|172:192,1,120,2|0,0:0|0:0,0:0:0:0:
136,152,25886,2,0,L|16:160,2,120,0|2|0,0:0|0:0|0:0,0:0:0:0:
180,112,26779,2,0,L|380:128,1,180,2|8,0:0|0:3,0:0:0:0:
328,244,27672,6,0,L|196:232,1,120,4|8,0:0|0:0,0:0:0:0:
220,352,28386,2,0,L|356:368,1,120,0|8,0:0|0:0,0:0:0:0:
396,348,28922,2,0,P|428:300|442:227,1,120
440,180,29457,1,8,0:0:0:0:
340,112,29814,2,0,P|282:118|218:153,1,120,0|8,0:0|0:0,0:0:0:0:
136,224,30529,6,0,L|132:356,2,120,2|8|0,0:0|0:0|0:0,0:0:0:0:
172,176,31422,2,0,L|240:180,1,60,0|8,0:0|0:0,0:0:0:0:
348,216,31957,5,2,0:0:0:0:
348,216,32314,1,8,0:0:0:0:
364,96,32672,1,2,0:0:0:0:
364,96,33029,1,8,0:0:0:0:
484,96,33386,5,2,0:0:0:0:
504,216,33743,1,8,0:0:0:0:
504,216,34100,2,0,P|484:271|444:315,1,120,0|8,0:0|0:0,0:0:0:0:
332,360,34814,2,0,P|273:371|215:358,1,120,2|8,0:0|0:0,0:0:0:0:
164,328,35350,2,0,P|111:252|127:157,1,180,0|8,0:0|0:0,0:0:0:0:
240,192,36243,6,0,P|297:176|346:140,1,120,2|8,0:0|0:0,0:0:0:0:
380,24,36957,1,2,0:0:0:0:
380,24,37314,1,8,0:0:0:0:
448,124,37672,6,0,P|452:188|428:248,1,120,4|8,0:0|0:0,0:0:0:0:
376,256,38206,2,0,P|292:236|200:296,1,180,4|8,0:0|0:0,0:0:0:0:
120,356,39097,6,8,P|49:292|38:202,2,180
296,328,40703,2,8,P|338:250|324:163,1,180,8|12,0:0|0:0,0:0:0:0:
216,116,41596,1,12,0:0:0:0:
105,162,41953,6,8,P|90:249|133:326,2,180
276,104,43559,2,8,P|346:167|357:257,1,180,8|12,0:0|0:0,0:0:0:0:
284,340,44452,1,4,0:0:0:0:
164,352,44809,6,0,P|104:360|36:348,1,120,4|0,0:0|0:0,0:0:0:0:
0,312,45344,1,8,0:0:0:0:
40,200,45701,2,0,P|44:132|36:76,2,120,0|8|0,0:0|0:0|0:0,0:0:0:0:
24,260,46594,1,8,0:0:0:0:
144,248,46951,2,0,L|276:236,1,120,8|8,0:0|0:0,0:0:0:0:
372,184,47666,6,0,P|328:112|224:124,2,180,12|12|8,0:0|0:0|0:0,0:0:0:0:
336,232,48916,2,0,L|156:248,1,180,12|4,0:0|0:0,0:0:0:0:
64,168,49809,1,0,0:0:0:0:
64,168,50166,1,8,0:3:0:0:
64,168,50523,6,0,P|128:160|196:128,1,120,4|8,0:0|0:0,0:0:0:0:
264,56,51240,2,0,P|323:59|380:78,1,120,0|8,0:0|0:0,0:0:0:0:
412,196,51957,2,0,P|336:284|216:240,1,240,0|0,0:0|0:0,0:0:0:0:
224,136,53028,1,8,0:0:0:0:
156,36,53385,6,0,P|97:26|38:38,1,120,0|8,0:0|0:0,0:0:0:0:
32,156,54099,2,0,P|90:165|149:153,1,120,0|8,0:0|0:0,0:0:0:0:
260,104,54814,2,0,P|364:151|343:275,1,240,0|0,0:0|0:0,0:0:0:0:
268,344,55885,1,8,0:0:0:0:
148,364,56242,6,0,L|20:340,1,120,0|8,0:0|0:0,0:0:0:0:
32,220,56957,2,0,L|160:244,1,120,0|8,0:0|0:0,0:0:0:0:
264,200,57671,2,0,P|300:120|264:24,2,180,0|0|8,0:0|0:0|0:0,0:0:0:0:
272,320,59099,6,0,P|329:349|393:360,1,120,0|8,0:0|0:0,0:0:0:0:
436,332,59635,2,0,L|444:144,1,180,0|8,0:0|0:0,0:0:0:0:
332,108,60528,2,0,L|324:227,1,120,0|8,0:0|0:0,0:0:0:0:
248,320,61242,2,0,L|180:344,1,60,10|0,0:0|0:0,0:0:0:0:
132,340,61599,2,8,L|64:316,1,60,10|8,0:0|0:0,0:0:0:0:
52,264,61957,6,0,P|44:200|64:132,1,120,4|8,0:0|0:0,0:0:0:0:
112,124,62492,2,0,P|208:132|296:84,1,180,0|8,0:0|0:0,0:0:0:0:
336,72,63206,2,0,P|395:73|449:98,1,120
476,152,63742,1,8,0:0:0:0:
450,269,64099,2,0,P|395:294|336:295,1,120,0|8,0:0|0:0,0:0:0:0:
228,248,64814,6,0,P|168:228|104:228,1,120,0|8,0:0|0:0,0:0:0:0:
52,228,65349,2,0,P|23:135|33:32,2,180,0|8|0,0:0|0:0|0:0,0:0:0:0:
76,284,66599,1,12,0:0:0:0:
164,364,66957,2,8,P|252:380|352:336,1,180,12|8,0:0|0:0,0:0:0:0:
380,308,67671,6,0,P|388:244|372:176,1,120,4|8,0:0|0:0,0:0:0:0:
272,132,68385,2,0,P|264:196|280:264,1,120,0|8,0:0|0:0,0:0:0:0:
380,308,69099,2,0,P|283:371|168:307,1,240,0|0,0:0|0:0,0:0:0:0:
136,212,70171,1,8,0:0:0:0:
212,120,70528,6,0,P|272:108|348:116,1,120,0|8,0:0|0:0,0:0:0:0:
348,232,71242,2,0,P|288:244|212:236,1,120,0|8,0:0|0:0,0:0:0:0:
136,168,71957,2,0,P|120:284|219:358,1,240
324,332,73028,1,8,0:0:0:0:
368,220,73385,6,0,L|364:96,1,120,0|8,0:0|0:0,0:0:0:0:
476,60,74099,2,0,L|480:184,1,120,0|8,0:0|0:0,0:0:0:0:
460,300,74814,2,0,P|380:340|288:312,2,180,0|0|8,0:0|0:0|0:0,0:0:0:0:
468,180,76242,6,0,P|426:136|362:112,1,120,0|8,0:0|0:0,0:0:0:0:
312,128,76778,2,0,P|224:136|132:88,1,180,0|8,0:0|0:0,0:0:0:0:
32,56,77671,2,0,P|8:107|3:185,1,120,0|8,0:0|0:0,0:0:0:0:
48,280,78385,2,8,L|112:304,1,60,10|0,0:0|0:0,0:0:0:0:
160,320,78742,2,8,L|216:341,1,60,10|8,0:0|0:0,0:0:0:0:
276,352,79099,6,0,P|314:304|328:232,1,120,4|8,0:0|0:0,0:0:0:0:
328,188,79635,2,0,P|402:141|487:163,2,180,0|8|0,0:0|0:0|0:0,0:0:0:0:
276,216,80885,1,8,0:0:0:0:
160,180,81242,2,0,P|104:156|61:100,1,120,0|8,0:0|0:0,0:0:0:0:
124,8,81956,6,0,P|180:32|222:87,1,120,0|8,0:0|0:0,0:0:0:0:
264,116,82492,2,0,P|360:140|440:100,1,180,0|8,0:0|0:0,0:0:0:0:
475,72,83206,1,4,0:0:0:0:
484,192,83564,2,0,L|496:272,1,60,0|8,0:0|0:0,0:0:0:0:
448,364,84099,6,0,P|388:376|308:360,1,120,0|4,0:0|0:3,0:0:0:0:
276,344,84635,1,2,0:0:0:0:
244,296,84814,6,0,L|236:176,1,120,2|2,0:0|0:0,0:0:0:0:
212,128,85380,2,0,P|152:120|84:136,1,120,2|2,0:0|0:0,0:0:0:0:
256,192,86219,12,0,88736,0:0:0:0:
