osu file format v12

[General]
AudioFilename: starlog~.mp3
AudioLeadIn: 1500
PreviewTime: 49615
Countdown: 0
SampleSet: Soft
StackLeniency: 0.7
Mode: 0
LetterboxInBreaks: 0
WidescreenStoryboard: 0

[Editor]
DistanceSpacing: 1
BeatDivisor: 4
GridSize: 4
TimelineZoom: 1

[Metadata]
Title:starlog (Short Ver.)
TitleUnicode:starlog (Short Ver.)
Artist:ChouCho
ArtistUnicode:ChouCho
Creator:Karia
Version:Easy
Source:Fate/kaleid liner PRISMA☆ILLYA
Tags:op opening Prismaillya Illyasviel von Einzbern Miyu Edelfelt Kadowaki Mai Nazuka Kaori プリズマ☆イリヤ
BeatmapID:338288
BeatmapSetID:134220

[Difficulty]
HPDrainRate:2
CircleSize:3
OverallDifficulty:2
ApproachRate:3
SliderMultiplier:1
SliderTickRate:1

[Events]
//Background and Video events
Video,0,"video.avi"
0,0,"BG.jpg",0,0
//Break Periods
//Storyboard Layer 0 (Background)
//Storyboard Layer 1 (Fail)
//Storyboard Layer 2 (Pass)
//Storyboard Layer 3 (Foreground)
//Storyboard Sound Samples
//Background Colour Transformations
3,100,0,0,0

[TimingPoints]
533,357.142857142857,4,2,1,40,1,0
3390,-100,4,2,1,20,0,0
3747,-100,4,2,1,30,0,0
3925,-100,4,2,1,40,0,0
4015,-100,4,2,1,50,0,0
4110,352.941176470588,4,2,1,60,1,0
4815,357.142857142857,4,2,1,60,1,0
5082,-100,4,2,3,60,0,0
5261,-100,4,2,1,60,0,0
7939,-100,4,2,3,60,0,0
8118,-100,4,2,1,60,0,0
9368,-100,4,2,1,40,0,0
9547,-100,4,2,1,60,0,0
12225,-100,4,2,3,60,0,0
12404,-100,4,2,1,60,0,0
13654,-100,4,2,3,60,0,0
13832,-100,4,2,1,60,0,0
14814,-100,4,2,1,45,0,0
14904,-100,4,2,1,60,0,0
15082,-100,4,2,3,60,0,0
15261,-100,4,2,1,45,0,0
15439,-100,4,2,1,60,0,0
16243,-100,4,2,0,50,0,0
16600,-100,4,2,1,50,0,0
23832,-100,4,2,1,35,0,0
24011,-100,4,2,1,50,0,0
25261,-100,4,2,1,40,0,0
25439,-100,4,2,1,50,0,0
27314,-100,4,2,1,50,0,0
27672,-100,4,2,1,65,0,0
28029,-100,4,2,1,65,0,0
29368,-100,4,2,3,65,0,0
30261,-100,4,2,1,65,0,0
35082,-100,4,2,3,65,0,0
35975,-100,4,2,1,65,0,0
37672,356.44270183568,4,2,1,70,1,0
37939,-100,4,2,3,70,0,0
38117,-100,4,2,1,70,0,0
39097,357.036596251116,4,2,2,75,1,0
44809,357.142857142857,4,2,2,80,1,0
46951,-100,4,2,1,80,0,0
47666,-100,4,2,2,70,0,0
48023,-100,4,2,3,70,0,0
48201,-100,4,2,2,75,0,0
48916,-100,4,2,2,80,0,0
49273,-100,4,2,3,80,0,0
49809,-100,4,2,1,65,0,0
50523,358.744394618834,4,2,1,85,1,1
50523,-100,4,2,1,85,0,1
51957,357.142857142857,4,2,0,85,1,1
51957,-100,4,2,1,85,0,1
52224,-100,4,2,3,85,0,1
53117,-100,4,2,1,85,0,1
55796,-100,4,2,3,85,0,1
55974,-100,4,2,1,85,0,1
57939,-100,4,2,3,85,0,1
58117,-100,4,2,1,85,0,1
59367,-100,4,2,3,85,0,1
59546,-100,4,2,1,85,0,1
61957,-100,4,2,1,85,0,1
62224,-100,4,2,3,85,0,1
62403,-100,4,2,1,85,0,1
65081,-100,4,2,3,85,0,1
65260,-100,4,2,1,85,0,1
66599,-100,4,2,1,85,0,0
66957,-100,4,2,1,70,0,1
67046,-100,4,2,1,70,0,0
67671,-100,4,2,1,85,0,1
69367,-100,4,2,3,85,0,1
69546,-100,4,2,1,85,0,1
71510,-100,4,2,3,85,0,1
71689,-100,4,2,1,85,0,1
72939,-100,4,2,3,85,0,1
73832,-100,4,2,1,85,0,1
75081,-100,4,2,3,85,0,1
75260,-100,4,2,1,85,0,1
76510,-100,4,2,3,85,0,1
76689,-100,4,2,1,85,0,1
79367,-100,4,2,3,85,0,1
79546,-100,4,2,1,85,0,1
82939,-100,4,2,3,85,0,1
83117,-100,4,2,1,85,0,1
83742,-100,4,2,1,85,0,0
84099,-100,4,2,1,50,0,0
84814,377.358490566038,4,2,1,40,1,0
85380,419.58041958042,4,2,1,40,1,0
86219,-100,4,2,1,35,0,0
86638,-100,4,2,1,30,0,0
87058,-100,4,2,1,25,0,0
87477,-100,4,2,1,20,0,0
87897,-100,4,2,1,15,0,0
88317,-100,4,2,1,10,0,0
88736,-100,4,2,0,5,0,0

[Colours]
Combo1 : 188,121,255
Combo2 : 255,206,157
Combo3 : 255,157,255
Combo4 : 83,169,255

[HitObjects]
168,296,533,6,0,P|260:360|396:328,1,250,2|2,0:0|0:0,0:0:0:0:
412,184,1961,2,0,P|320:120|184:152,1,250,2|2,0:0|0:0,0:0:0:0:
168,296,3390,2,0,B|104:332|40:288|40:288|32:252|44:216,1,200,2|8,0:0|0:0,0:0:0:0:
72,128,4462,1,8,0:0:0:0:
156,76,4815,6,0,P|232:48|316:64,2,150,4|2|8,0:0|0:0|0:0,0:0:0:0:
108,164,6243,2,0,P|125:210|168:248,1,100,2|8,0:0|0:0,0:0:0:0:
260,252,6957,2,0,P|306:234|344:192,1,100,2|8,0:0|0:0,0:0:0:0:
396,116,7672,6,0,P|430:184|436:262,2,150,2|2|8,0:0|0:0|0:0,0:0:0:0:
296,104,9100,2,0,P|249:121|212:164,1,100,2|12,0:0|0:0,0:0:0:0:
140,224,9814,2,8,B|122:168|122:168|123:129|123:129|105:71,2,150,12|12|8,0:0|0:0|0:0,0:0:0:0:
228,272,11243,2,0,P|277:275|326:266,1,100,2|8,0:0|0:0,0:0:0:0:
384,184,11957,6,0,P|430:241|448:314,2,150,2|2|8,0:0|0:0|0:0,0:0:0:0:
288,152,13386,2,0,P|215:152|137:194,2,150,2|2|8,0:0|0:0|0:0,0:0:0:0:
384,184,14814,2,0,P|449:152|502:82,2,150,4|4|8,0:0|0:0|0:0,0:0:0:0:
288,152,16243,5,4,0:0:0:0:
188,148,16600,2,0,P|159:239|240:307,1,200
312,252,17672,2,0,P|364:244|428:260,1,100,2|0,0:0|0:0,0:0:0:0:
408,352,18386,2,0,P|356:360|292:344,1,100,0|0,0:0|0:0,0:0:0:0:
222,302,19100,6,0,P|126:274|46:346,2,200,2|0|2,0:0|0:0|0:0,0:0:0:0:
309,351,20886,1,0,0:0:0:0:
392,295,21243,2,0,P|408:243|404:183,1,100,2|0,0:0|0:0,0:0:0:0:
372,104,21957,5,2,0:0:0:0:
280,64,22314,2,0,P|232:56|176:68,2,100
372,104,23386,2,0,P|452:112|516:84,2,150,2|2|0,0:0|0:0|0:0,0:0:0:0:
280,64,24814,6,0,P|226:125|209:194,2,150,2|2|0,0:0|0:0|0:0,0:0:0:0:
184,40,26243,2,0,P|146:101|127:187,2,150,2|2|8,0:0|0:0|0:3,0:0:0:0:
280,16,27672,6,0,P|331:32|391:33,1,100,4|8,0:0|0:0,0:0:0:0:
476,44,28386,2,0,P|468:95|448:144,1,100,0|8,0:0|0:0,0:0:0:0:
404,228,29100,2,0,P|432:328|536:340,2,200
368,136,30886,6,0,P|320:120|260:120,1,100,8|0,0:0|0:0,0:0:0:0:
172,136,31600,1,8,0:0:0:0:
148,232,31957,2,0,P|149:281|165:329,1,100,2|8,0:0|0:0,0:0:0:0:
264,324,32672,2,0,P|263:275|247:227,1,100,2|8,0:0|0:0,0:0:0:0:
216,132,33386,6,0,P|212:82|224:33,1,100,2|8,0:0|0:0,0:0:0:0:
324,36,34100,2,0,P|327:85|315:134,1,100,0|8,0:0|0:0,0:0:0:0:
372,216,34814,2,0,P|468:192|512:96,2,200,2|0|2,0:0|0:0|0:0,0:0:0:0:
272,208,36600,6,0,P|228:200|167:206,1,100,8|0,0:0|0:0,0:0:0:0:
80,244,37314,1,8,0:0:0:0:
124,336,37672,2,0,P|220:368|316:340,1,200,4|4,0:0|0:0,0:0:0:0:
364,256,38741,1,8,0:0:0:0:
300,180,39097,6,8,P|224:168|144:180,2,150
444,216,40703,2,8,P|479:149|470:58,1,150,8|12,0:0|0:0,0:0:0:0:
380,46,41596,1,12,0:0:0:0:
288,84,41953,6,8,P|213:93|140:81,2,150
432,44,43559,2,8,P|452:114|445:198,1,150,8|12,0:0|0:0,0:0:0:0:
388,272,44452,1,12,0:0:0:0:
296,308,44809,6,0,P|244:316|188:308,2,100,12|0|8,0:0|0:0|0:0,0:0:0:0:
388,272,45880,1,0,0:0:0:0:
444,188,46237,2,0,L|438:67,1,100,0|8,0:0|0:0,0:0:0:0:
340,76,46951,2,0,L|345:196,1,100,8|8,0:0|0:0,0:0:0:0:
247,201,47666,6,0,L|240:36,1,150,12|12,0:0|0:0,0:0:0:0:
437,38,48916,2,0,L|444:188,1,150,12|4,0:0|0:0,0:0:0:0:
395,276,49809,2,0,P|355:304|286:314,1,100,0|8,0:0|0:3,0:0:0:0:
206,315,50523,6,0,P|157:304|117:276,1,100,4|8,0:0|0:0,0:0:0:0:
88,180,51240,2,0,P|94:130|119:87,1,100,0|8,0:0|0:0,0:0:0:0:
204,32,51957,2,0,P|300:34|352:116,2,200
120,88,53742,5,8,0:0:0:0:
84,180,54099,2,0,P|73:230|86:289,1,100,0|8,0:0|0:0,0:0:0:0:
180,296,54814,2,0,P|207:252|215:192,1,100,0|8,0:0|0:0,0:0:0:0:
229,106,55528,2,0,P|321:78|409:134,1,200,0|0,0:0|0:0,0:0:0:0:
432,224,56599,5,8,0:0:0:0:
390,315,56957,2,0,P|338:323|291:315,1,100,0|8,0:0|0:0,0:0:0:0:
200,276,57671,2,0,P|128:264|48:288,2,150,0|0|8,0:0|0:0|0:0,0:0:0:0:
292,320,59099,6,0,P|364:332|444:308,2,150,0|0|8,0:0|0:0|0:0,0:0:0:0:
276,220,60528,2,0,P|280:168|264:104,1,100,0|8,0:0|0:0,0:0:0:0:
178,81,61242,2,0,P|174:133|190:197,1,100,0|8,0:0|0:0,0:0:0:0:
84,200,61957,6,0,P|72:128|80:48,2,150,4|0|8,0:0|0:0|0:0,0:0:0:0:
172,247,63385,2,0,P|220:263|261:297,1,100,0|8,0:0|0:0,0:0:0:0:
332,360,64099,2,0,P|380:366|438:350,1,100,0|8,0:0|0:0,0:0:0:0:
480,268,64814,6,0,P|476:172|367:137,1,200,0|0,0:0|0:0,0:0:0:0:
296,160,65885,1,8,0:0:0:0:
204,196,66242,2,0,P|156:204|96:188,1,100,0|12,0:0|0:0,0:0:0:0:
20,144,66957,2,8,P|39:51|136:24,1,200,12|4,0:0|0:0,0:0:0:0:
228,44,68028,5,8,0:0:0:0:
328,44,68385,2,0,P|381:41|433:21,1,100,0|8,0:0|0:0,0:0:0:0:
492,100,69099,2,0,P|400:136|288:132,1,200
232,64,70171,1,8,0:0:0:0:
188,152,70528,2,0,P|188:204|200:256,1,100,0|8,0:0|0:0,0:0:0:0:
116,304,71242,6,0,P|92:208|104:100,1,200,0|0,0:0|0:0,0:0:0:0:
192,68,72314,1,8,0:0:0:0:
288,92,72671,2,0,P|312:188|300:296,2,200
192,68,74456,1,8,0:0:0:0:
108,120,74814,6,0,P|36:116|-24:56,2,150,0|0|8,0:0|0:0|0:0,0:0:0:0:
192,68,76242,2,0,P|289:59|373:111,1,200
428,196,77314,1,8,0:0:0:0:
428,296,77671,2,0,P|413:345|380:388,2,100,0|8|0,0:0|0:0|0:0,0:0:0:0:
428,196,78742,1,8,0:0:0:0:
340,244,79099,6,0,P|242:222|184:135,1,200,4|0,0:0|0:0,0:0:0:0:
188,44,80171,1,8,0:0:0:0:
104,100,80528,2,0,P|98:151|116:208,1,100,0|8,0:0|0:0,0:0:0:0:
160,284,81242,2,0,P|197:316|243:336,1,100,0|8,0:0|0:0,0:0:0:0:
344,344,81956,5,0,0:0:0:0:
436,308,82314,1,8,0:0:0:0:
468,212,82671,2,0,P|461:128|414:62,2,150,0|4|8,0:0|0:0|0:0,0:0:0:0:
372,244,84099,2,0,L|272:240,1,100,0|4,0:0|0:3,0:0:0:0:
184,204,84814,6,0,P|184:130|218:64,1,150,2|2,0:0|0:0,0:0:0:0:
312,28,85799,1,2,0:0:0:0:
256,192,86219,12,0,88736,0:0:0:0:
