osu file format v14

[General]
AudioFilename: Song_starlog.mp3
AudioLeadIn: 1100
PreviewTime: 230132
Countdown: 0
SampleSet: Soft
StackLeniency: 0.7
Mode: 0
LetterboxInBreaks: 1
WidescreenStoryboard: 0

[Editor]
Bookmarks: 107993,205136,209958,213708,225136,247993,250672
DistanceSpacing: 1
BeatDivisor: 4
GridSize: 4
TimelineZoom: 2.4

[Metadata]
Title:starlog
TitleUnicode:starlog
Artist:ChouCho
ArtistUnicode:ChouCho
Creator:Karia
Version:Kocari's Normal
Source:Fate/kaleid liner PRISMA☆ILLYA
Tags:Full Version opening Prismaillya Illyasviel von Einzbern Miyu Edelfelt Kadowaki Mai Nazuka Kaori プリズマ☆イリヤ Kocari ちょうちょ
BeatmapID:569335
BeatmapSetID:244684

[Difficulty]
HPDrainRate:3
CircleSize:3
OverallDifficulty:4
ApproachRate:5
SliderMultiplier:1.2
SliderTickRate:1

[Events]
//Background and Video events
0,0,"BG.jpg",0,0
//Break Periods
2,165332,175361
2,213904,223932
//Storyboard Layer 0 (Background)
//Storyboard Layer 1 (Fail)
//Storyboard Layer 2 (Pass)
//Storyboard Layer 3 (Foreground)
//Storyboard Sound Samples

[TimingPoints]
847,357.142857142857,4,2,1,30,1,0
5132,-100,4,2,2,60,0,0
16561,-100,4,2,2,30,0,0
26561,-100,4,2,1,30,0,0
27989,-100,4,2,2,55,0,0
39418,-100,4,2,2,45,0,0
50846,-100,4,2,2,65,0,1
66918,-100,4,2,2,65,0,0
67275,-100,4,2,2,65,0,1
67364,-100,4,2,2,65,0,0
67989,-100,4,2,2,65,0,1
84061,-100,4,2,2,75,0,0
85132,-100,4,2,2,45,0,0
89954,-100,4,2,2,45,0,0
90846,-100,4,2,2,55,0,0
96918,-100,4,2,4,30,0,0
106561,-100,4,2,1,30,0,0
107989,-100,4,2,2,30,0,0
117632,-100,4,2,2,45,0,0
119418,-100,4,2,2,55,0,0
125132,-100,4,2,2,30,0,0
127989,-100,4,2,2,40,0,0
130846,-100,4,2,2,75,0,1
146918,-100,4,2,2,75,0,0
147275,-100,4,2,2,75,0,1
147364,-100,4,2,2,75,0,0
147989,-100,4,2,2,75,0,1
164061,-100,4,2,2,40,0,0
165132,-100,4,2,2,60,0,0
176561,-100,4,2,2,40,0,0
176561,-100,4,2,2,60,0,0
176918,-100,4,2,2,40,0,0
187989,-100,4,2,2,60,0,1
188079,-100,4,2,2,60,0,0
208257,-100,4,2,5,60,0,0
208436,-100,4,2,2,60,0,0
225132,-100,4,2,2,40,0,0
230846,-100,4,2,2,60,0,1
252632,-100,4,2,2,60,0,0
276829,-100,4,2,5,60,0,0
277007,-100,4,2,2,60,0,0
277989,370.37037037037,4,2,2,40,1,0
291692,-133.333333333333,4,2,1,15,0,0

[Colours]
Combo1 : 255,189,157
Combo2 : 255,255,176
Combo3 : 255,181,255
Combo4 : 185,255,255

[HitObjects]
68,128,847,6,0,P|140:124|208:100,1,120,2|0,0:0|0:0,0:0:0:0:
244,96,1382,2,0,P|332:112|376:136,1,120,0|0,0:0|0:0,0:0:0:0:
428,292,2275,2,0,P|368:272|288:272,1,120,2|0,0:0|0:0,0:0:0:0:
256,292,2811,2,0,P|200:308|112:316,1,120,0|0,0:0|0:0,0:0:0:0:
184,280,5132,6,0,P|236:296|320:288,1,120,4|8,0:0|0:0,0:0:0:0:
356,264,5668,2,0,P|372:212|364:128,1,120,2|0,0:0|0:0,0:0:0:0:
356,88,6204,1,8,0:0:0:0:
356,88,6382,2,0,P|276:52|176:68,1,180,0|8,0:0|0:0,0:0:0:0:
72,92,7275,2,0,B|96:148|96:148|64:228,1,120,2|8,0:0|0:0,0:0:0:0:
192,208,7989,6,0,B|170:262|170:262|194:318,1,120,6|8,0:0|0:0,0:0:0:0:
252,336,8525,2,0,P|312:344|380:332,1,120,2|0,0:0|0:0,0:0:0:0:
428,312,9061,2,0,P|440:276|440:244,1,60,8|0,0:0|0:0,0:0:0:0:
452,196,9418,2,0,P|511:182|523:182,2,60,2|0|8,0:0|0:0|0:0,0:0:0:0:
336,164,10132,2,0,P|335:212|353:253,2,90,8|8|8,0:0|0:0|0:0,0:0:0:0:
316,108,10846,6,0,P|260:88|192:116,1,120,4|8,0:0|0:0,0:0:0:0:
104,40,11561,1,2,0:0:0:0:
24,132,11918,2,0,P|4:196|36:256,1,120,8|2,0:0|0:0,0:0:0:0:
140,264,12632,2,0,P|172:269|204:264,1,60,8|0,0:0|0:0,0:0:0:0:
248,232,12989,2,0,P|296:216|384:240,1,120,2|8,0:0|0:0,0:0:0:0:
444,316,13704,6,0,P|476:252|472:184,1,120,2|8,0:0|0:0,0:0:0:0:
460,148,14239,1,0,0:0:0:0:
416,108,14418,2,0,P|360:124|276:108,1,120,2|8,0:0|0:0,0:0:0:0:
192,64,15132,2,0,P|128:52|60:72,1,120,6|8,0:0|0:0,0:0:0:0:
24,92,15668,1,6,0:0:0:0:
128,236,16204,1,8,0:0:0:0:
228,168,16561,6,0,P|272:180|348:172,2,120,2|0|0,0:0|0:0|0:0,0:0:0:0:
200,52,17632,1,0,0:0:0:0:
100,120,17989,1,2,0:0:0:0:
128,236,18346,1,2,0:0:0:0:
236,292,18704,2,0,P|293:277|352:288,1,120,2|2,0:0|0:0,0:0:0:0:
468,256,19418,6,0,P|488:204|488:136,2,120,0|0|0,0:0|0:0|0:0,0:0:0:0:
352,288,20489,1,0,0:0:0:0:
400,180,20846,1,2,0:0:0:0:
296,120,21204,1,0,0:0:0:0:
184,160,21561,2,0,P|176:112|208:32,1,120,2|2,0:0|0:0,0:0:0:0:
76,48,22275,6,0,P|96:103|89:162,1,120,2|2,0:0|0:0,0:0:0:0:
20,264,22989,1,2,0:0:0:0:
120,328,23346,2,0,P|176:340|240:336,1,120,2|2,0:0|0:0,0:0:0:0:
348,284,24061,1,2,0:0:0:0:
456,332,24418,2,0,P|463:273|448:212,1,120,2|2,0:0|0:0,0:0:0:0:
508,112,25132,6,0,P|452:96|376:120,1,120,2|2,0:0|0:0,0:0:0:0:
344,144,25668,2,0,P|286:157|228:141,1,120,0|0,0:0|0:0,0:0:0:0:
168,132,26204,1,2,0:0:0:0:
76,52,26561,2,0,P|144:24|248:44,1,180,2|2,0:0|0:0,0:0:0:0:
428,44,27632,1,8,0:3:0:0:
428,44,27989,6,0,P|452:80|452:168,1,120,6|8,0:0|0:0,0:0:0:0:
368,236,28704,1,2,0:0:0:0:
252,264,29061,2,0,L|172:268,1,60,8|0,0:0|0:0,0:0:0:0:
132,268,29418,2,0,P|112:228|104:140,1,120,2|8,0:0|0:0,0:0:0:0:
128,36,30132,1,2,0:0:0:0:
240,84,30489,2,0,L|316:92,1,60,8|0,0:0|0:0,0:0:0:0:
360,100,30846,5,2,0:0:0:0:
428,200,31204,1,8,0:0:0:0:
392,316,31561,2,0,P|348:304|268:312,1,120,2|8,0:0|0:0,0:0:0:0:
220,332,32096,1,0,0:0:0:0:
220,332,32275,2,0,P|160:339|102:325,1,120,2|8,0:0|0:0,0:0:0:0:
108,208,32989,2,0,P|167:200|225:214,1,120,2|8,0:0|0:0,0:0:0:0:
316,132,33704,6,0,B|327:161|327:161|308:224|308:224|311:246,1,120,2|8,0:0|0:0,0:0:0:0:
244,348,34418,1,2,0:0:0:0:
364,344,34775,1,8,0:0:0:0:
472,292,35132,2,0,P|489:247|492:164,1,120,2|8,0:0|0:0,0:0:0:0:
472,120,35668,2,0,P|415:100|355:98,1,120,2|2,0:0|0:0,0:0:0:0:
296,96,36204,1,8,0:0:0:0:
176,108,36561,6,0,L|176:192,1,60,2|0,0:0|0:0,0:0:0:0:
176,228,36918,1,8,0:0:0:0:
260,312,37275,1,2,0:0:0:0:
368,360,37632,1,8,0:0:0:0:
368,360,37811,6,0,L|372:168,1,180,6|8,0:0|0:0,0:0:0:0:
372,60,38704,1,6,0:0:0:0:
252,56,39061,1,8,0:0:0:0:
208,168,39418,6,0,P|120:204|32:161,2,180,12|8|8,0:0|0:0|0:0,0:0:0:0:
268,172,40668,2,8,P|284:236|268:288,1,120,2|8,0:0|0:0,0:0:0:0:
240,340,41204,1,2,0:0:0:0:
360,324,41561,1,8,0:0:0:0:
460,256,41918,2,8,P|472:220|476:172,1,60,8|0,0:0|0:0,0:0:0:0:
484,140,42275,6,0,P|480:76|452:16,1,120,8|0,0:0|0:0,0:0:0:0:
400,8,42811,2,0,P|336:12|276:40,1,120,8|0,0:0|0:0,0:0:0:0:
228,52,43346,2,0,P|195:59|160:56,1,60,8|2,0:0|0:0,0:0:0:0:
68,124,43882,2,0,L|68:252,1,120,8|2,0:0|0:0,0:0:0:0:
104,292,44418,2,0,P|156:316|228:280,1,120,8|8,0:0|0:0,0:0:0:0:
300,376,45132,6,0,L|300:184,1,180,4|2,0:0|0:0,0:0:0:0:
264,148,45846,2,0,P|216:136|120:148,1,120,8|0,0:0|0:0,0:0:0:0:
36,184,46561,2,0,L|24:264,2,60,2|8|0,0:0|0:0|0:0,0:0:0:0:
56,64,47275,1,8,0:0:0:0:
176,84,47632,2,0,L|244:88,1,60
296,88,47989,6,0,P|356:98|436:96,1,120,4|8,0:0|0:0,0:0:0:0:
476,104,48525,2,4,P|492:168|460:288,1,180,4|8,0:0|0:0,0:0:0:0:
428,324,49239,2,0,P|384:304|232:320,1,180,4|8,0:0|0:0,0:0:0:0:
136,328,50132,1,0,0:0:0:0:
184,216,50489,1,4,0:3:0:0:
64,200,50846,6,0,P|44:148|60:68,1,120,4|8,0:0|0:0,0:0:0:0:
100,48,51382,1,0,0:0:0:0:
100,48,51561,2,0,P|152:28|232:44,1,120,2|8,0:0|0:0,0:0:0:0:
308,108,52275,2,0,L|367:105,2,60,2|0|8,0:0|0:0|0:0,0:0:0:0:
188,128,52989,1,2,0:0:0:0:
100,48,53346,1,8,0:0:0:0:
64,164,53704,6,0,P|47:221|58:279,1,120,6|8,0:0|0:0,0:0:0:0:
116,296,54239,1,0,0:0:0:0:
116,296,54418,2,0,P|174:284|231:301,1,120,2|8,0:0|0:0,0:0:0:0:
344,340,55132,1,2,0:0:0:0:
448,276,55489,1,8,0:0:0:0:
424,160,55846,2,0,P|360:144|296:160,1,120,2|8,0:0|0:0,0:0:0:0:
248,168,56382,1,0,0:0:0:0:
248,168,56561,6,0,P|232:228|248:300,1,120,6|8,0:0|0:0,0:0:0:0:
148,208,57275,2,0,P|160:160|148:92,1,120,2|8,0:0|0:0,0:0:0:0:
260,48,57989,2,0,L|379:40,1,120,2|8,0:0|0:0,0:0:0:0:
436,64,58525,2,0,P|428:108|412:132,1,60,0|2,0:0|0:0,0:0:0:0:
308,156,59061,2,0,P|278:158|240:172,1,60,8|0,0:0|0:0,0:0:0:0:
188,164,59418,6,0,P|202:220|178:274,1,120,6|8,0:0|0:0,0:0:0:0:
164,332,59954,2,0,P|193:332|222:340,1,60,0|2,0:0|0:0,0:0:0:0:
344,328,60489,1,8,0:0:0:0:
440,256,60846,2,0,P|460:220|452:124,1,120,2|8,0:0|0:0,0:0:0:0:
408,36,61561,2,0,L|468:28,2,60,2|8|2,0:0|0:0|0:0,0:0:0:0:
368,84,62096,1,8,0:0:0:0:
368,84,62275,6,0,P|332:96|244:92,1,120,6|8,0:0|0:0,0:0:0:0:
256,212,62989,2,0,P|312:196|388:204,1,120,2|8,0:0|0:0,0:0:0:0:
432,216,63525,1,0,0:0:0:0:
432,216,63704,2,0,P|456:168|444:96,1,120,2|8,0:0|0:0,0:0:0:0:
360,20,64418,2,0,P|304:32|228:28,1,120,2|8,0:0|0:0,0:0:0:0:
184,24,64954,1,0,0:0:0:0:
184,24,65132,6,0,P|164:72|172:148,1,120,4|8,0:0|0:0,0:0:0:0:
192,192,65668,2,0,P|251:186|306:207,1,120,0|0,0:0|0:0,0:0:0:0:
356,172,66204,1,8,0:0:0:0:
356,172,66382,2,0,P|377:116|371:57,1,120,0|0,0:0|0:0,0:0:0:0:
340,4,66918,1,8,0:0:0:0:
264,96,67275,2,0,P|220:86|176:94,2,90,8|8|8,0:0|0:0|0:0,0:0:0:0:
312,132,67989,6,0,L|300:280,1,120,6|8,0:0|0:0,0:0:0:0:
200,320,68704,2,0,L|212:200,1,120,2|8,0:0|0:0,0:0:0:0:
220,140,69239,1,0,0:0:0:0:
232,80,69418,2,0,P|280:36|352:52,1,120,2|8,0:0|0:0,0:0:0:0:
384,68,69954,1,0,0:0:0:0:
384,68,70132,2,0,P|412:128|392:192,1,120,2|8,0:0|0:0,0:0:0:0:
416,296,70846,6,0,P|356:288|308:248,1,120,6|8,0:0|0:0,0:0:0:0:
228,164,71561,1,2,0:0:0:0:
136,240,71918,1,8,0:0:0:0:
76,136,72275,2,0,B|40:76|84:16,1,120,2|8,0:0|0:0,0:0:0:0:
184,84,72989,2,0,P|228:96|312:84,1,120,2|8,0:0|0:0,0:0:0:0:
340,44,73525,1,0,0:0:0:0:
340,44,73704,6,0,L|468:40,1,120,6|8,0:0|0:0,0:0:0:0:
480,160,74418,1,2,0:0:0:0:
432,268,74775,1,8,0:0:0:0:
336,336,75132,2,0,P|280:352|200:340,1,120,2|8,0:0|0:0,0:0:0:0:
164,320,75668,2,0,P|148:288|148:180,1,120,0|0,0:0|0:0,0:0:0:0:
144,144,76204,1,8,0:0:0:0:
88,36,76561,6,0,P|144:24|216:44,1,120,4|8,0:0|0:0,0:0:0:0:
260,60,77096,2,0,P|320:72|400:52,1,120
428,28,77632,1,8,0:0:0:0:
472,140,77989,2,0,P|488:200|476:268,1,120,2|8,0:0|0:0,0:0:0:0:
392,340,78704,2,0,P|421:341|451:339,2,60,2|8|2,0:0|0:0|0:0,0:0:0:0:
340,312,79239,1,8,0:0:0:0:
340,312,79418,6,0,P|324:260|332:196,1,120,4|8,0:0|0:0,0:0:0:0:
364,144,79954,2,0,P|380:96|360:16,1,120
308,20,80489,2,0,P|256:40|180:32,1,120,8|2,0:0|0:0,0:0:0:0:
72,48,81204,1,8,0:0:0:0:
144,144,81561,1,2,0:0:0:0:
60,228,81918,2,0,P|52:258|56:292,1,60,8|0,0:0|0:0,0:0:0:0:
96,328,82275,6,0,P|156:340|232:328,1,120,2|8,0:0|0:0,0:0:0:0:
256,292,82811,2,0,P|315:285|374:297,1,120,0|0,0:0|0:0,0:0:0:0:
432,312,83346,1,8,0:0:0:0:
432,312,83525,2,0,P|448:272|456:184,1,120,4|0,0:0|0:0,0:0:0:0:
456,136,84061,1,8,0:0:0:0:
356,72,84418,2,0,L|224:68,1,120,2|4,0:0|0:3,0:0:0:0:
228,188,85132,6,0,P|148:216|56:156,1,180,6|2,0:0|0:0,0:0:0:0:
156,92,86025,1,0,0:0:0:0:
156,92,86382,2,0,B|140:276,1,180,2|0,0:0|0:0,0:0:0:0:
156,328,87096,2,0,P|244:348|336:324,1,180,2|0,0:0|0:0,0:0:0:0:
440,276,87989,6,0,L|424:144,1,120,2|0,0:0|0:0,0:0:0:0:
404,100,88525,2,0,P|308:124|212:88,1,180,2|0,0:0|0:0,0:0:0:0:
176,80,89239,2,0,P|112:76|36:104,2,120,2|0|2,0:0|0:0|0:0,0:0:0:0:
32,344,90846,6,0,L|168:372,1,120,6|2,0:0|0:0,0:0:0:0:
244,292,91561,1,2,0:0:0:0:
244,292,91918,2,0,L|126:267,1,120,2|2,0:0|0:0,0:0:0:0:
116,148,92632,1,2,0:0:0:0:
20,220,92989,2,0,P|0:272|8:340,1,120,2|2,0:0|0:0,0:0:0:0:
124,328,93704,6,0,P|180:324|272:332,1,120,2|2,0:0|0:0,0:0:0:0:
304,336,94239,2,0,P|363:340|423:334,1,120,2|0,0:0|0:0,0:0:0:0:
464,292,94775,2,0,P|476:252|480:216,1,60,2|2,0:0|0:0,0:0:0:0:
392,148,95311,5,0,0:3:0:0:
476,60,95668,1,0,0:3:0:0:
368,4,96025,2,0,L|308:4,1,60,0|4,0:0|0:3,0:0:0:0:
192,44,96561,1,2,0:0:0:0:
132,148,96918,5,8,0:0:0:0:
132,148,97096,2,0,L|128:232,1,60,0|8,0:0|0:0,0:0:0:0:
72,316,97632,1,8,0:0:0:0:
0,248,97989,2,0,L|12:112,1,120,8|8,0:0|0:0,0:0:0:0:
40,76,98525,2,0,P|84:80|160:60,1,120,0|0,0:0|0:0,0:0:0:0:
208,28,99061,1,8,0:0:0:0:
304,100,99418,6,0,L|432:96,1,120,10|0,0:0|0:0,0:0:0:0:
484,96,99954,2,0,P|483:159|476:232,1,120,2|0,0:0|0:0,0:0:0:0:
472,276,100489,1,8,0:0:0:0:
356,304,100846,2,0,L|364:185,1,120,8|0,0:0|0:0,0:0:0:0:
252,232,101561,2,0,L|264:96,1,120,8|0,0:0|0:0,0:0:0:0:
332,12,102275,6,0,P|392:0|452:28,1,120,2|8,0:0|0:0,0:0:0:0:
488,64,102811,1,0,0:0:0:0:
488,64,102989,2,0,P|500:121|478:176,1,120,0|8,0:0|0:0,0:0:0:0:
360,200,103704,2,0,L|276:196,2,60,8|0|8,0:0|0:0|0:0,0:0:0:0:
464,256,104418,1,8,0:0:0:0:
380,344,104775,1,8,0:0:0:0:
380,344,105132,6,0,P|322:358|264:343,1,120,8|0,0:0|0:0,0:0:0:0:
240,288,105668,2,0,P|182:273|124:287,1,120,8|0,0:0|0:0,0:0:0:0:
80,328,106204,1,8,0:0:0:0:
44,212,106561,2,0,P|68:128|32:24,1,180,2|2,0:0|0:0,0:0:0:0:
224,36,107632,1,8,0:3:0:0:
296,132,107989,6,0,P|240:152|181:147,1,120,4|8,0:0|0:0,0:0:0:0:
92,64,108704,2,0,P|64:116|76:200,1,120,2|8,0:0|0:0,0:0:0:0:
4,280,109418,2,0,P|68:296|140:272,1,120,2|8,0:0|0:0,0:0:0:0:
172,256,109954,2,0,P|212:180|188:80,1,180,2|8,0:0|0:0,0:0:0:0:
312,116,110846,6,0,P|320:172|300:240,1,120,2|8,0:0|0:0,0:0:0:0:
316,292,111382,2,0,P|404:276|496:316,1,180,0|8,0:0|0:0,0:0:0:0:
504,192,112275,1,2,0:0:0:0:
464,80,112632,1,8,0:0:0:0:
356,28,112989,2,0,P|300:40|220:24,1,120,2|8,0:0|0:0,0:0:0:0:
180,24,113525,1,0,0:0:0:0:
120,20,113704,6,0,P|56:12|0:28,2,120,6|8|2,0:0|0:0|0:0,0:0:0:0:
200,108,114775,1,8,0:0:0:0:
264,208,115132,2,0,P|280:268|260:348,1,120,2|8,0:0|0:0,0:0:0:0:
324,352,115668,2,0,P|388:364|452:352,1,120,2|0,0:0|0:0,0:0:0:0:
492,320,116204,1,8,0:0:0:0:
500,200,116561,2,0,P|506:170|508:140,1,60,2|0,0:0|0:0,0:0:0:0:
488,84,116918,6,0,P|428:72|356:84,1,120,8|2,0:0|0:0,0:0:0:0:
252,52,117632,2,0,L|132:48,1,120,8|6,0:0|0:0,0:0:0:0:
16,84,118346,1,8,0:0:0:0:
68,192,118704,2,0,L|96:324,1,120,6|8,0:0|0:0,0:0:0:0:
212,328,119418,6,0,P|280:356|404:320,2,180,12|8|8,0:0|0:0|0:0,0:0:0:0:
160,296,120668,2,0,P|144:248|168:160,1,120,2|8,0:0|0:0,0:0:0:0:
176,124,121204,1,2,0:0:0:0:
284,72,121561,1,12,0:0:0:0:
340,180,121918,1,8,0:0:0:0:
288,288,122275,6,0,B|312:278|312:278|381:296|381:296|426:285,1,120,4|0,0:0|0:0,0:0:0:0:
456,260,122811,2,0,P|472:208|468:136,1,120,8|0,0:0|0:0,0:0:0:0:
436,92,123346,1,0,0:0:0:0:
436,92,123525,2,0,P|380:80|308:96,1,120,2|8,0:0|0:0,0:0:0:0:
140,68,124418,2,0,L|136:156,1,60,8|0,0:0|0:0,0:0:0:0:
132,188,124775,1,8,0:0:0:0:
40,264,125132,6,0,P|120:304|216:276,1,180,4|2,0:0|0:0,0:0:0:0:
252,248,125846,2,0,L|380:236,1,120,8|0,0:0|0:0,0:0:0:0:
428,132,126561,2,0,L|484:192,2,60,2|8|0,0:0|0:0|0:0,0:0:0:0:
348,44,127275,1,8,0:0:0:0:
228,64,127632,1,8,0:0:0:0:
228,64,127989,6,0,B|176:96|84:72,1,120,6|8,0:0|0:0,0:0:0:0:
56,56,128525,2,4,P|68:120|32:232,1,180,6|12,0:0|0:0,0:0:0:0:
24,288,129239,2,4,P|112:272|204:312,1,180,6|12,0:0|0:0,0:0:0:0:
304,352,130132,1,0,0:0:0:0:
408,296,130489,1,4,0:3:0:0:
476,196,130846,6,0,P|488:152|480:72,2,120,4|8|2,0:0|0:0|0:0,0:0:0:0:
444,244,131739,1,0,0:0:0:0:
444,244,131918,2,0,L|372:248,1,60,8|0,0:0|0:0,0:0:0:0:
324,240,132275,2,0,P|276:228|188:248,1,120,2|8,0:0|0:0,0:0:0:0:
100,292,132989,2,0,L|96:156,1,120,2|8,0:0|0:0,0:0:0:0:
124,120,133525,1,0,0:0:0:0:
124,120,133704,6,0,B|180:140|248:120,1,120,6|8,0:0|0:0,0:0:0:0:
360,96,134418,2,0,P|380:132|380:232,1,120,2|8,0:0|0:0,0:0:0:0:
372,328,135132,2,0,L|431:325,2,60,2|0|8,0:0|0:0|0:0,0:0:0:0:
252,328,135846,2,0,L|248:204,1,120,2|8,0:0|0:0,0:0:0:0:
244,148,136382,1,0,0:0:0:0:
244,148,136561,6,0,P|184:132|124:156,2,120,2|8|2,0:0|0:0|0:0,0:0:0:0:
324,60,137632,1,8,0:0:0:0:
420,132,137989,2,0,B|416:168|416:168|436:216|436:216|416:252,1,120,2|8,0:0|0:0,0:0:0:0:
388,296,138525,1,0,0:0:0:0:
388,296,138704,2,0,L|264:288,1,120,2|8,0:0|0:0,0:0:0:0:
292,172,139418,6,0,P|304:112|276:44,1,120,4|8,0:0|0:0,0:0:0:0:
228,40,139954,2,0,P|168:31|110:43,1,120
64,80,140489,1,8,0:0:0:0:
28,196,140846,2,0,L|100:196,1,60,2|0,0:0|0:0,0:0:0:0:
140,228,141204,2,0,P|196:216|264:244,1,120,8|2,0:0|0:0,0:0:0:0:
368,272,141918,1,8,0:0:0:0:
464,200,142275,6,0,P|474:138|468:76,1,120,4|8,0:0|0:0,0:0:0:0:
448,24,142811,2,0,L|388:24,1,60,0|2,0:0|0:0,0:0:0:0:
280,80,143346,2,0,P|274:139|285:198,1,120,8|2,0:0|0:0,0:0:0:0:
260,252,143882,2,0,L|188:248,1,60,0|8,0:0|0:0,0:0:0:0:
120,160,144418,1,2,0:0:0:0:
164,48,144775,1,8,0:0:0:0:
280,80,145132,6,0,P|332:88|404:80,1,120,2|8,0:0|0:0,0:0:0:0:
456,68,145668,2,0,B|480:124|480:124|460:192,1,120,0|0,0:0|0:0,0:0:0:0:
428,228,146204,1,8,0:0:0:0:
428,228,146382,2,0,L|308:228,1,120
248,228,146918,1,8,0:0:0:0:
144,292,147275,2,0,L|52:292,2,90,12|8|8,0:0|0:0|0:0,0:0:0:0:
192,328,147989,6,0,P|244:340|324:316,1,120,4|8,0:0|0:0,0:0:0:0:
396,244,148704,1,2,0:0:0:0:
368,128,149061,2,0,L|288:128,1,60,8|0,0:0|0:0,0:0:0:0:
252,104,149418,1,2,0:0:0:0:
132,92,149775,2,0,B|148:118|148:118|132:232,1,120,8|2,0:0|0:0,0:0:0:0:
56,296,150489,1,8,0:0:0:0:
172,328,150846,6,0,B|199:311|199:311|312:328,1,120,6|8,0:0|0:0,0:0:0:0:
404,300,151561,2,0,P|420:252|416:164,1,120,2|8,0:0|0:0,0:0:0:0:
364,168,152096,1,0,0:0:0:0:
364,168,152275,2,0,L|276:172,2,60,2|0|8,0:0|0:0|0:0,0:0:0:0:
468,108,152989,2,0,B|488:56|488:56|456:0,2,120,2|8|2,0:0|0:0|0:0,0:0:0:0:
364,168,154061,5,8,0:0:0:0:
316,280,154418,2,0,P|252:288|172:272,1,120,2|8,0:0|0:0,0:0:0:0:
104,208,155132,2,0,P|165:190|247:193,1,120,2|8,0:0|0:0,0:0:0:0:
280,176,155668,1,0,0:0:0:0:
280,176,155846,2,0,P|292:144|264:56,1,120,2|8,0:0|0:0,0:0:0:0:
152,88,156561,6,0,P|100:104|36:84,2,120,6|8|2,0:0|0:0|0:0,0:0:0:0:
248,28,157632,1,8,0:0:0:0:
364,56,157989,2,0,P|400:112|392:180,1,120,2|8,0:0|0:0,0:0:0:0:
388,224,158525,1,0,0:0:0:0:
388,224,158704,2,0,B|378:312|378:312|394:340,1,120,2|8,0:0|0:0,0:0:0:0:
272,340,159418,6,0,B|288:312|288:312|278:224,1,120,6|8,0:0|0:0,0:0:0:0:
260,168,159954,1,0,0:0:0:0:
260,168,160132,2,0,B|172:178|172:178|144:162,1,120,2|8,0:0|0:0,0:0:0:0:
88,148,160668,2,0,P|72:176|80:272,1,120
100,316,161204,2,0,P|160:308|236:328,1,120,8|2,0:0|0:0,0:0:0:0:
332,288,161918,1,8,0:0:0:0:
432,352,162275,6,0,P|448:300|420:216,1,120,2|8,0:0|0:0,0:0:0:0:
400,188,162811,2,0,P|376:140|388:64,1,120
352,24,163346,2,0,L|272:24,1,60,8|4,0:0|0:0,0:0:0:0:
184,76,163882,1,2,0:0:0:0:
184,76,164061,2,0,P|196:128|192:200,1,120,8|0,0:0|0:0,0:0:0:0:
100,268,164775,1,4,0:3:0:0:
12,188,165132,1,4,0:0:0:0:
148,164,176561,6,0,L|140:296,1,120,6|8,0:0|0:0,0:0:0:0:
20,276,177275,2,0,L|28:144,1,120,2|8,0:0|0:0,0:0:0:0:
148,164,177989,2,0,P|204:176|292:156,1,120,2|8,0:0|0:0,0:0:0:0:
348,80,178704,2,0,P|376:120|376:208,1,120,2|8,0:0|0:0,0:0:0:0:
420,304,179418,6,0,P|388:288|292:288,1,120,6|8,0:0|0:0,0:0:0:0:
252,312,179954,2,0,P|208:324|120:328,1,120,6|2,0:0|0:0,0:0:0:0:
84,300,180489,1,8,0:0:0:0:
52,252,180668,2,0,P|36:216|48:128,1,120,6|2,0:0|0:0,0:0:0:0:
68,80,181204,1,8,0:0:0:0:
172,144,181561,1,8,0:0:0:0:
228,36,181918,1,8,0:0:0:0:
304,128,182275,6,0,L|424:128,2,120,6|8|2,0:0|0:0|0:0,0:0:0:0:
236,228,183346,1,8,0:0:0:0:
236,228,183525,2,0,L|368:228,1,120,4|2,0:0|0:0,0:0:0:0:
412,204,184061,2,0,P|408:268|432:324,2,120,8|2|8,0:0|0:0|0:0,0:0:0:0:
332,116,185132,6,0,P|348:56|336:-4,2,120,6|8|2,0:0|0:0|0:0,0:0:0:0:
232,48,186204,1,2,0:0:0:0:
232,48,186382,2,0,P|172:36|104:56,2,120,8|0|8,0:0|0:0|0:0,0:0:0:0:
96,316,187989,6,0,L|232:332,1,120,6|8,0:0|0:0,0:0:0:0:
328,292,188704,1,2,0:0:0:0:
428,224,189061,2,0,P|448:284|432:352,2,120,8|2|8,0:0|0:0|0:0,0:0:0:0:
328,156,190132,1,2,0:0:0:0:
228,224,190489,1,8,0:0:0:0:
128,292,190846,6,0,P|108:244|132:156,1,120,2|8,0:0|0:0,0:0:0:0:
164,68,191561,2,0,P|224:56|288:68,1,120,2|8,0:0|0:0,0:0:0:0:
384,124,192275,1,2,0:0:0:0:
280,184,192632,2,0,P|221:195|162:186,2,120,8|2|8,0:0|0:0|0:0,0:0:0:0:
388,240,193704,6,0,L|380:368,1,120,2|8,0:0|0:0,0:0:0:0:
484,296,194418,2,0,L|488:176,1,120,2|8,0:0|0:0,0:0:0:0:
468,120,194954,2,0,P|411:138|351:138,2,120,2|8|0,0:0|0:0|0:0,0:0:0:0:
496,68,195846,1,2,0:0:0:0:
396,4,196204,1,8,0:0:0:0:
292,68,196561,6,0,B|244:120|272:184,1,120,2|8,0:0|0:0,0:0:0:0:
152,184,197275,2,0,B|177:125|129:73,2,120,2|8|2,0:0|0:0|0:0,0:0:0:0:
264,224,198346,1,8,0:0:0:0:
264,224,198525,2,0,P|352:204|456:232,1,180,6|8,0:0|0:0,0:0:0:0:
408,108,199418,6,0,P|352:124|272:104,1,120,6|8,0:0|0:0,0:0:0:0:
244,80,199954,1,0,0:0:0:0:
188,60,200132,2,0,P|144:52|56:64,2,120,2|8|2,0:0|0:0|0:0,0:0:0:0:
280,140,201204,1,8,0:0:0:0:
192,220,201561,2,0,P|132:228|73:219,1,120,2|8,0:0|0:0,0:0:0:0:
68,340,202275,6,0,P|127:331|186:340,2,120,2|8|2,0:0|0:0|0:0,0:0:0:0:
8,236,203346,2,0,P|-4:177|6:118,1,120,8|2,0:0|0:0,0:0:0:0:
100,44,204061,1,8,0:0:0:0:
208,92,204418,1,2,0:0:0:0:
316,148,204775,1,8,0:0:0:0:
316,148,204954,6,0,P|376:136|456:152,1,120,0|0,0:0|0:0,0:0:0:0:
480,180,205489,2,0,P|491:238|484:297,1,120,8|2,0:0|0:0,0:0:0:0:
376,248,206204,1,8,0:0:0:0:
316,148,206561,1,2,0:0:0:0:
196,153,206918,2,0,B|208:176|208:176|168:236|182:263,1,120,8|2,0:0|0:0,0:0:0:0:
128,368,207632,1,8,0:0:0:0:
72,264,207989,6,0,B|86:236|46:176|46:176|72:76,1,180,6|0,0:0|0:0,0:0:0:0:
104,44,208704,2,0,P|165:55|236:48,1,120,4|8,0:3|0:0,0:0:0:0:
280,40,209239,1,8,0:0:0:0:
396,8,209596,1,8,0:0:0:0:
464,108,209954,1,8,0:0:0:0:
416,280,210489,2,0,L|292:292,1,120,4|6,0:3|0:0,0:0:0:0:
256,192,211025,12,0,213704,0:0:0:0:
156,288,225132,6,0,B|168:232|88:156|152:92,2,180,6|0|2,0:0|0:0|0:0,0:0:0:0:
276,288,226561,2,0,B|264:232|344:156|280:92,2,180,6|0|2,0:0|0:0|0:0,0:0:0:0:
376,220,227989,6,0,P|288:196|180:224,2,180,6|0|2,0:0|0:0|0:0,0:0:0:0:
436,232,229239,1,0,0:0:0:0:
484,192,229418,2,0,P|496:152|496:120,1,60,2|8,0:0|0:3,0:0:0:0:
472,80,229775,2,0,P|440:56|412:52,1,60,2|0,0:0|0:0,0:0:0:0:
360,52,230132,2,8,P|304:68|176:48,1,180,2|0,0:0|0:0,0:0:0:0:
128,36,230846,6,0,L|96:168,1,120,6|8,0:0|0:0,0:0:0:0:
156,260,231561,2,0,L|188:140,1,120,2|8,0:0|0:0,0:0:0:0:
244,248,232275,2,0,P|296:276|368:248,1,120,2|8,0:0|0:0,0:0:0:0:
392,216,232811,1,0,0:0:0:0:
392,216,232989,2,0,P|456:204|512:220,1,120,2|8,0:0|0:0,0:0:0:0:
500,96,233704,6,0,P|436:108|380:92,1,120,2|8,0:0|0:0,0:0:0:0:
328,76,234239,1,0,0:0:0:0:
328,76,234418,2,0,P|276:64|208:80,1,120,2|8,0:0|0:0,0:0:0:0:
160,108,234954,2,0,P|116:120|88:120,1,60,0|2,0:0|0:0,0:0:0:0:
16,36,235489,1,8,0:0:0:0:
0,160,235846,1,2,0:0:0:0:
68,260,236204,1,8,0:0:0:0:
172,200,236561,6,0,P|184:272|164:328,1,120,6|8,0:0|0:0,0:0:0:0:
212,356,237096,2,0,P|272:352|344:368,1,120
392,364,237632,2,0,P|416:328|424:244,1,120,8|2,0:0|0:0,0:0:0:0:
396,136,238346,1,8,0:0:0:0:
396,136,238525,2,0,L|272:136,1,120,0|0,0:0|0:0,0:0:0:0:
216,132,239061,1,8,0:0:0:0:
96,152,239418,6,0,P|104:214|96:292,1,120,6|8,0:0|0:0,0:0:0:0:
116,328,239954,1,0,0:0:0:0:
116,328,240132,2,0,P|176:340|244:324,1,120,2|8,0:0|0:0,0:0:0:0:
292,224,240846,1,2,0:0:0:0:
248,112,241204,1,8,0:0:0:0:
340,32,241561,1,2,0:0:0:0:
340,32,241739,2,0,L|400:28,1,60,0|8,0:0|0:0,0:0:0:0:
472,124,242275,6,0,P|456:156|472:248,1,120,6|8,0:0|0:0,0:0:0:0:
436,288,242811,1,0,0:0:0:0:
436,288,242989,2,0,P|376:280|308:292,1,120,2|8,0:0|0:0,0:0:0:0:
216,352,243704,2,0,P|200:312|208:236,1,120,2|8,0:0|0:0,0:0:0:0:
236,184,244239,1,0,0:0:0:0:
236,184,244418,2,0,P|245:125|227:68,1,120,2|8,0:0|0:0,0:0:0:0:
128,136,245132,6,0,P|68:143|10:131,2,120,4|8|2,0:0|0:0|0:0,0:0:0:0:
236,184,246204,1,8,0:0:0:0:
236,184,246382,2,0,L|228:332,1,120,6|2,0:0|0:0,0:0:0:0:
224,364,246918,1,8,0:0:0:0:
328,308,247275,2,0,L|332:172,1,120,8|8,0:0|0:0,0:0:0:0:
336,68,247989,6,0,P|396:80|468:68,1,120,12|8,0:0|0:0,0:0:0:0:
452,192,248704,2,0,P|393:180|334:187,1,120,8|8,0:0|0:0,0:0:0:0:
232,252,249418,2,0,P|172:258|114:246,1,120,8|8,0:0|0:0,0:0:0:0:
176,144,250132,1,8,0:0:0:0:
260,56,250489,1,8,0:0:0:0:
348,136,250846,6,0,P|404:160|480:164,2,120,6|8|2,0:0|0:0|0:0,0:0:0:0:
260,56,251918,1,8,0:0:0:0:
260,56,252096,2,0,P|200:48|141:58,1,120,12|0,0:0|0:0,0:0:0:0:
84,72,252632,1,8,0:0:0:0:
124,56,254954,6,0,B|88:144|136:252,1,180,6|8,0:0|0:0,0:0:0:0:
164,280,255668,2,0,P|224:296|304:276,1,120,2|0,0:0|0:0,0:0:0:0:
328,252,256204,2,0,P|312:200|324:132,1,120,8|2,0:0|0:0,0:0:0:0:
408,56,256918,1,8,0:0:0:0:
488,144,257275,2,0,P|498:202|482:259,1,120,2|8,0:0|0:0,0:0:0:0:
412,356,257989,6,0,P|352:344|288:360,1,120,6|8,0:0|0:0,0:0:0:0:
240,336,258525,2,0,P|260:288|240:204,2,120,2|0|8,0:0|0:0|0:0,0:0:0:0:
184,352,259418,1,2,0:0:0:0:
104,264,259775,1,8,0:0:0:0:
100,144,260132,2,0,P|52:144|4:160,2,90,12|8|8,0:0|0:0|0:0,0:0:0:0:
156,160,260846,6,0,P|192:172|288:156,1,120,6|8,0:0|0:0,0:0:0:0:
364,84,261561,2,0,P|389:137|385:196,1,120,2|8,0:0|0:0,0:0:0:0:
448,300,262275,2,0,B|388:316|388:316|304:304,1,120,2|8,0:0|0:0,0:0:0:0:
272,292,262811,2,0,B|214:283|214:283|154:299,1,120,2|2,0:0|0:0,0:0:0:0:
96,312,263346,1,8,0:0:0:0:
52,200,263704,6,0,B|110:209|110:209|170:196,1,120,2|8,0:0|0:0,0:0:0:0:
216,160,264239,2,0,B|264:144|264:144|412:168,1,180,2|8,0:0|0:0,0:0:0:0:
508,136,265132,2,0,B|471:187|491:251,1,120,6|2,0:0|0:0,0:0:0:0:
448,292,265668,2,0,P|356:272|256:304,1,180,4|8,0:0|0:0,0:0:0:0:
164,336,266561,6,0,B|108:364|40:336,1,120,4|8,0:0|0:0,0:0:0:0:
12,288,267096,2,0,P|4:240|12:152,1,120
44,120,267632,1,8,0:0:0:0:
44,120,267811,2,0,P|96:116|120:116,1,60,0|2,0:0|0:0,0:0:0:0:
196,192,268346,1,8,0:0:0:0:
288,272,268704,2,0,P|312:232|308:144,1,120,2|8,0:0|0:0,0:0:0:0:
428,196,269418,6,0,P|400:143|401:84,1,120,6|8,0:0|0:0,0:0:0:0:
384,28,269954,2,0,L|244:36,1,120,2|2,0:0|0:0,0:0:0:0:
204,44,270489,1,8,0:0:0:0:
196,164,270846,2,0,L|128:160,2,60,2|0|8,0:0|0:0|0:0,0:0:0:0:
308,204,271561,2,0,P|311:159|304:116,2,90,12|8|8,0:0|0:0|0:0,0:0:0:0:
296,264,272275,6,0,P|232:260|176:276,1,120,6|8,0:0|0:0,0:0:0:0:
60,268,272989,1,2,0:0:0:0:
16,156,273346,2,0,P|0:100|24:24,1,120,8|2,0:0|0:0,0:0:0:0:
132,24,274061,2,0,P|168:32|196:28,1,60,8|0,0:0|0:0,0:0:0:0:
252,28,274418,1,2,0:0:0:0:
372,44,274775,1,8,0:0:0:0:
372,44,275132,6,0,P|393:109|387:163,1,120,2|8,0:0|0:0,0:0:0:0:
336,188,275668,2,0,P|324:252|348:312,1,120
364,356,276204,1,8,0:0:0:0:
244,344,276561,2,0,P|156:320|60:348,2,180,6|6|8,0:0|0:0|0:0,0:0:0:0:
340,276,277989,6,0,P|376:240|388:152,1,120,2|0,0:0|0:0,0:0:0:0:
384,116,278544,1,2,0:0:0:0:
344,4,278914,1,0,0:0:0:0:
228,36,279285,2,0,P|176:56|96:36,1,120,2|0,0:0|0:0,0:0:0:0:
56,32,279840,1,0,0:0:0:0:
56,32,280026,2,0,P|76:84|56:164,1,120,2|0,0:0|0:0,0:0:0:0:
240,208,280951,6,0,B|300:180|368:244|428:188,1,180,2|2,0:0|0:0,0:0:0:0:
496,108,281877,1,0,0:0:0:0:
404,28,282248,2,0,B|344:0|276:64|224:28,1,180,2|0,0:0|0:0,0:0:0:0:
168,20,282989,2,0,P|176:56|156:164,1,120,2|0,0:0|0:0,0:0:0:0:
140,192,283544,1,0,0:0:0:0:
112,308,283914,6,0,P|172:296|252:316,1,120,2|0,0:0|0:0,0:0:0:0:
288,324,284470,2,0,P|347:326|406:315,1,120,2|0,0:0|0:0,0:0:0:0:
388,196,285211,2,0,P|329:194|270:205,1,120,2|0,0:0|0:0,0:0:0:0:
212,220,285766,1,0,0:0:0:0:
212,220,285951,2,0,P|214:161|203:102,1,120,2|0,0:0|0:0,0:0:0:0:
40,24,286877,6,0,B|30:59|30:59|54:175|54:175|50:199,1,180,2|2,0:0|0:0,0:0:0:0:
64,320,287803,2,0,P|116:304|200:332,1,120,0|2,0:0|0:0,0:0:0:0:
284,264,288544,1,0,0:0:0:0:
392,320,288914,1,2,0:0:0:0:
256,192,289285,12,0,292989,0:0:0:0:
