osu file format v14

[General]
AudioFilename: Song_starlog.mp3
AudioLeadIn: 1100
PreviewTime: 230132
Countdown: 0
SampleSet: Soft
StackLeniency: 0.4
Mode: 0
LetterboxInBreaks: 1
WidescreenStoryboard: 0

[Editor]
Bookmarks: 205136,209958,247993,250672
DistanceSpacing: 1.3
BeatDivisor: 4
GridSize: 4
TimelineZoom: 2.4

[Metadata]
Title:starlog
TitleUnicode:starlog
Artist:ChouCho
ArtistUnicode:ChouCho
Creator:Karia
Version:Insane
Source:Fate/kaleid liner PRISMA☆ILLYA
Tags:Full Version opening Prismaillya Illyasviel von Einzbern Miyu Edelfelt Kadowaki Mai Nazuka Kaori プリズマ☆イリヤ Kocari ちょうちょ
BeatmapID:563971
BeatmapSetID:244684

[Difficulty]
HPDrainRate:7
CircleSize:4
OverallDifficulty:8
ApproachRate:9
SliderMultiplier:1.72
SliderTickRate:1

[Events]
//Background and Video events
0,0,"BG.jpg",0,0
//Break Periods
//Storyboard Layer 0 (Background)
//Storyboard Layer 1 (Fail)
//Storyboard Layer 2 (Pass)
//Storyboard Layer 3 (Foreground)
//Storyboard Sound Samples

[TimingPoints]
847,357.142857142857,4,2,1,30,1,0
847,-133.333333333333,4,2,1,30,0,0
4418,-100,4,2,2,50,0,0
5132,-100,4,2,2,65,0,0
16204,-166.666666666667,4,2,2,65,0,0
16561,-133.333333333333,4,2,2,40,0,0
26561,-133.333333333333,4,2,1,30,0,0
27632,-90.9090909090909,4,2,2,50,0,0
27989,-100,4,2,2,55,0,0
45132,-153.846153846154,4,2,2,55,0,0
47989,-125,4,2,2,55,0,0
48525,-111.111111111111,4,2,2,55,0,0
49239,-125,4,2,2,65,0,0
50132,-125,4,2,2,45,0,0
50846,-100,4,2,2,75,0,1
66918,-100,4,2,2,75,0,0
67275,-100,4,2,2,75,0,1
67364,-100,4,2,2,75,0,0
67989,-100,4,2,2,75,0,1
84061,-100,4,2,2,75,0,0
84418,-100,4,2,0,75,0,0
85132,-153.846153846154,4,2,2,40,0,0
90846,-133.333333333333,4,2,2,50,0,0
93704,-117.647058823529,4,2,2,50,0,0
96561,-133.333333333333,4,2,4,40,0,0
106561,-90.9090909090909,4,2,1,30,0,0
107632,-90.9090909090909,4,2,1,40,0,0
107989,-100,4,2,2,55,0,0
125132,-153.846153846154,4,2,2,55,0,0
127989,-125,4,2,2,55,0,0
128525,-111.111111111111,4,2,2,55,0,0
129239,-86.9565217391304,4,2,2,55,0,0
130846,-100,4,2,2,75,0,1
146918,-100,4,2,2,75,0,0
147275,-100,4,2,2,75,0,1
147364,-100,4,2,2,75,0,0
147989,-100,4,2,2,75,0,1
164061,-100,4,2,2,75,0,0
164418,-100,4,2,2,65,0,0
165132,-200,4,2,2,60,0,0
165221,-200,4,2,2,40,0,0
167989,-200,4,2,1,40,0,0
175132,-100,4,2,2,50,0,0
187989,-100,4,2,2,60,0,1
188079,-100,4,2,2,60,0,0
210846,-133.333333333333,4,2,2,40,0,0
214418,-200,4,2,1,30,0,0
224775,-200,4,2,2,40,0,0
225132,-133.333333333333,4,2,2,50,0,0
227989,-117.647058823529,4,2,2,60,0,0
230846,-100,4,2,2,75,0,1
247364,-100,4,2,2,5,0,1
247632,-100,4,2,2,75,0,1
247721,-100,4,2,2,5,0,1
247989,-100,4,2,2,75,0,1
252632,-100,4,2,2,75,0,0
254061,-100,4,2,2,5,0,0
254329,-166.666666666667,4,2,2,25,0,0
254954,-100,4,2,2,65,0,0
277989,370.37037037037,4,2,2,45,1,0
277989,-133.333333333333,4,2,2,45,0,0
280951,-133.333333333333,4,2,1,30,0,0
283914,-133.333333333333,4,2,2,45,0,0
286877,-133.333333333333,4,2,1,30,0,0
291692,-133.333333333333,4,2,1,15,0,0

[Colours]
Combo1 : 255,189,157
Combo2 : 255,255,176
Combo3 : 255,181,255
Combo4 : 185,255,255

[HitObjects]
88,236,847,5,2,0:0:0:0:
108,228,1204,1,0,0:0:0:0:
188,96,1382,2,0,P|188:160|195:235,1,129.00000492096,2|2,0:0|0:0,0:0:0:0:
208,244,2275,5,2,0:0:0:0:
272,296,2454,1,0,0:0:0:0:
296,168,2632,1,0,0:0:0:0:
352,272,2811,2,0,P|372:216|336:148,1,129.00000492096,2|0,0:0|0:0,0:0:0:0:
320,204,4418,5,8,0:0:0:0:
320,204,4507,1,4,0:3:0:0:
320,204,4596,5,4,0:3:0:0:
341,203,4686,1,0,0:0:0:0:
361,196,4775,1,12,0:0:0:0:
377,182,4864,1,0,0:0:0:0:
387,163,4954,1,0,0:0:0:0:
390,142,5043,1,0,0:0:0:0:
386,121,5132,6,0,B|324:128|324:128|272:120|272:120|212:128,1,172,4|8,0:0|0:0,0:0:0:0:
52,148,5668,2,0,P|96:138|138:100,1,86,0|2,0:0|0:0,0:0:0:0:
0,232,6025,2,0,P|40:253|96:251,1,86,0|8,0:0|0:0,0:0:0:0:
184,208,6382,1,0,0:0:0:0:
272,304,6561,6,0,P|272:240|288:168,1,129,2|0,0:0|0:0,0:0:0:0:
296,160,6918,2,0,P|255:171|211:172,1,86,8|0,0:0|0:0,0:0:0:0:
244,92,7275,1,2,0:0:0:0:
104,176,7454,1,0,0:0:0:0:
102,154,7543,1,0,0:0:0:0:
101,133,7632,1,8,0:0:0:0:
99,111,7721,1,0,0:0:0:0:
98,90,7811,1,0,0:0:0:0:
97,68,7900,1,0,0:0:0:0:
95,47,7989,6,0,B|156:60|156:60|200:24|272:32,1,172,2|8,0:0|0:0,0:0:0:0:
220,228,8525,2,0,P|185:197|163:159,1,86,0|2,0:0|0:0,0:0:0:0:
360,120,8882,2,0,P|351:165|329:203,1,86,0|8,0:0|0:0,0:0:0:0:
168,140,9239,1,0,0:0:0:0:
216,324,9418,6,0,L|124:328,1,86,2|2,0:0|0:0,0:0:0:0:
108,252,9686,1,0,0:0:0:0:
120,236,9775,2,0,L|212:232,1,86,12|0,0:0|0:0,0:0:0:0:
384,208,10132,6,0,P|400:168|400:120,1,86,8|0,0:0|0:0,0:0:0:0:
260,96,10400,2,0,P|286:129|328:153,1,86,8|0,0:0|0:0,0:0:0:0:
418,44,10668,2,0,P|375:50|333:74,1,86,12|6,0:0|0:0,0:0:0:0:
321,72,11204,6,0,P|379:39|451:41,1,129,8|0,0:0|0:0,0:0:0:0:
456,52,11561,2,0,L|452:144,1,86,2|0,0:0|0:0,0:0:0:0:
408,296,11918,2,0,L|400:200,1,86,8|0,0:0|0:0,0:0:0:0:
300,92,12275,6,0,P|256:88|208:104,1,86,2|0,0:0|0:0,0:0:0:0:
52,176,12632,2,0,P|96:172|144:188,1,86,8|0,0:0|0:0,0:0:0:0:
188,244,12900,1,0,0:0:0:0:
188,244,12989,2,0,L|180:340,1,86,2|0,0:0|0:0,0:0:0:0:
108,256,13346,1,8,0:0:0:0:
268,220,13525,1,0,0:0:0:0:
136,140,13704,6,0,L|228:152,1,86,2|0,0:0|0:0,0:0:0:0:
420,176,14061,2,0,L|324:184,1,86,8|0,0:0|0:0,0:0:0:0:
280,244,14329,1,0,0:0:0:0:
280,244,14418,2,0,P|272:292|280:336,1,86,2|0,0:0|0:0,0:0:0:0:
324,168,14775,1,8,0:0:0:0:
160,224,14954,1,8,0:0:0:0:
143,226,15043,1,8,0:0:0:0:
125,226,15132,5,6,0:0:0:0:
16,196,15311,1,0,0:0:0:0:
52,276,15489,1,8,0:0:0:0:
96,92,15668,2,0,P|180:68|240:128,1,172,6|8,0:0|0:0,0:0:0:0:
252,196,16114,1,8,0:0:0:0:
244,216,16204,6,0,L|356:204,1,103.199996850586,8|2,0:0|0:0,0:0:0:0:
364,200,16918,6,0,L|292:196,1,64.5000024604798,2|0,0:0|0:0,0:0:0:0:
468,128,17275,2,0,L|332:120,1,129.00000492096,2|2,0:0|0:0,0:0:0:0:
408,76,17811,1,0,0:0:0:0:
464,212,17989,6,0,P|476:176|480:140,1,64.5000024604798,2|0,0:0|0:0,0:0:0:0:
380,244,18346,2,0,P|390:280|408:312,1,64.5000024604798,2|0,0:0|0:0,0:0:0:0:
396,160,18704,1,2,0:0:0:0:
396,160,19061,1,2,0:0:0:0:
316,136,19239,1,0,0:0:0:0:
252,192,19418,6,0,L|260:320,1,129.00000492096,2|2,0:0|0:0,0:0:0:0:
340,292,19954,1,0,0:0:0:0:
160,276,20132,2,0,L|224:260,1,64.5000024604798,2|0,0:0|0:0,0:0:0:0:
68,252,20489,2,0,L|61:317,1,64.5000024604798,2|0,0:0|0:0,0:0:0:0:
136,188,20846,6,0,L|128:56,1,129.00000492096,2|2,0:0|0:0,0:0:0:0:
268,84,21382,1,0,0:0:0:0:
212,20,21561,2,0,L|252:12,2,32.2500012302399,2|0|0,0:0|0:0|0:0,0:0:0:0:
256,168,21918,2,0,L|216:164,2,32.2500012302399,2|0|0,0:0|0:0|0:0,0:0:0:0:
372,64,22275,5,2,0:0:0:0:
372,64,22632,1,2,0:0:0:0:
432,124,22811,1,0,0:0:0:0:
352,148,22989,2,0,P|348:216|400:256,1,129.00000492096,2|2,0:0|0:0,0:0:0:0:
264,224,23525,1,0,0:0:0:0:
416,248,23704,6,0,L|420:184,1,64.5000024604798,2|0,0:0|0:0,0:0:0:0:
356,56,24061,2,0,L|352:132,1,64.5000024604798,2|0,0:0|0:0,0:0:0:0:
244,212,24418,2,0,P|180:216|128:176,1,129.00000492096,2|2,0:0|0:0,0:0:0:0:
204,136,24954,1,0,0:0:0:0:
260,284,25132,6,0,L|268:220,1,64.5000024604798,2|0,0:0|0:0,0:0:0:0:
284,136,25489,1,2,0:0:0:0:
128,216,25668,1,0,0:0:0:0:
120,132,25846,2,0,L|116:60,1,64.5000024604798,2|0,0:0|0:0,0:0:0:0:
280,112,26204,1,2,0:0:0:0:
208,156,26382,1,0,0:0:0:0:
248,12,26561,5,2,0:0:0:0:
264,16,27096,1,2,0:0:0:0:
280,20,27632,2,0,L|132:32,1,141.900004330444,4|0,0:3|0:0,0:0:0:0:
60,40,27989,5,6,0:0:0:0:
60,40,28346,2,0,L|148:48,1,86,8|0,0:0|0:0,0:0:0:0:
88,220,28704,1,2,0:0:0:0:
40,148,28882,1,0,0:0:0:0:
220,168,29061,2,0,P|272:160|308:144,1,86,8|0,0:0|0:0,0:0:0:0:
240,84,29418,5,2,0:0:0:0:
224,272,29596,1,0,0:0:0:0:
108,192,29775,2,0,P|114:234|131:273,1,86,8|0,0:0|0:0,0:0:0:0:
292,208,30132,2,0,P|376:208|392:304,1,172,2|8,0:0|0:0,0:0:0:0:
344,344,30668,1,0,0:0:0:0:
504,308,30846,6,0,P|464:308|416:296,1,86,2|0,0:0|0:0,0:0:0:0:
284,188,31204,1,8,0:0:0:0:
368,188,31382,2,0,P|384:144|388:96,1,86,0|2,0:0|0:0,0:0:0:0:
232,60,31739,2,0,P|216:104|212:152,1,86,0|8,0:0|0:0,0:0:0:0:
268,208,32096,1,0,0:0:0:0:
76,252,32275,6,0,B|208:260|208:260|224:300,1,172,2|8,0:0|0:0,0:0:0:0:
260,192,32811,1,0,0:0:0:0:
156,348,32989,1,2,0:0:0:0:
156,348,33079,1,2,0:0:0:0:
156,348,33168,1,2,0:0:0:0:
60,228,33346,2,0,P|52:176|56:132,1,86,8|2,0:0|0:0,0:0:0:0:
54,142,33614,1,2,0:0:0:0:
54,142,33704,5,2,0:0:0:0:
54,142,34061,2,0,L|156:152,1,86,8|0,0:0|0:0,0:0:0:0:
124,64,34418,1,2,0:0:0:0:
124,64,34596,1,0,0:0:0:0:
88,232,34775,1,8,0:0:0:0:
88,232,34954,1,0,0:0:0:0:
300,200,35132,6,0,L|168:184,1,129,2|0,0:0|0:0,0:0:0:0:
156,168,35489,2,0,L|248:160,1,86,8|0,0:0|0:0,0:0:0:0:
420,140,35846,1,2,0:0:0:0:
320,88,36025,1,0,0:0:0:0:
412,244,36204,2,0,P|432:192|432:152,1,86,8|0,0:0|0:0,0:0:0:0:
232,260,36561,6,0,B|344:276,1,86,2|0,0:0|0:0,0:0:0:0:
180,360,36918,1,8,0:0:0:0:
340,276,37096,1,0,0:0:0:0:
216,244,37275,2,0,P|196:192|196:152,1,86,2|0,0:0|0:0,0:0:0:0:
244,28,37632,1,8,0:0:0:0:
292,100,37811,1,0,0:0:0:0:
64,136,37989,5,6,0:0:0:0:
64,136,38168,1,0,0:0:0:0:
240,224,38346,1,8,0:0:0:0:
164,264,38525,2,0,P|164:312|184:356,1,86,0|6,0:0|0:0,0:0:0:0:
264,208,38882,1,0,0:0:0:0:
52,240,39061,1,8,0:0:0:0:
52,240,39150,1,0,0:0:0:0:
52,240,39239,1,0,0:0:0:0:
52,240,39329,1,0,0:0:0:0:
52,240,39418,6,0,P|116:192|72:100,1,172,12|2,0:0|0:0,0:0:0:0:
236,176,39954,2,0,P|180:192|144:188,1,86,8|2,0:0|0:0,0:0:0:0:
208,72,40311,1,2,0:0:0:0:
336,156,40489,2,0,L|340:64,2,86,8|2|2,0:0|0:0|0:0,0:0:0:0:
396,308,41025,2,0,P|480:304|500:216,1,172,8|2,0:0|0:0,0:0:0:0:
324,184,41561,5,12,0:0:0:0:
500,200,41918,1,12,0:0:0:0:
500,200,42096,1,0,0:0:0:0:
500,200,42275,6,0,L|320:212,1,172,12|0,0:0|0:0,0:0:0:0:
140,224,42811,2,0,P|184:220|236:192,1,86,8|2,0:0|0:0,0:0:0:0:
60,200,43168,1,2,0:0:0:0:
240,184,43346,2,0,L|244:288,1,86,8|2,0:0|0:0,0:0:0:0:
324,240,43704,1,2,0:0:0:0:
228,112,43882,2,0,L|232:296,1,172,8|2,0:0|0:0,0:0:0:0:
72,180,44418,5,12,0:0:0:0:
92,184,44775,1,12,0:0:0:0:
112,188,45132,6,0,L|0:196,1,111.799994882202,4|0,0:0|0:0,0:0:0:0:
116,296,45668,1,2,0:0:0:0:
204,128,45846,2,0,P|208:188|220:256,1,111.799994882202,8|0,0:0|0:0,0:0:0:0:
292,212,46382,1,0,0:0:0:0:
276,288,46561,5,2,0:0:0:0:
440,256,46739,1,12,0:0:0:0:
264,272,47096,5,2,0:0:0:0:
448,276,47275,1,12,0:0:0:0:
252,256,47632,5,0,0:0:0:0:
252,256,47811,1,0,0:0:0:0:
252,256,47989,6,0,L|260:112,1,137.6,6|8,0:0|0:0,0:0:0:0:
124,176,48525,2,0,P|48:168|32:80,1,154.799995275879,6|0,0:0|0:0,0:0:0:0:
24,101,49061,1,8,0:0:0:0:
24,101,49239,5,4,0:0:0:0:
444,132,49775,1,12,0:0:0:0:
444,132,50132,6,0,L|336:140,1,103.2
292,144,50489,1,4,0:3:0:0:
292,144,50846,6,0,L|464:152,1,172,6|8,0:0|0:0,0:0:0:0:
380,52,51382,1,0,0:0:0:0:
328,244,51561,2,0,P|324:204|312:152,1,86,2|0,0:0|0:0,0:0:0:0:
240,24,51918,2,0,P|236:64|224:116,1,86,8|0,0:0|0:0,0:0:0:0:
68,212,52275,6,0,P|104:195|155:179,1,86,2|0,0:0|0:0,0:0:0:0:
296,252,52632,1,8,0:0:0:0:
176,180,52811,1,0,0:0:0:0:
356,128,52989,2,0,P|272:120|178:92,1,172,2|8,0:0|0:0,0:0:0:0:
220,16,53525,1,0,0:0:0:0:
268,172,53704,5,2,0:0:0:0:
268,172,53882,1,0,0:0:0:0:
408,68,54061,2,0,P|432:104|408:188,1,129,8|0,0:0|0:0,0:0:0:0:
396,200,54418,2,0,L|492:208,1,86,2|0,0:0|0:0,0:0:0:0:
244,168,54775,2,0,L|340:152,1,86,8|0,0:0|0:0,0:0:0:0:
172,108,55132,5,2,0:0:0:0:
196,280,55311,1,0,0:0:0:0:
4,236,55489,1,8,0:0:0:0:
80,196,55668,2,0,L|84:244,2,43,0|8|2,0:0|0:0|0:0,0:0:0:0:
12,144,56025,1,0,0:0:0:0:
160,84,56204,2,0,L|64:72,1,86,8|0,0:0|0:0,0:0:0:0:
228,152,56561,6,0,P|276:144|320:124,1,86,2|0,0:0|0:0,0:0:0:0:
160,232,56918,2,0,P|228:240|296:228,1,129,8|0,0:0|0:0,0:0:0:0:
312,228,57275,2,0,P|328:272|324:328,1,86,2|0,0:0|0:0,0:0:0:0:
496,244,57632,1,8,0:0:0:0:
368,140,57811,1,0,0:0:0:0:
404,216,57989,5,2,0:0:0:0:
404,216,58168,1,0,0:0:0:0:
444,40,58346,1,8,0:0:0:0:
240,80,58525,2,0,L|344:88,1,86,0|2,0:0|0:0,0:0:0:0:
224,64,58882,1,0,0:0:0:0:
180,232,59061,2,0,P|164:192|160:140,1,86,8|0,0:0|0:0,0:0:0:0:
388,192,59418,6,0,L|260:180,1,129,2|0,0:0|0:0,0:0:0:0:
244,164,59775,2,0,P|246:120|264:72,1,86,8|0,0:0|0:0,0:0:0:0:
324,136,60132,1,2,0:0:0:0:
128,168,60311,1,0,0:0:0:0:
168,92,60489,1,8,0:0:0:0:
204,296,60668,1,0,0:0:0:0:
0,264,60846,6,0,L|132:252,1,129,2|0,0:0|0:0,0:0:0:0:
148,240,61204,2,0,P|168:200|172:156,1,86,8|0,0:0|0:0,0:0:0:0:
112,36,61561,1,2,0:0:0:0:
288,76,61739,1,8,0:0:0:0:
273,77,61829,1,8,0:0:0:0:
259,78,61918,1,8,0:0:0:0:
245,79,62007,1,8,0:0:0:0:
230,80,62096,1,8,0:0:0:0:
216,82,62186,1,8,0:0:0:0:
202,83,62275,6,0,L|380:92,1,172,6|8,0:0|0:0,0:0:0:0:
356,176,62811,1,0,0:0:0:0:
448,52,62989,2,0,P|464:92|468:136,1,86,2|0,0:0|0:0,0:0:0:0:
412,316,63346,1,8,0:0:0:0:
492,284,63525,1,0,0:0:0:0:
300,240,63704,6,0,L|432:224,1,129,2|0,0:0|0:0,0:0:0:0:
444,208,64061,2,0,L|348:200,1,86,8|0,0:0|0:0,0:0:0:0:
168,188,64418,1,2,0:0:0:0:
272,148,64596,1,0,0:0:0:0:
104,108,64775,2,0,L|189:100,1,86,8|0,0:0|0:0,0:0:0:0:
152,200,65132,5,2,0:0:0:0:
112,24,65311,1,0,0:0:0:0:
204,116,65489,1,8,0:0:0:0:
20,76,65668,1,0,0:0:0:0:
55,236,65846,2,0,P|75:197|80:155,1,86,2|0,0:0|0:0,0:0:0:0:
48,76,66204,1,8,0:0:0:0:
148,236,66382,1,0,0:0:0:0:
232,96,66561,5,2,0:0:0:0:
216,180,66739,2,0,L|272:184,1,43,0|2,0:0|0:0,0:0:0:0:
388,192,66918,1,12,0:0:0:0:
388,192,67275,6,0,P|348:212|300:220,1,86,12|0,0:0|0:0,0:0:0:0:
164,188,67543,2,0,P|201:212|232:250,1,86,8|0,0:0|0:0,0:0:0:0:
272,383,67811,2,0,P|274:338|291:292,1,86,8|6,0:0|0:0,0:0:0:0:
356,352,68168,5,0,0:0:0:0:
200,336,68346,2,0,L|88:324,1,86,8|0,0:0|0:0,0:0:0:0:
216,352,68704,1,2,0:0:0:0:
92,316,68882,2,0,P|80:272|80:228,1,86,0|8,0:0|0:0,0:0:0:0:
124,76,69239,1,0,0:0:0:0:
16,160,69418,6,0,L|164:152,1,129,2|0,0:0|0:0,0:0:0:0:
172,160,69775,2,0,P|184:204|184:248,1,86,8|0,0:0|0:0,0:0:0:0:
104,72,70132,1,2,0:0:0:0:
264,104,70311,1,0,0:0:0:0:
424,136,70489,2,0,L|336:144,1,86,8|0,0:0|0:0,0:0:0:0:
504,92,70846,6,0,L|500:192,1,86,2|0,0:0|0:0,0:0:0:0:
312,144,71204,1,8,0:0:0:0:
420,228,71382,1,0,0:0:0:0:
236,276,71561,2,0,L|368:288,1,129,2|0,0:0|0:0,0:0:0:0:
384,300,71918,2,0,P|332:308|300:320,1,86,8|0,0:0|0:0,0:0:0:0:
180,364,72275,6,0,P|199:314|204:281,1,86,2|0,0:0|0:0,0:0:0:0:
204,152,72632,2,0,P|182:103|162:76,1,86,8|0,0:0|0:0,0:0:0:0:
144,68,72900,2,0,L|96:76,1,43,8|2,0:0|0:0,0:0:0:0:
280,112,73168,1,0,0:0:0:0:
204,180,73346,1,8,0:0:0:0:
376,204,73525,2,0,L|328:208,1,43,0|8,0:0|0:0,0:0:0:0:
312,212,73704,6,0,L|492:224,1,172,2|8,0:0|0:0,0:0:0:0:
483,223,74239,1,0,0:0:0:0:
360,316,74418,1,2,0:0:0:0:
360,316,74596,1,0,0:0:0:0:
392,120,74775,2,0,L|404:220,1,86,8|0,0:0|0:0,0:0:0:0:
280,60,75132,6,0,P|276:128|264:200,1,129,2|0,0:0|0:0,0:0:0:0:
252,204,75489,2,0,L|160:196,1,86,8|0,0:0|0:0,0:0:0:0:
20,144,75846,2,0,L|112:136,1,86,2|0,0:0|0:0,0:0:0:0:
64,260,76204,1,8,0:0:0:0:
64,260,76382,1,0,0:0:0:0:
40,56,76561,5,2,0:0:0:0:
44,244,76739,1,0,0:0:0:0:
244,184,76918,1,8,0:0:0:0:
80,276,77096,1,0,0:0:0:0:
156,316,77275,2,0,P|172:276|176:224,1,86,2|0,0:0|0:0,0:0:0:0:
124,136,77632,2,0,P|133:177|160:222,1,86,8|0,0:0|0:0,0:0:0:0:
312,256,77989,6,0,L|496:244,1,172,2|8,0:0|0:0,0:0:0:0:
412,292,78525,1,0,0:0:0:0:
412,292,78614,1,8,0:0:0:0:
412,292,78704,1,2,0:0:0:0:
448,132,78882,1,8,0:0:0:0:
256,184,79061,1,8,0:0:0:0:
364,72,79239,1,8,0:0:0:0:
364,72,79329,1,8,0:0:0:0:
364,72,79418,6,0,L|360:172,1,86,6|0,0:0|0:0,0:0:0:0:
208,96,79775,1,8,0:0:0:0:
248,172,79954,2,0,P|203:180|158:184,1,86,0|2,0:0|0:0,0:0:0:0:
204,72,80311,1,0,0:0:0:0:
140,184,80489,1,8,0:0:0:0:
76,32,80668,1,0,0:0:0:0:
0,136,80846,6,0,P|44:127|89:123,1,86,2|0,0:0|0:0,0:0:0:0:
264,152,81204,1,8,0:0:0:0:
184,76,81382,1,0,0:0:0:0:
140,268,81561,2,0,P|216:272|284:248,1,129,2|0,0:0|0:0,0:0:0:0:
284,244,81918,1,8,0:0:0:0:
240,140,82096,1,0,0:0:0:0:
352,156,82275,6,0,L|356:68,1,86,2|0,0:0|0:0,0:0:0:0:
344,260,82632,1,8,0:0:0:0:
276,208,82811,1,0,0:0:0:0:
456,188,82989,2,0,L|368:176,1,86,4|0,0:3|0:0,0:0:0:0:
370,176,83257,1,8,0:0:0:0:
370,176,83346,1,8,0:0:0:0:
448,340,83525,2,0,L|264:348,1,172,2|0,0:0|0:0,0:0:0:0:
100,308,84061,5,8,0:0:0:0:
96,324,84418,1,2,0:0:0:0:
92,340,84775,1,4,0:3:0:0:
88,356,85132,6,0,P|92:300|84:236,1,111.799994882202,6|0,0:0|0:0,0:0:0:0:
132,176,85668,2,0,P|184:164|240:200,1,111.799994882202,2|0,0:0|0:0,0:0:0:0:
132,176,86382,6,0,B|120:120|120:120|128:64,1,111.799994882202,2|0,0:0|0:0,0:0:0:0:
48,92,86918,1,0,0:0:0:0:
216,108,87096,1,2,0:0:0:0:
40,72,87454,5,0,0:0:0:0:
137,83,87632,1,0,0:0:0:0:
234,95,87811,1,0,0:0:0:0:
331,106,87989,6,0,P|384:76|388:28,1,111.799994882202,6|0,0:0|0:0,0:0:0:0:
420,108,88525,2,0,B|432:176|432:176|420:220,1,111.799994882202,2|0,0:0|0:0,0:0:0:0:
436,236,89239,6,0,P|376:228|320:232,1,111.799994882202,2|0,0:0|0:0,0:0:0:0:
244,256,89775,1,0,0:0:0:0:
328,368,89954,1,2,0:0:0:0:
328,368,90846,6,0,L|400:372,1,64.5000024604798,6|0,0:0|0:0,0:0:0:0:
212,300,91204,2,0,L|284:288,1,64.5000024604798,2|0,0:0|0:0,0:0:0:0:
136,356,91561,2,0,P|112:332|92:296,1,64.5000024604798,2|0,0:0|0:0,0:0:0:0:
80,184,91918,2,0,P|82:150|97:111,1,64.5000024604798,2|0,0:0|0:0,0:0:0:0:
244,152,92275,6,0,P|241:185|226:224,1,64.5000024604798,2|0,0:0|0:0,0:0:0:0:
300,76,92632,2,0,P|321:102|338:139,1,64.5000024604798,2|0,0:0|0:0,0:0:0:0:
356,276,92989,2,0,L|364:208,1,64.5000024604798
424,76,93346,2,0,L|431:140,1,64.5000024604798
280,64,93704,6,0,P|212:52|160:116,1,146.200002788544,2|2,0:0|0:0,0:0:0:0:
192,260,94239,2,0,L|344:252,1,146.200002788544
268,304,94775,1,2,0:0:0:0:
240,160,94954,1,0,0:0:0:0:
240,160,96025,6,0,L|236:240,1,73.1000013942719,0|4,0:0|0:3,0:0:0:0:
224,240,96561,6,0,L|232:112,1,129.00000492096,2|8,0:0|0:0,0:0:0:0:
120,140,97096,1,2,0:0:0:0:
60,80,97275,2,0,P|0:92|4:164,1,129.00000492096,8|8,0:0|0:0,0:0:0:0:
124,164,97811,1,0,0:0:0:0:
124,164,97989,6,0,L|120:244,1,64.5000024604798,8|0,0:0|0:0,0:0:0:0:
264,196,98346,2,0,L|192:204,1,64.5000024604798,8|0,0:0|0:0,0:0:0:0:
52,248,98704,2,0,L|124:256,1,64.5000024604798,8|0,0:0|0:0,0:0:0:0:
252,300,99061,1,8,0:0:0:0:
252,300,99239,1,0,0:0:0:0:
252,300,99418,6,0,P|184:304|120:316,1,129.00000492096,10|8,0:0|0:0,0:0:0:0:
220,200,99954,2,0,P|264:204|300:208,1,64.5000024604798,0|8,0:0|0:0,0:0:0:0:
428,168,100311,2,0,P|384:164|348:160,1,64.5000024604798,0|8,0:0|0:0,0:0:0:0:
368,312,100668,1,0,0:0:0:0:
368,312,100846,6,0,L|372:240,1,64.5000024604798,8|0,0:0|0:0,0:0:0:0:
288,156,101204,2,0,P|224:148|180:192,1,129.00000492096,8|8,0:0|0:0,0:0:0:0:
192,272,101739,1,0,0:0:0:0:
160,124,101918,2,0,P|159:161|152:192,1,64.5000024604798,8|0,0:0|0:0,0:0:0:0:
72,312,102275,6,0,P|76:248|56:176,1,129.00000492096,10|8,0:0|0:0,0:0:0:0:
0,108,102811,1,2,0:0:0:0:
160,104,102989,2,0,L|96:114,1,64.5000024604798,8|0,0:0|0:0,0:0:0:0:
208,40,103346,2,0,L|252:48|280:52,1,64.5000024604798,8|0,0:0|0:0,0:0:0:0:
400,112,103704,6,0,B|352:120|352:120|316:119|316:119|260:128,1,129.00000492096,8|8,0:0|0:0,0:0:0:0:
312,256,104239,1,0,0:0:0:0:
312,256,104418,2,0,L|320:184,1,64.5000024604798,8|0,0:0|0:0,0:0:0:0:
348,332,104775,1,8,0:0:0:0:
288,272,104954,1,0,0:0:0:0:
208,248,105132,6,0,P|168:252|136:264,1,64.5000024604798,10|0,0:0|0:0,0:0:0:0:
192,328,105489,1,8,0:0:0:0:
136,184,105668,2,0,P|99:201|73:223,1,64.5000024604798,2|8,0:0|0:0,0:0:0:0:
36,288,106025,1,0,0:0:0:0:
64,56,106204,1,8,3:2:0:0:
156,180,106382,1,0,0:0:0:0:
216,24,106561,5,2,0:0:0:0:
200,32,107096,1,2,0:0:0:0:
184,40,107632,2,0,L|336:52,1,141.900004330444,4|0,0:3|0:0,0:0:0:0:
404,56,107989,5,6,0:0:0:0:
404,56,108346,2,0,P|412:104|424:144,1,86,8|0,0:0|0:0,0:0:0:0:
492,204,108704,2,0,P|450:179|411:162,1,86,2|0,0:0|0:0,0:0:0:0:
248,212,109061,1,8,0:0:0:0:
388,168,109239,1,0,0:0:0:0:
321,222,109418,6,0,L|309:110,1,86,2|0,0:0|0:0,0:0:0:0:
136,208,109775,1,8,0:0:0:0:
220,228,109954,1,0,0:0:0:0:
176,300,110132,2,0,P|223:302|272:312,1,86,2|0,0:0|0:0,0:0:0:0:
100,340,110489,2,0,P|60:314|22:281,1,86,8|0,0:0|0:0,0:0:0:0:
60,112,110846,5,2,0:0:0:0:
60,112,111025,1,0,0:0:0:0:
212,136,111204,1,8,0:0:0:0:
128,28,111382,2,0,L|136:128,1,86,0|2,0:0|0:0,0:0:0:0:
268,76,111739,1,0,0:0:0:0:
208,240,111918,2,0,L|200:140,1,86,8|0,0:0|0:0,0:0:0:0:
356,176,112275,6,0,P|432:148|416:60,1,172,2|8,0:0|0:0,0:0:0:0:
472,152,112811,1,0,0:0:0:0:
336,164,112989,1,2,0:0:0:0:
336,164,113079,1,2,0:0:0:0:
336,164,113168,1,2,0:0:0:0:
392,316,113346,1,8,0:0:0:0:
312,172,113525,1,2,0:0:0:0:
312,172,113614,1,2,0:0:0:0:
312,172,113704,5,2,0:0:0:0:
312,172,114061,2,0,P|364:180|412:176,1,86,8|0,0:0|0:0,0:0:0:0:
184,164,114418,2,0,P|217:190|245:223,1,86,2|0,0:0|0:0,0:0:0:0:
212,36,114775,1,8,0:0:0:0:
212,36,114954,1,0,0:0:0:0:
48,112,115132,5,2,0:0:0:0:
48,112,115311,1,0,0:0:0:0:
128,148,115489,1,8,0:0:0:0:
40,264,115668,2,0,P|88:252|136:248,1,86,0|2,0:0|0:0,0:0:0:0:
296,240,116025,2,0,P|249:222|208:198,1,86,0|8,0:0|0:0,0:0:0:0:
428,156,116382,1,0,0:0:0:0:
324,240,116561,6,0,P|308:324|392:364,1,172,2|8,0:0|0:0,0:0:0:0:
272,340,117096,1,0,0:0:0:0:
460,308,117275,2,0,L|368:292,1,86,2|0,0:0|0:0,0:0:0:0:
188,320,117632,1,8,0:0:0:0:
240,252,117811,1,0,0:0:0:0:
60,304,117989,5,6,0:0:0:0:
60,304,118168,1,0,0:0:0:0:
40,116,118346,2,0,L|32:208,1,86,8|0,0:0|0:0,0:0:0:0:
132,68,118704,2,0,P|216:48|272:116,1,172,6|8,0:0|0:0,0:0:0:0:
260,140,119150,1,0,0:0:0:0:
260,140,119239,1,0,0:0:0:0:
260,140,119329,1,0,0:0:0:0:
260,140,119418,6,0,P|308:128|352:128,1,86,12|2,0:0|0:0,0:0:0:0:
472,152,119775,1,0,0:0:0:0:
384,308,119954,2,0,B|372:252|372:252|380:196|380:196|368:134,1,172,8|0,0:0|0:0,0:0:0:0:
232,64,120489,2,0,P|184:72|152:96,1,86,8|2,0:0|0:0,0:0:0:0:
112,168,120846,1,2,0:0:0:0:
20,32,121025,1,8,0:0:0:0:
24,116,121204,2,0,L|28:212,1,86,2|2,0:0|0:0,0:0:0:0:
232,184,121561,5,12,0:0:0:0:
104,296,121918,1,12,0:0:0:0:
104,296,122096,1,0,0:0:0:0:
104,296,122275,6,0,L|196:288,1,86,12|2,0:0|0:0,0:0:0:0:
44,236,122632,1,2,0:0:0:0:
208,268,122811,2,0,B|280:280|316:220|316:220|304:172,1,172,8|2,0:0|0:0,0:0:0:0:
428,112,123346,1,8,0:0:0:0:
460,192,123525,2,0,L|456:280,1,86,2|2,0:0|0:0,0:0:0:0:
288,192,123882,2,0,P|336:184|380:172,1,86,8|2,0:0|0:0,0:0:0:0:
252,108,124239,1,2,0:0:0:0:
440,80,124418,5,12,0:0:0:0:
436,60,124775,1,12,0:0:0:0:
432,40,125132,6,0,L|428:168,1,111.799994882202,4|0,0:0|0:0,0:0:0:0:
324,216,125668,1,0,0:0:0:0:
456,280,125846,2,0,P|408:280|340:296,1,111.799994882202,8|0,0:0|0:0,0:0:0:0:
364,372,126382,1,0,0:0:0:0:
392,236,126561,5,2,0:0:0:0:
212,268,126739,1,12,0:0:0:0:
280,184,126918,2,0,L|288:248,1,55.8999974411012,0|2,0:0|0:0,0:0:0:0:
180,108,127275,2,0,P|177:152|168:204,1,83.8499961616518,12|0,0:0|0:0,0:0:0:0:
164,208,127632,1,8,0:0:0:0:
76,160,127811,1,0,0:0:0:0:
232,248,127989,6,0,P|160:240|92:256,1,137.6,4|8,0:0|0:0,0:0:0:0:
268,164,128525,2,0,P|276:92|187:68,1,154.799995275879,4|2,0:0|0:0,0:0:0:0:
211,59,129061,1,8,0:0:0:0:
103,159,129239,6,0,B|87:231|107:311|107:311|80:276,1,197.800003772736,4|0,0:0|0:0,0:0:0:0:
80,276,129686,1,0,0:0:0:0:
80,276,129775,1,12,0:0:0:0:
80,276,130132,5,0,0:0:0:0:
200,204,130311,1,2,0:0:0:0:
228,340,130489,1,4,0:3:0:0:
228,340,130846,6,0,B|168:308|112:320|112:320|80:260,1,172,6|8,0:0|0:0,0:0:0:0:
60,132,131382,2,0,B|56:184|56:184|36:216,1,86,0|2,0:0|0:0,0:0:0:0:
156,188,131739,1,0,0:0:0:0:
40,112,131918,1,8,0:0:0:0:
144,72,132096,1,0,0:0:0:0:
240,128,132275,6,0,P|268:96|284:56,1,86,2|0,0:0|0:0,0:0:0:0:
144,196,132632,2,0,P|183:211|226:212,1,86,8|0,0:0|0:0,0:0:0:0:
380,156,132989,1,2,0:0:0:0:
380,156,133168,1,0,0:0:0:0:
344,332,133346,1,8,0:0:0:0:
304,256,133525,1,0,0:0:0:0:
304,256,133614,1,0,0:0:0:0:
304,256,133704,6,0,L|392:248,1,86,2|0,0:0|0:0,0:0:0:0:
252,336,134061,2,0,P|192:324|120:320,1,129,8|0,0:0|0:0,0:0:0:0:
100,312,134418,2,0,P|148:304|188:288,1,86,2|0,0:0|0:0,0:0:0:0:
8,240,134775,1,8,0:0:0:0:
8,240,134954,1,0,0:0:0:0:
92,112,135132,5,2,0:0:0:0:
92,112,135221,2,0,P|96:160|108:224,1,86,8|0,0:0|0:0,0:0:0:0:
92,188,135489,2,0,P|148:168|244:184,1,129,8|8,0:0|0:0,0:0:0:0:
240,184,135846,1,2,0:0:0:0:
340,236,136025,1,0,0:0:0:0:
268,324,136204,1,8,0:0:0:0:
280,144,136382,2,0,L|284:84,1,43,0|8,0:0|0:0,0:0:0:0:
208,160,136561,6,0,B|260:168|260:168|332:160|332:160|384:172,1,172,2|8,0:0|0:0,0:0:0:0:
284,72,137096,1,0,0:0:0:0:
212,256,137275,2,0,P|196:212|188:164,1,86,2|0,0:0|0:0,0:0:0:0:
152,24,137632,2,0,P|143:70|126:115,1,86,8|0,0:0|0:0,0:0:0:0:
16,196,137989,6,0,L|116:188,1,86,2|0,0:0|0:0,0:0:0:0:
56,116,138346,1,8,0:0:0:0:
128,264,138525,1,0,0:0:0:0:
204,100,138704,2,0,P|208:172|224:248,1,129,2|0,0:0|0:0,0:0:0:0:
208,216,139061,2,0,L|304:220,1,86,8|0,0:0|0:0,0:0:0:0:
484,224,139418,5,2,0:0:0:0:
432,324,139596,1,0,0:0:0:0:
384,124,139775,1,8,0:0:0:0:
384,124,139954,1,0,0:0:0:0:
404,208,140132,2,0,P|344:220|272:216,1,129,2|0,0:0|0:0,0:0:0:0:
256,208,140489,1,8,0:0:0:0:
200,324,140668,1,0,0:0:0:0:
200,324,140757,1,0,0:0:0:0:
200,324,140846,6,0,P|152:332|104:336,1,86,2|0,0:0|0:0,0:0:0:0:
16,252,141204,1,8,0:0:0:0:
156,208,141382,1,8,0:0:0:0:
177,193,141471,1,8,0:0:0:0:
192,173,141561,1,8,0:0:0:0:
200,148,141650,1,8,0:0:0:0:
199,123,141739,1,8,0:0:0:0:
189,99,141829,1,8,0:0:0:0:
171,80,141918,1,8,0:0:0:0:
149,68,142007,1,8,0:0:0:0:
123,64,142096,1,8,0:0:0:0:
98,70,142186,1,8,0:0:0:0:
76,83,142275,6,0,L|84:268,1,172,6|8,0:0|0:0,0:0:0:0:
0,232,142811,1,0,0:0:0:0:
188,216,142989,2,0,L|288:208,1,86,2|0,0:0|0:0,0:0:0:0:
136,300,143346,1,8,0:0:0:0:
176,112,143525,2,0,P|176:152|184:200,1,86,0|2,0:0|0:0,0:0:0:0:
256,148,143882,5,0,0:0:0:0:
80,104,144061,1,8,0:0:0:0:
204,16,144239,2,0,P|204:56|196:104,1,86,0|2,0:0|0:0,0:0:0:0:
92,140,144596,1,0,0:0:0:0:
280,168,144775,1,8,0:0:0:0:
216,224,144954,1,0,0:0:0:0:
372,156,145132,6,0,P|456:168|452:276,1,172,2|8,0:0|0:0,0:0:0:0:
444,108,145668,1,0,0:0:0:0:
328,256,145846,2,0,P|282:252|229:233,1,86,2|0,0:0|0:0,0:0:0:0:
196,168,146204,1,8,0:0:0:0:
272,340,146382,1,0,0:0:0:0:
324,140,146561,5,2,0:0:0:0:
280,216,146739,1,0,0:0:0:0:
280,216,146829,1,0,0:0:0:0:
280,216,146918,1,12,0:0:0:0:
280,216,147275,6,0,P|212:224|188:232,1,86,12|0,0:0|0:0,0:0:0:0:
88,304,147543,2,0,B|80:264|80:264|84:220|84:220|75:163,1,129,8|8,0:0|0:0,0:0:0:0:
64,52,147989,5,6,0:0:0:0:
8,116,148168,1,0,0:0:0:0:
204,144,148346,2,0,L|112:152,1,86,8|0,0:0|0:0,0:0:0:0:
268,80,148704,2,0,P|332:84|400:108,1,129,2|0,0:0|0:0,0:0:0:0:
408,120,149061,2,0,L|400:212,1,86,8|0,0:0|0:0,0:0:0:0:
340,40,149418,5,2,0:0:0:0:
460,168,149596,1,0,0:0:0:0:
264,208,149775,2,0,L|272:300,1,86,8|0,0:0|0:0,0:0:0:0:
100,212,150132,2,0,P|144:192|232:192,1,129,2|0,0:0|0:0,0:0:0:0:
244,196,150489,2,0,L|236:110,1,86,8|0,0:0|0:0,0:0:0:0:
228,24,150846,5,2,0:0:0:0:
152,104,151025,1,0,0:0:0:0:
332,120,151204,1,8,0:0:0:0:
332,120,151382,1,0,0:0:0:0:
252,220,151561,2,0,L|392:212,1,129,2|0,0:0|0:0,0:0:0:0:
400,196,151918,2,0,L|312:184,1,86,8|0,0:0|0:0,0:0:0:0:
508,284,152275,6,0,L|412:300,1,86,2|0,0:0|0:0,0:0:0:0:
252,316,152632,1,8,0:0:0:0:
288,208,152811,2,0,L|300:264,2,43,0|8|2,0:0|0:0|0:0,0:0:0:0:
208,240,153168,1,0,0:0:0:0:
128,100,153346,2,0,P|124:152|116:192,1,86,8|0,0:0|0:0,0:0:0:0:
8,64,153704,6,0,B|56:56|56:56|100:60|100:60|184:44,1,172,2|8,0:0|0:0,0:0:0:0:
332,100,154239,1,0,0:0:0:0:
188,152,154418,2,0,P|176:107|171:59,1,86,2|0,0:0|0:0,0:0:0:0:
280,192,154775,2,0,P|272:236|255:282,1,86,8|0,0:0|0:0,0:0:0:0:
120,316,155132,6,0,P|152:260|244:300,1,172,2|8,0:0|0:0,0:0:0:0:
72,224,155668,1,0,0:0:0:0:
248,184,155846,2,0,P|260:140|268:88,1,86,2|0,0:0|0:0,0:0:0:0:
432,176,156204,1,8,0:0:0:0:
432,176,156382,1,0,0:0:0:0:
252,212,156561,5,2,0:0:0:0:
376,288,156739,2,0,L|280:300,1,86,0|8,0:0|0:0,0:0:0:0:
112,268,157096,1,0,0:0:0:0:
188,312,157275,2,0,P|199:268|204:216,1,86,2|0,0:0|0:0,0:0:0:0:
140,96,157632,2,0,P|128:139|124:192,1,86,8|0,0:0|0:0,0:0:0:0:
288,124,157989,6,0,P|352:112|392:168,1,129,2|0,0:0|0:0,0:0:0:0:
380,176,158346,2,0,L|384:88,1,86,8|0,0:0|0:0,0:0:0:0:
292,216,158704,1,2,0:0:0:0:
388,292,158882,1,0,0:0:0:0:
388,292,158971,1,0,0:0:0:0:
388,292,159061,2,0,L|336:300,1,43,8|0,0:0|0:0,0:0:0:0:
240,320,159239,1,8,0:0:0:0:
240,320,159329,1,8,0:0:0:0:
240,320,159418,6,0,B|112:308|112:308|96:244,1,172,6|8,0:0|0:0,0:0:0:0:
84,152,159954,1,0,0:0:0:0:
184,268,160132,2,0,P|180:225|172:182,1,86,2|0,0:0|0:0,0:0:0:0:
40,220,160489,1,8,0:0:0:0:
164,160,160668,1,0,0:0:0:0:
96,84,160846,6,0,L|276:72,1,172,2|8,0:0|0:0,0:0:0:0:
252,176,161382,1,0,0:0:0:0:
384,112,161561,2,0,L|388:204,1,86,2|0,0:0|0:0,0:0:0:0:
292,72,161918,1,8,0:0:0:0:
468,40,162096,1,0,0:0:0:0:
468,40,162186,1,0,0:0:0:0:
468,40,162275,6,0,L|376:28,1,86,2|0,0:0|0:0,0:0:0:0:
448,200,162632,2,0,L|356:212,1,86,8|0,0:0|0:0,0:0:0:0:
192,232,162989,1,4,0:3:0:0:
280,300,163168,1,0,0:0:0:0:
280,300,163257,1,8,0:0:0:0:
280,300,163346,1,8,0:0:0:0:
352,124,163525,6,0,L|172:116,1,172,2|2,0:0|0:0,0:0:0:0:
24,168,164061,1,8,0:0:0:0:
24,168,164418,5,0,0:0:0:0:
24,157,164507,1,0,0:0:0:0:
25,146,164596,1,0,0:0:0:0:
26,135,164686,1,0,0:0:0:0:
27,125,164775,1,8,0:0:0:0:
27,125,165132,6,0,L|168:136,1,129,6|0,0:0|0:0,0:0:0:0:
232,172,165846,2,0,P|288:156|368:156,1,129
444,168,166561,2,0,P|392:132|400:72,1,129
468,168,167275,2,0,L|464:264,1,86
464,253,167811,1,0,0:0:0:0:
296,220,167989,6,0,L|304:352,1,129,2|0,0:0|0:0,0:0:0:0:
303,348,168704,1,0,0:0:0:0:
100,312,169061,1,0,0:0:0:0:
100,312,169239,2,0,L|8:324,1,86
128,232,169775,2,0,L|232:240,2,86,0|0|0,0:0|0:0|0:0,0:0:0:0:
280,152,170846,6,0,P|324:104|296:40,1,129,2|0,0:0|0:0,0:0:0:0:
224,24,171561,2,0,L|88:32,1,129
24,80,172275,1,2,0:0:0:0:
24,80,172632,1,0,0:0:0:0:
24,80,172989,2,0,L|120:76,1,86,2|0,0:0|0:0,0:0:0:0:
236,152,173525,1,0,0:0:0:0:
236,152,173704,6,0,L|140:148,2,86,2|0|0,0:0|0:0|0:0,0:0:0:0:
236,152,174775,1,0,0:0:0:0:
288,252,174954,1,0,0:0:0:0:
352,108,175132,6,0,L|368:292,1,172,6|8,0:0|0:0,0:0:0:0:
512,224,175668,2,0,P|472:168|376:192,1,172,6|2,0:0|0:0,0:0:0:0:
312,332,176204,1,8,0:0:0:0:
312,332,176561,6,0,L|220:320,1,86,6|0,0:0|0:0,0:0:0:0:
60,284,176918,2,0,L|156:272,1,86,8|0,0:0|0:0,0:0:0:0:
276,192,177275,1,2,0:0:0:0:
276,192,177454,1,0,0:0:0:0:
180,60,177632,2,0,L|172:160,1,86,8|0,0:0|0:0,0:0:0:0:
356,148,177989,6,0,P|284:104|204:140,1,172,2|8,0:0|0:0,0:0:0:0:
352,16,178525,1,0,0:0:0:0:
352,16,178614,1,0,0:0:0:0:
352,16,178704,2,0,L|360:124,1,86,2|0,0:0|0:0,0:0:0:0:
472,269,179061,2,0,L|480:184,1,86,8|0,0:0|0:0,0:0:0:0:
252,232,179418,6,0,L|424:220,1,172,6|8,0:0|0:0,0:0:0:0:
212,148,179954,2,0,B|348:136|348:136|316:104,1,172,6|2,0:0|0:0,0:0:0:0:
252,64,180489,1,8,0:0:0:0:
148,264,180668,6,0,P|144:168|128:92,1,172,6|2,0:0|0:0,0:0:0:0:
40,208,181204,1,8,0:0:0:0:
176,160,181382,1,2,0:0:0:0:
204,154,181471,1,0,0:0:0:0:
232,152,181561,2,0,L|288:160,1,43,8|2,0:0|0:0,0:0:0:0:
360,140,181739,2,0,L|416:148,1,43,8|2,0:0|0:0,0:0:0:0:
374,233,181918,1,2,0:0:0:0:
363,235,182008,1,2,0:0:0:0:
353,236,182097,1,2,0:0:0:0:
342,238,182186,1,2,0:0:0:0:
332,240,182275,6,0,P|408:232|428:332,2,172,6|8|2,0:0|0:0|0:0,0:0:0:0:
236,328,183168,1,0,0:0:0:0:
244,140,183346,1,8,0:0:0:0:
136,228,183525,6,0,P|60:236|40:136,1,172,6|2,0:0|0:0,0:0:0:0:
140,76,184061,1,8,0:0:0:0:
140,76,184239,2,0,L|48:68,1,86,0|2,0:0|0:0,0:0:0:0:
240,32,184596,1,0,0:0:0:0:
224,192,184775,1,8,0:0:0:0:
288,136,184954,1,0,0:0:0:0:
356,312,185132,6,0,P|344:224|384:152,1,172,6|8,0:0|0:0,0:0:0:0:
444,212,185668,1,0,0:0:0:0:
288,256,185846,1,2,0:0:0:0:
288,256,186025,1,0,0:0:0:0:
288,256,186204,1,2,0:0:0:0:
244,80,186382,1,8,0:0:0:0:
244,80,187096,5,2,0:0:0:0:
235,99,187186,1,2,0:0:0:0:
222,117,187275,1,2,0:0:0:0:
207,131,187364,1,2,0:0:0:0:
188,142,187454,1,2,0:0:0:0:
168,148,187543,1,2,0:0:0:0:
146,150,187632,1,2,0:0:0:0:
125,148,187721,1,2,0:0:0:0:
105,141,187811,1,2,0:0:0:0:
86,130,187900,1,2,0:0:0:0:
71,115,187989,6,0,L|80:288,1,172,6|8,0:0|0:0,0:0:0:0:
79,286,188525,1,0,0:0:0:0:
212,328,188704,2,0,P|260:316|296:288,1,86,2|0,0:0|0:0,0:0:0:0:
168,228,189061,1,8,0:0:0:0:
300,276,189239,1,0,0:0:0:0:
300,276,189329,1,0,0:0:0:0:
300,276,189418,6,0,L|308:188,1,86,2|0,0:0|0:0,0:0:0:0:
356,32,189775,2,0,L|368:128,1,86,8|0,0:0|0:0,0:0:0:0:
392,280,190132,1,2,0:0:0:0:
312,168,190311,1,0,0:0:0:0:
192,312,190489,1,8,0:0:0:0:
280,260,190668,1,0,0:0:0:0:
104,220,190846,6,0,L|196:208,1,86,2|0,0:0|0:0,0:0:0:0:
12,316,191204,2,0,L|104:304,1,86,8|0,0:0|0:0,0:0:0:0:
24,140,191561,1,2,0:0:0:0:
108,160,191739,1,0,0:0:0:0:
28,36,191918,2,0,L|120:24,1,86,8|0,0:0|0:0,0:0:0:0:
264,124,192275,5,0,0:0:0:0:
200,20,192454,1,0,0:0:0:0:
116,128,192632,2,0,P|124:184|144:224,1,86,8|0,0:0|0:0,0:0:0:0:
272,264,192989,1,2,0:0:0:0:
300,253,193079,1,0,0:0:0:0:
329,255,193168,1,0,0:0:0:0:
357,246,193257,1,0,0:0:0:0:
387,248,193346,2,0,P|401:207|404:164,1,86,8|0,0:0|0:0,0:0:0:0:
372,84,193704,5,2,0:0:0:0:
476,208,193882,1,0,0:0:0:0:
492,116,194061,1,8,0:0:0:0:
292,168,194239,1,0,0:0:0:0:
372,328,194418,2,0,P|328:340|276:344,1,86,2|0,0:0|0:0,0:0:0:0:
160,240,194775,2,0,P|204:247|253:266,1,86,8|0,0:0|0:0,0:0:0:0:
184,324,195132,5,2,0:0:0:0:
76,188,195311,2,0,B|72:236|72:236|84:272|84:272|80:368,1,172
80,357,195757,1,0,0:0:0:0:
80,357,195846,1,2,0:0:0:0:
4,312,196025,1,0,0:0:0:0:
176,228,196204,1,8,0:0:0:0:
176,228,196382,1,0,0:0:0:0:
108,176,196561,5,2,0:0:0:0:
248,136,196739,1,0,0:0:0:0:
160,28,196918,2,0,B|152:52|152:52|164:120,1,86,8|0,0:0|0:0,0:0:0:0:
162,111,197186,1,0,0:0:0:0:
162,111,197275,1,2,0:0:0:0:
296,52,197454,1,0,0:0:0:0:
296,52,197543,1,0,0:0:0:0:
296,52,197632,2,0,L|356:60,3,43,8|0|0|0,0:0|0:0|0:0|0:0,0:0:0:0:
384,76,197989,5,6,0:0:0:0:
396,73,198079,1,0,0:0:0:0:
408,70,198168,1,0,0:0:0:0:
420,67,198257,1,0,0:0:0:0:
432,64,198346,1,8,0:0:0:0:
312,148,198525,2,0,P|292:228|364:284,1,172,6|2,0:0|0:0,0:0:0:0:
244,232,199061,1,8,0:0:0:0:
420,144,199239,1,8,0:0:0:0:
420,144,199329,1,8,0:0:0:0:
420,144,199418,6,0,L|332:136,1,86,6|0,0:0|0:0,0:0:0:0:
164,164,199775,2,0,P|208:148|248:116,1,86,8|0,0:0|0:0,0:0:0:0:
168,76,200132,1,2,0:0:0:0:
88,228,200311,2,0,L|76:128,2,86,0|8|0,0:0|0:0|0:0,0:0:0:0:
252,248,200846,6,0,P|168:220|96:256,1,172,2|8,0:0|0:0,0:0:0:0:
196,140,201382,2,0,L|204:196,2,43,0|0|2,0:0|0:0|0:0,0:0:0:0:
112,160,201739,1,0,0:0:0:0:
188,32,201918,2,0,L|180:120,1,86,8|0,0:0|0:0,0:0:0:0:
100,40,202275,5,2,0:0:0:0:
280,96,202454,1,0,0:0:0:0:
176,244,202632,1,8,0:0:0:0:
160,160,202811,1,0,0:0:0:0:
356,188,202989,2,0,L|368:96,1,86,2|0,0:0|0:0,0:0:0:0:
340,292,203346,1,8,0:0:0:0:
504,240,203525,2,0,P|456:248|404:252,1,86,0|2,0:0|0:0,0:0:0:0:
248,224,203882,5,0,0:0:0:0:
320,88,204061,1,8,0:0:0:0:
320,88,204150,1,0,0:0:0:0:
320,88,204239,1,0,0:0:0:0:
240,120,204418,2,0,P|220:80|212:32,1,86,2|0,0:0|0:0,0:0:0:0:
332,200,204775,2,0,P|329:244|312:290,1,86,8|0,0:0|0:0,0:0:0:0:
212,364,205132,5,2,0:0:0:0:
212,364,205251,2,0,L|144:352,1,57.3333333333333
36,308,205489,1,8,0:0:0:0:
36,308,205608,2,0,L|104:296,1,57.3333333333333
172,216,205846,1,2,0:0:0:0:
192,180,205966,1,0,0:0:0:0:
192,140,206085,1,0,0:0:0:0:
176,104,206204,1,8,0:0:0:0:
108,156,206382,1,0,0:0:0:0:
272,268,206561,6,0,L|194:280,2,57.3333333333333,2|0|0,0:0|0:0|0:0,0:0:0:0:
356,312,206918,1,8,0:0:0:0:
356,312,207037,2,0,L|352:376,1,57.3333333333333
432,260,207275,1,2,0:0:0:0:
432,260,207394,2,0,L|424:200,2,57.3333333333333,0|0|8,0:0|0:0|0:0,0:0:0:0:
432,260,207989,5,2,0:0:0:0:
467,228,208108,1,0,0:0:0:0:
475,182,208227,1,0,0:0:0:0:
453,141,208346,1,8,0:0:0:0:
410,122,208466,1,0,0:0:0:0:
365,133,208585,1,0,0:0:0:0:
336,170,208704,1,4,0:3:0:0:
312,320,208882,2,0,L|316:368,2,43,2|8|8,0:0|0:0|0:0,0:0:0:0:
268,124,209239,5,12,0:0:0:0:
168,200,209596,1,8,0:0:0:0:
84,108,209954,1,8,0:0:0:0:
84,108,210489,1,10,0:0:0:0:
256,192,210846,12,6,213704,0:0:0:0:
60,204,214418,6,0,L|160:192,1,86,0|2,0:0|0:0,0:0:0:0:
76,324,215132,2,0,L|176:336,1,86
288,320,215846,2,0,P|328:280|316:208,1,129
192,160,216561,6,0,B|276:180|276:180|372:136,1,172,2|0,0:0|0:0,0:0:0:0:
376,36,217632,1,2,0:0:0:0:
376,36,217989,6,0,L|388:216,1,172
232,152,219061,1,0,0:0:0:0:
232,152,219418,6,0,P|160:164|136:224,1,129,2|0,0:0|0:0,0:0:0:0:
168,308,220132,2,0,L|260:300,1,86
72,340,220846,6,0,L|64:236,1,86,2|0,0:0|0:0,0:0:0:0:
20,196,221382,2,0,P|16:128|48:68,1,129
42,74,222275,6,0,B|70:90|70:90|138:82,1,86,2|0,0:0|0:0,0:0:0:0:
232,40,222811,2,0,P|228:104|244:176,1,129
404,120,223704,5,2,0:0:0:0:
404,120,224061,1,0,0:0:0:0:
328,264,224418,1,0,0:0:0:0:
328,264,224596,1,0,0:0:0:0:
328,264,224775,1,4,0:3:0:0:
328,264,225132,6,0,P|256:256|236:316,1,129.00000492096,6|0,0:0|0:0,0:0:0:0:
400,216,225668,2,0,P|360:184|264:164,1,129.00000492096
156,200,226204,1,0,0:0:0:0:
156,200,226382,1,0,0:0:0:0:
156,200,226561,6,0,B|144:120|144:120|160:72,1,129.00000492096,6|0,0:0|0:0,0:0:0:0:
159,74,227096,1,0,0:0:0:0:
36,128,227275,2,0,L|112:140,1,64.5000024604798
248,184,227632,2,0,L|311:173,1,64.5000024604798
464,116,227989,6,0,L|300:96,1,146.200002788544,6|0,0:0|0:0,0:0:0:0:
348,256,228525,1,0,0:0:0:0:
208,208,228704,2,0,L|204:296,1,73.1000013942719,2|0,0:0|0:0,0:0:0:0:
48,200,229061,2,0,L|100:188,3,36.5500006971359,0|0|0|0,0:0|0:0|0:0|0:0,0:0:0:0:
104,184,229418,6,0,P|107:143|96:104,1,73.1000013942719,2|8,0:0|0:3,0:0:0:0:
40,28,229775,1,2,0:0:0:0:
24,32,229864,1,2,0:0:0:0:
168,40,230043,1,2,0:0:0:0:
152,36,230132,2,0,L|104:44,1,36.5500006971359,2|0,0:0|0:0,0:0:0:0:
247,126,230400,1,2,0:0:0:0:
271,122,230489,1,2,0:0:0:0:
291,108,230579,1,2,0:0:0:0:
303,88,230668,1,2,0:0:0:0:
306,64,230757,1,2,0:0:0:0:
298,41,230846,6,0,L|308:216,1,172,6|8,0:0|0:0,0:0:0:0:
420,168,231382,1,0,0:0:0:0:
224,220,231561,2,0,L|328:236,1,86,2|0,0:0|0:0,0:0:0:0:
476,272,231918,2,0,L|372:288,1,86,8|0,0:0|0:0,0:0:0:0:
220,312,232275,6,0,L|88:292,1,129,2|0,0:0|0:0,0:0:0:0:
68,284,232632,2,0,P|52:236|56:188,1,86,8|0,0:0|0:0,0:0:0:0:
236,152,232989,1,2,0:0:0:0:
236,152,233168,1,0,0:0:0:0:
152,12,233346,2,0,L|140:108,1,86,8|0,0:0|0:0,0:0:0:0:
308,92,233704,6,0,L|216:68,1,86,2|0,0:0|0:0,0:0:0:0:
372,160,234061,2,0,P|420:156|472:136,1,86,8|0,0:0|0:0,0:0:0:0:
272,220,234418,2,0,P|360:196|404:264,1,172,2|8,0:0|0:0,0:0:0:0:
396,336,234954,1,0,0:0:0:0:
216,312,235132,6,0,L|308:300,1,86,2|0,0:0|0:0,0:0:0:0:
272,220,235489,1,8,0:0:0:0:
144,360,235668,1,0,0:0:0:0:
144,360,235757,1,8,0:0:0:0:
144,360,235846,2,0,L|136:272,1,86,2|0,0:0|0:0,0:0:0:0:
120,100,236204,1,8,0:0:0:0:
28,200,236382,1,0,0:0:0:0:
28,200,236471,1,8,0:0:0:0:
28,200,236561,6,0,B|148:184|148:184|200:200,1,172,6|8,0:0|0:0,0:0:0:0:
268,296,237096,1,0,0:0:0:0:
388,196,237275,2,0,P|400:154|395:98,1,86,2|0,0:0|0:0,0:0:0:0:
228,100,237632,2,0,P|215:141|220:197,1,86,8|0,0:0|0:0,0:0:0:0:
392,92,237989,5,2,0:0:0:0:
320,140,238168,1,0,0:0:0:0:
496,176,238346,1,8,0:0:0:0:
368,228,238525,1,0,0:0:0:0:
368,228,238704,2,0,L|464:240,1,86,2|0,0:0|0:0,0:0:0:0:
292,156,239061,2,0,P|244:160|196:180,1,86,8|0,0:0|0:0,0:0:0:0:
116,296,239418,6,0,P|164:228|124:148,1,172,2|8,0:0|0:0,0:0:0:0:
12,240,239954,1,0,0:0:0:0:
192,228,240132,2,0,B|256:224|256:224|280:240,1,86,2|0,0:0|0:0,0:0:0:0:
244,344,240489,1,8,0:0:0:0:
400,284,240668,1,0,0:0:0:0:
400,284,240757,1,8,0:0:0:0:
400,284,240846,5,2,0:0:0:0:
340,160,241025,2,0,L|428:168,1,86,8|8,0:0|0:0,0:0:0:0:
508,180,241293,2,0,L|412:192,1,86,8|8,0:0|0:0,0:0:0:0:
340,240,241561,2,0,L|248:232,1,86,8|0,0:0|0:0,0:0:0:0:
176,196,241829,1,8,0:0:0:0:
176,196,241918,2,0,L|180:260,1,43,2|8,0:0|0:0,0:0:0:0:
144,132,242096,2,0,L|148:176,1,43,8|8,0:0|0:0,0:0:0:0:
112,68,242275,6,0,L|100:244,1,172,6|8,0:0|0:0,0:0:0:0:
264,192,242811,1,0,0:0:0:0:
220,120,242989,2,0,P|258:105|310:99,1,86,2|0,0:0|0:0,0:0:0:0:
468,88,243346,2,0,P|426:82|379:60,1,86,8|0,0:0|0:0,0:0:0:0:
292,188,243704,6,0,P|288:256|324:316,1,129,2|0,0:0|0:0,0:0:0:0:
332,316,244061,2,0,L|420:300,1,86,8|0,0:0|0:0,0:0:0:0:
236,356,244418,2,0,L|148:340,1,86,2|0,0:0|0:0,0:0:0:0:
8,308,244775,1,8,0:0:0:0:
68,372,244954,1,0,0:0:0:0:
120,192,245132,6,0,L|128:284,1,86,2|0,0:0|0:0,0:0:0:0:
32,168,245489,1,8,0:0:0:0:
224,152,245668,2,0,P|180:156|132:168,1,86,0|2,0:0|0:0,0:0:0:0:
60,196,246025,1,0,0:0:0:0:
124,36,246204,1,8,0:0:0:0:
232,180,246382,6,0,P|312:184|344:104,1,172,6|2,0:0|0:0,0:0:0:0:
392,312,246918,1,8,0:0:0:0:
392,312,247275,6,0,L|388:360,1,43,12|0,0:0|0:0,0:0:0:0:
412,244,247632,6,0,L|408:292,1,43,8|0,0:0|0:0,0:0:0:0:
432,176,247989,5,12,0:0:0:0:
444,260,248168,1,2,0:0:0:0:
316,176,248346,1,8,0:0:0:0:
305,260,248525,1,2,0:0:0:0:
408,156,248704,5,8,0:0:0:0:
320,284,248882,1,2,0:0:0:0:
240,104,249061,1,8,0:0:0:0:
300,184,249239,1,2,0:0:0:0:
80,148,249418,5,8,0:0:0:0:
72,232,249596,1,2,0:0:0:0:
8,92,249775,1,8,0:0:0:0:
212,128,249954,1,2,0:0:0:0:
168,56,250132,5,8,0:0:0:0:
104,244,250311,1,2,0:0:0:0:
324,208,250489,1,8,0:0:0:0:
204,160,250668,1,2,0:0:0:0:
432,128,250846,6,0,B|388:116|388:116|316:128|316:128|256:116,1,172,6|8,0:0|0:0,0:0:0:0:
352,24,251382,1,0,0:0:0:0:
456,148,251561,1,4,0:3:0:0:
455,158,251650,1,2,0:0:0:0:
454,169,251739,1,2,0:0:0:0:
453,180,251829,1,8,0:0:0:0:
452,190,251918,1,8,0:0:0:0:
416,340,252096,6,0,B|396:296|396:296|340:340|264:320,1,172,6|0,0:0|0:0,0:0:0:0:
160,208,252632,1,8,0:0:0:0:
256,192,252721,12,0,254061,0:0:0:0:
160,208,254329,6,0,L|164:40,1,154.799995275879
144,68,254954,6,0,P|212:120|296:84,1,172,6|0,0:0|0:0,0:0:0:0:
332,20,255489,1,8,0:0:0:0:
400,160,255668,2,0,L|412:68,1,86,0|2,0:0|0:0,0:0:0:0:
336,220,256025,2,0,P|344:268|368:312,1,86,0|8,0:0|0:0,0:0:0:0:
244,176,256382,1,0,0:0:0:0:
244,176,256561,6,0,P|240:264|228:348,1,172,2|8,0:0|0:0,0:0:0:0:
64,296,257096,1,0,0:0:0:0:
64,296,257186,1,0,0:0:0:0:
64,296,257275,1,2,0:0:0:0:
160,196,257454,1,0,0:0:0:0:
138,197,257543,1,0,0:0:0:0:
117,198,257632,1,8,0:0:0:0:
95,199,257721,1,0,0:0:0:0:
74,201,257811,1,0,0:0:0:0:
52,202,257900,1,0,0:0:0:0:
31,203,257989,6,0,P|-20:136|24:44,1,172,2|8,0:0|0:0,0:0:0:0:
168,80,258525,2,0,P|120:72|80:52,1,86,0|2,0:0|0:0,0:0:0:0:
248,136,258882,2,0,P|293:119|329:93,1,86,0|8,0:0|0:0,0:0:0:0:
188,64,259239,1,0,0:0:0:0:
224,240,259418,6,0,L|228:152,1,86,2|0,0:0|0:0,0:0:0:0:
152,132,259686,1,0,0:0:0:0:
140,144,259775,2,0,L|136:229,1,86,12|0,0:0|0:0,0:0:0:0:
280,308,260132,6,0,P|328:300|368:280,1,86,12|0,0:0|0:0,0:0:0:0:
240,172,260400,2,0,P|222:217|220:262,1,86,8|0,0:0|0:0,0:0:0:0:
377,205,260668,2,0,P|346:167|308:142,1,86,12|6,0:0|0:0,0:0:0:0:
296,136,261204,6,0,L|472:128,1,172,8|2,0:0|0:0,0:0:0:0:
392,40,261739,1,0,0:0:0:0:
280,160,261918,2,0,P|288:212|312:248,1,86,8|0,0:0|0:0,0:0:0:0:
324,252,262186,1,0,0:0:0:0:
324,252,262275,5,2,0:0:0:0:
196,200,262454,1,0,0:0:0:0:
204,352,262632,1,8,0:0:0:0:
52,256,262811,2,0,L|40:348,1,86,0|2,0:0|0:0,0:0:0:0:
4,156,263168,1,0,0:0:0:0:
4,156,263346,2,0,L|100:144,1,86,8|0,0:0|0:0,0:0:0:0:
248,100,263704,6,0,B|120:80|120:80|164:60,1,172,2|8,0:0|0:0,0:0:0:0:
232,188,264239,1,0,0:0:0:0:
232,188,264329,1,0,0:0:0:0:
232,188,264418,2,0,P|224:232|200:272,1,86,2|0,0:0|0:0,0:0:0:0:
268,72,264775,2,0,P|293:108|304:154,1,86,8|0,0:0|0:0,0:0:0:0:
272,308,265132,5,6,0:0:0:0:
204,256,265311,1,0,0:0:0:0:
400,232,265489,1,8,0:0:0:0:
244,96,265668,2,0,P|164:112|152:196,1,172,4|8,0:0|0:0,0:0:0:0:
164,212,266114,1,8,0:0:0:0:
164,212,266204,2,0,L|112:204,3,43,2|2|2|2,0:0|0:0|0:0|0:0,0:0:0:0:
164,212,266561,6,0,B|32:224|32:224|0:180,1,172,6|8,0:0|0:0,0:0:0:0:
52,340,267096,2,0,P|72:296|76:252,1,86,0|2,0:0|0:0,0:0:0:0:
108,116,267454,2,0,P|120:162|146:198,1,86,0|8,0:0|0:0,0:0:0:0:
276,232,267811,1,0,0:0:0:0:
276,232,267900,1,8,0:0:0:0:
276,232,267989,5,2,0:0:0:0:
232,156,268168,1,0,0:0:0:0:
392,172,268346,2,0,L|400:80,1,86,8|0,0:0|0:0,0:0:0:0:
300,196,268704,1,2,0:0:0:0:
460,276,268882,1,0,0:0:0:0:
439,270,268971,1,0,0:0:0:0:
418,267,269061,1,8,0:0:0:0:
396,267,269150,1,0,0:0:0:0:
375,270,269239,1,0,0:0:0:0:
354,275,269329,1,0,0:0:0:0:
334,284,269418,6,0,P|288:296|244:292,1,86,2|0,0:0|0:0,0:0:0:0:
168,268,269775,1,8,0:0:0:0:
228,116,269954,2,0,L|236:224,1,86,0|2,0:0|0:0,0:0:0:0:
72,224,270311,2,0,L|65:138,1,86,0|8,0:0|0:0,0:0:0:0:
136,52,270668,1,0,0:0:0:0:
284,156,270846,6,0,P|328:144|368:112,1,86,2|0,0:0|0:0,0:0:0:0:
360,120,271114,1,0,0:0:0:0:
360,120,271204,1,12,0:0:0:0:
248,52,271382,1,0,0:0:0:0:
190,212,271561,6,0,P|172:173|169:131,1,86,12|0,0:0|0:0,0:0:0:0:
350,187,271829,2,0,P|326:222|292:248,1,86,8|0,0:0|0:0,0:0:0:0:
250,62,272096,2,0,P|293:65|332:84,1,86,12|6,0:0|0:0,0:0:0:0:
250,62,272632,5,8,0:0:0:0:
250,62,272811,1,0,0:0:0:0:
168,172,272989,2,0,L|160:80,1,86,2|0,0:0|0:0,0:0:0:0:
40,184,273346,2,0,P|48:236|64:268,1,86,8|0,0:0|0:0,0:0:0:0:
188,304,273704,6,0,L|368:292,1,172,2|8,0:0|0:0,0:0:0:0:
268,168,274239,1,0,0:0:0:0:
268,168,274329,1,8,0:0:0:0:
268,168,274418,2,0,B|264:212|264:212|276:264,1,86,2|0,0:0|0:0,0:0:0:0:
344,204,274775,1,8,0:0:0:0:
180,128,274954,1,0,0:0:0:0:
320,28,275132,6,0,L|328:128,1,86,2|0,0:0|0:0,0:0:0:0:
428,64,275489,1,8,0:0:0:0:
232,44,275668,1,0,0:0:0:0:
344,136,275846,2,0,L|248:152,1,86,2|0,0:0|0:0,0:0:0:0:
80,176,276204,2,0,L|176:192,1,86,12|0,0:0|0:0,0:0:0:0:
24,92,276561,6,0,P|36:184|20:268,1,172,6|8,0:0|0:0,0:0:0:0:
184,184,277096,2,0,P|264:176|284:280,1,172,6|2,0:0|0:0,0:0:0:0:
120,312,277632,1,8,0:0:0:0:
120,312,277989,6,0,P|120:248|112:184,1,129.00000492096,2|0,0:0|0:0,0:0:0:0:
236,132,278544,2,0,P|176:136|152:80,1,129.00000492096,2|0,0:0|0:0,0:0:0:0:
152,79,279285,6,0,L|288:76,1,129.00000492096,2|0,0:0|0:0,0:0:0:0:
352,148,279840,1,0,0:0:0:0:
412,56,280026,2,0,B|404:128|404:128|424:188,1,129.00000492096,2|0,0:0|0:0,0:0:0:0:
421,181,280581,1,0,0:0:0:0:
421,181,280951,6,0,P|396:120|332:128,1,129.00000492096,2|0,0:0|0:0,0:0:0:0:
236,184,281507,1,2,0:0:0:0:
236,184,281877,1,0,0:0:0:0:
236,184,282063,1,0,0:0:0:0:
236,184,282248,6,0,L|244:336,1,129.00000492096,2|0,0:0|0:0,0:0:0:0:
296,256,282803,1,0,0:0:0:0:
152,268,282989,1,2,0:0:0:0:
296,256,283359,5,0,0:0:0:0:
196,236,283544,1,0,0:0:0:0:
296,256,283914,6,0,L|428:244,1,129.00000492096,2|0,0:0|0:0,0:0:0:0:
416,136,284470,2,0,L|287:147,1,129.00000492096,2|0,0:0|0:0,0:0:0:0:
287,147,285211,6,0,P|340:112|316:36,1,129.00000492096,2|0,0:0|0:0,0:0:0:0:
246,15,285766,1,0,0:0:0:0:
172,76,285951,2,0,L|180:208,1,129.00000492096,2|0,0:0|0:0,0:0:0:0:
179,204,286507,1,0,0:0:0:0:
179,204,286877,6,0,L|116:196,2,64.5000024604798,2|0|0,0:0|0:0|0:0,0:0:0:0:
236,276,287433,2,0,L|108:292,1,129.00000492096,2|0,0:0|0:0,0:0:0:0:
108,292,287989,1,0,0:0:0:0:
32,248,288174,6,0,P|0:192|24:132,1,129.00000492096,2|0,0:0|0:0,0:0:0:0:
88,96,288729,1,0,0:0:0:0:
160,132,288914,1,2,0:0:0:0:
256,192,289285,12,0,292989,0:0:0:0:
