osu file format v14

[General]
AudioFilename: Song_starlog.mp3
AudioLeadIn: 1100
PreviewTime: 230132
Countdown: 0
SampleSet: Soft
StackLeniency: 0.7
Mode: 0
LetterboxInBreaks: 1
WidescreenStoryboard: 0

[Editor]
Bookmarks: 205136,209958,213708,225136,247993,250672
DistanceSpacing: 1
BeatDivisor: 4
GridSize: 4
TimelineZoom: 2.4

[Metadata]
Title:starlog
TitleUnicode:starlog
Artist:ChouCho
ArtistUnicode:ChouCho
Creator:Karia
Version:Hard
Source:Fate/kaleid liner PRISMA☆ILLYA
Tags:Full Version opening Prismaillya Illyasviel von Einzbern Miyu Edelfelt Kadowaki Mai Nazuka Kaori プリズマ☆イリヤ Kocari ちょうちょ
BeatmapID:567200
BeatmapSetID:244684

[Difficulty]
HPDrainRate:6
CircleSize:4
OverallDifficulty:6
ApproachRate:7.5
SliderMultiplier:1.5
SliderTickRate:1

[Events]
//Background and Video events
0,0,"BG.jpg",0,0
//Break Periods
2,213904,224307
//Storyboard Layer 0 (Background)
//Storyboard Layer 1 (Fail)
//Storyboard Layer 2 (Pass)
//Storyboard Layer 3 (Foreground)
//Storyboard Sound Samples

[TimingPoints]
847,357.142857142857,4,2,1,30,1,0
847,-133.333333333333,4,2,1,30,0,0
4418,-100,4,2,2,50,0,0
5132,-100,4,2,2,65,0,0
16561,-133.333333333333,4,2,2,40,0,0
26561,-133.333333333333,4,2,1,30,0,0
27632,-100,4,2,2,50,0,0
27989,-100,4,2,2,55,0,0
45132,-153.846153846154,4,2,2,55,0,0
47989,-125,4,2,2,55,0,0
48525,-111.111111111111,4,2,2,55,0,0
49239,-100,4,2,2,65,0,0
50132,-125,4,2,2,45,0,0
50846,-100,4,2,2,75,0,1
66918,-100,4,2,2,75,0,0
67275,-100,4,2,2,75,0,1
67364,-100,4,2,2,75,0,0
67989,-100,4,2,2,75,0,1
84061,-100,4,2,2,75,0,0
84418,-100,4,2,1,75,0,0
84954,-100,4,2,1,40,0,0
85132,-153.846153846154,4,2,2,40,0,0
90846,-117.647058823529,4,2,2,50,0,0
93704,-100,4,2,2,50,0,0
96561,-133.333333333333,4,2,4,40,0,0
106561,-100,4,2,1,30,0,0
107632,-100,4,2,1,40,0,0
107989,-100,4,2,2,55,0,0
125132,-153.846153846154,4,2,2,55,0,0
127989,-125,4,2,2,55,0,0
128525,-111.111111111111,4,2,2,55,0,0
129239,-100,4,2,2,55,0,0
130846,-100,4,2,2,75,0,1
146918,-100,4,2,2,75,0,0
147275,-100,4,2,2,75,0,1
147364,-100,4,2,2,75,0,0
147989,-100,4,2,2,75,0,1
164061,-100,4,2,2,75,0,0
164418,-100,4,2,2,65,0,0
165132,-200,4,2,2,60,0,0
165221,-200,4,2,2,40,0,0
167989,-200,4,2,1,40,0,0
175132,-117.647058823529,4,2,2,50,0,0
176561,-100,4,2,2,50,0,0
187989,-100,4,2,2,60,0,1
188079,-100,4,2,2,60,0,0
210846,-133.333333333333,4,2,2,40,0,0
225132,-133.333333333333,4,2,2,50,0,0
227989,-117.647058823529,4,2,2,60,0,0
230846,-100,4,2,2,75,0,1
252632,-100,4,2,2,75,0,0
254329,-166.666666666667,4,2,2,25,0,0
254954,-100,4,2,2,65,0,0
277989,370.37037037037,4,2,2,45,1,0
277989,-133.333333333333,4,2,2,45,0,0
280951,-133.333333333333,4,2,1,30,0,0
283914,-133.333333333333,4,2,2,45,0,0
286877,-133.333333333333,4,2,1,30,0,0
291692,-133.333333333333,4,2,1,15,0,0

[Colours]
Combo1 : 255,189,157
Combo2 : 255,255,176
Combo3 : 255,181,255
Combo4 : 185,255,255

[HitObjects]
100,160,847,6,0,L|228:152,1,112.500004291535,2|0,0:0|0:0,0:0:0:0:
275,202,1382,2,0,P|283:258|271:318,1,112.500004291535,2|2,0:0|0:0,0:0:0:0:
420,360,2275,6,0,P|452:360|492:344,2,56.2500021457673,2|0|0,0:0|0:0|0:0,0:0:0:0:
352,316,2811,2,0,L|340:192,1,112.500004291535,2|0,0:0|0:0,0:0:0:0:
376,224,4418,6,0,L|367:172,3,37.5,8|4|0|0,0:0|0:3|0:0|0:0,0:0:0:0:
392,168,4775,2,0,L|384:120,3,37.5,12|0|0|0,0:0|0:0|0:0|0:0,0:0:0:0:
416,136,5132,6,0,P|488:140|500:60,1,150,6|8,0:0|0:0,0:0:0:0:
456,20,5668,2,0,L|376:28,1,75,0|2,0:0|0:0,0:0:0:0:
312,60,6025,2,0,L|232:68,1,75,0|8,0:0|0:0,0:0:0:0:
168,100,6382,1,0,0:0:0:0:
132,36,6561,6,0,B|128:88|128:88|140:128|140:128|136:188,1,150,2|8,0:0|0:0,0:0:0:0:
188,236,7096,2,0,P|232:228|276:224,1,75,0|2,0:0|0:0,0:0:0:0:
348,256,7454,1,0,0:0:0:0:
348,256,7543,1,0,0:0:0:0:
348,256,7632,2,0,L|352:208,3,37.5,8|0|0|0,0:0|0:0|0:0|0:0,0:0:0:0:
380,196,7989,6,0,L|372:120,2,75,2|0|8,0:0|0:0|0:0,0:0:0:0:
436,244,8525,2,0,P|432:292|420:328,1,75,0|2,0:0|0:0,0:0:0:0:
356,352,8882,2,0,L|264:348,1,75,0|8,0:0|0:0,0:0:0:0:
224,300,9239,1,0,0:0:0:0:
184,364,9418,6,0,L|176:212,1,150,2|12,0:0|0:0,0:0:0:0:
272,100,10132,2,0,P|316:96|388:120,2,112.5,12|8|8,0:0|0:0|0:0,0:0:0:0:
192,144,10846,6,0,P|152:143|120:132,1,75,6|0,0:0|0:0,0:0:0:0:
36,124,11204,2,0,P|43:160|61:192,1,75,8|0,0:0|0:0,0:0:0:0:
64,48,11561,2,0,L|220:40,1,150,2|8,0:0|0:0,0:0:0:0:
284,64,12096,1,0,0:0:0:0:
352,32,12275,6,0,P|364:68|364:116,1,75,2|0,0:0|0:0,0:0:0:0:
296,160,12632,2,0,P|325:136|370:119,1,75,8|0,0:0|0:0,0:0:0:0:
436,128,12989,2,0,L|444:288,2,150,2|8|2,0:0|0:0|0:0,0:0:0:0:
488,72,13882,5,0,0:0:0:0:
416,56,14061,2,0,P|380:64|336:68,1,75,8|0,0:0|0:0,0:0:0:0:
268,72,14418,2,0,B|220:72|188:52|188:52|160:84|104:80,1,150,2|8,0:0|0:0,0:0:0:0:
56,64,14954,2,0,L|52:24,2,37.5,8|8|6,0:0|0:0|0:0,0:0:0:0:
24,132,15311,6,0,P|28:172|44:216,1,75,0|8,0:0|0:0,0:0:0:0:
136,164,15668,2,0,P|208:152|244:232,1,150,6|8,0:0|0:0,0:0:0:0:
246,209,16114,1,8,0:0:0:0:
246,209,16204,1,8,0:0:0:0:
246,209,16561,6,0,B|236:136|236:136|264:88,1,112.500004291535,2|2,0:0|0:0,0:0:0:0:
320,68,17096,1,0,0:0:0:0:
360,132,17275,2,0,L|440:128,1,56.2500021457673,2|0,0:0|0:0,0:0:0:0:
416,204,17632,2,0,L|360:208,1,56.2500021457673,2|0,0:0|0:0,0:0:0:0:
424,280,17989,6,0,L|311:287,1,112.500004291535,2|2,0:0|0:0,0:0:0:0:
244,316,18525,1,0,0:0:0:0:
244,316,18704,2,0,L|180:308,1,56.2500021457673,2|0,0:0|0:0,0:0:0:0:
128,268,19061,2,0,L|64:276,1,56.2500021457673,2|0,0:0|0:0,0:0:0:0:
196,232,19418,6,0,P|200:172|188:112,1,112.500004291535,2|2,0:0|0:0,0:0:0:0:
136,72,19954,1,0,0:0:0:0:
136,72,20132,2,0,P|104:80|68:84,1,56.2500021457673,2|0,0:0|0:0,0:0:0:0:
44,148,20489,2,0,P|71:153|99:156,1,56.2500021457673,2|0,0:0|0:0,0:0:0:0:
128,224,20846,6,0,P|72:236|4:240,2,112.500004291535,2|2|2,0:0|0:0|0:0,0:0:0:0:
184,176,21739,1,0,0:0:0:0:
248,212,21918,2,0,L|244:256,2,28.1250010728836,2|0|0,0:0|0:0|0:0,0:0:0:0:
316,188,22275,5,2,0:0:0:0:
316,188,22632,2,0,L|308:128,1,56.2500021457673,2|0,0:0|0:0,0:0:0:0:
380,112,22989,2,0,L|396:232,1,112.500004291535,2|2,0:0|0:0,0:0:0:0:
340,272,23525,1,0,0:0:0:0:
404,308,23704,6,0,L|468:300,1,56.2500021457673,2|0,0:0|0:0,0:0:0:0:
340,348,24061,2,0,L|284:340,1,56.2500021457673,2|0,0:0|0:0,0:0:0:0:
220,304,24418,2,0,P|196:256|212:192,1,112.500004291535,2|2,0:0|0:0,0:0:0:0:
268,160,24954,1,0,0:0:0:0:
268,160,25132,6,0,L|340:164,2,56.2500021457673,2|0|2,0:0|0:0|0:0,0:0:0:0:
204,124,25668,2,0,L|140:128,2,56.2500021457673,0|2|0,0:0|0:0|0:0,0:0:0:0:
268,88,26204,2,0,L|340:92,1,56.2500021457673,2|0,0:0|0:0,0:0:0:0:
396,96,26561,5,2,0:0:0:0:
396,96,27096,1,2,0:0:0:0:
396,96,27632,2,0,L|240:104,1,150,4|6,0:3|0:0,0:0:0:0:
246,103,28346,6,0,P|244:144|248:184,1,75,8|0,0:0|0:0,0:0:0:0:
208,244,28704,2,0,P|136:268|84:224,2,150,2|8|2,0:0|0:0|0:0,0:0:0:0:
260,188,29596,5,0,0:0:0:0:
292,256,29775,2,0,B|296:292|296:292|289:336,1,75,8|0,0:0|0:0,0:0:0:0:
364,348,30132,2,0,B|371:311|371:311|394:273,1,75,2|0,0:0|0:0,0:0:0:0:
464,304,30489,2,0,B|456:340|456:340|433:378,1,75,8|0,0:0|0:0,0:0:0:0:
360,368,30846,6,0,L|204:352,1,150,2|8,0:0|0:0,0:0:0:0:
220,280,31382,1,0,0:0:0:0:
144,292,31561,2,0,P|132:256|132:212,1,75,2|0,0:0|0:0,0:0:0:0:
140,144,31918,2,0,P|129:180|103:216,1,75,8|0,0:0|0:0,0:0:0:0:
40,180,32275,6,0,P|50:143|76:107,1,75,2|0,0:0|0:0,0:0:0:0:
144,88,32632,2,0,L|296:100,1,150,8|2,0:0|0:0,0:0:0:0:
364,132,33168,1,0,0:0:0:0:
424,88,33346,1,8,0:0:0:0:
400,16,33525,2,0,L|360:12,2,37.5,2|2|2,0:0|0:0|0:0,0:0:0:0:
400,16,34061,6,0,P|404:64|416:100,1,75,8|0,0:0|0:0,0:0:0:0:
476,128,34418,2,0,P|472:176|460:212,1,75,2|0,0:0|0:0,0:0:0:0:
400,240,34775,2,0,L|320:232,1,75,8|0,0:0|0:0,0:0:0:0:
264,192,35132,6,0,B|164:204|164:204|112:176,1,150,2|8,0:0|0:0,0:0:0:0:
76,120,35668,1,0,0:0:0:0:
20,168,35846,2,0,B|12:204|12:204|20:248,1,75,2|0,0:0|0:0,0:0:0:0:
80,284,36204,2,0,L|160:276,1,75,8|0,0:0|0:0,0:0:0:0:
224,304,36561,6,0,L|388:284,2,150,2|8|2,0:0|0:0|0:0,0:0:0:0:
168,352,37454,1,0,0:0:0:0:
96,336,37632,2,0,P|80:300|76:256,1,75,8|0,0:0|0:0,0:0:0:0:
96,148,37989,6,0,P|156:104|240:144,1,150,6|8,0:0|0:0,0:0:0:0:
280,204,38525,1,0,0:0:0:0:
280,204,38704,2,0,B|276:320|276:320|320:300,1,150,6|8,0:0|0:0,0:0:0:0:
392,280,39239,1,0,0:0:0:0:
392,280,39329,1,0,0:0:0:0:
392,280,39418,6,0,L|472:284,2,75,12|2|2,0:0|0:0|0:0,0:0:0:0:
328,236,39954,2,0,P|300:172|352:116,1,150,8|0,0:0|0:0,0:0:0:0:
420,104,40489,2,0,L|504:112,2,75,8|2|2,0:0|0:0|0:0,0:0:0:0:
368,48,41025,2,0,L|200:60,1,150,8|2,0:0|0:0,0:0:0:0:
120,68,41561,5,12,0:0:0:0:
120,68,41918,1,12,0:0:0:0:
120,68,42275,6,0,B|136:160|136:160|120:216,1,150,12|2,0:0|0:0,0:0:0:0:
60,256,42811,2,0,L|-16:252,2,75,8|2|2,0:0|0:0|0:0,0:0:0:0:
128,288,43346,2,0,P|200:276|288:276,1,150,8|2,0:0|0:0,0:0:0:0:
320,336,43882,2,0,B|312:288|312:288|316:236|316:236|308:180,1,150,8|2,0:0|0:0,0:0:0:0:
292,92,44418,5,12,0:0:0:0:
292,92,44775,1,12,0:0:0:0:
292,92,45132,6,0,P|344:104|400:96,1,97.4999955368044,6|0,0:0|0:0,0:0:0:0:
456,72,45668,1,0,0:0:0:0:
456,72,45846,2,0,P|472:136|464:176,1,97.4999955368044,8|0,0:0|0:0,0:0:0:0:
436,232,46382,1,0,0:0:0:0:
364,248,46561,5,2,0:0:0:0:
364,248,46739,2,0,B|296:240|296:240|260:252,1,97.4999955368044,8|2,0:0|0:0,0:0:0:0:
200,280,47275,2,0,L|104:268,1,97.4999955368044,8|0,0:0|0:0,0:0:0:0:
140,192,47811,1,0,0:0:0:0:
140,192,47989,6,0,L|21:176,1,120,6|8,0:0|0:0,0:0:0:0:
4,76,48525,6,0,P|28:24|108:32,1,134.999995880127,6|0,0:0|0:0,0:0:0:0:
148,112,49061,1,8,0:0:0:0:
148,112,49239,6,0,L|140:264,1,150,6|0,0:0|0:0,0:0:0:0:
136,360,49775,1,8,0:0:0:0:
136,360,50132,6,0,L|204:352,1,60
248,292,50489,2,0,L|316:300,1,60,4|0,0:3|0:0,0:0:0:0:
392,296,50846,6,0,P|448:244|420:168,1,150,6|8,0:0|0:0,0:0:0:0:
356,148,51382,1,0,0:0:0:0:
276,172,51561,2,0,P|260:136|256:92,2,75,2|0|8,0:0|0:0|0:0,0:0:0:0:
336,228,52096,1,0,0:0:0:0:
256,252,52275,6,0,B|204:248|204:248|176:256,1,75,2|0,0:0|0:0,0:0:0:0:
104,280,52632,2,0,P|44:224|68:164,2,150,8|2|8,0:0|0:0|0:0,0:0:0:0:
176,240,53525,1,0,0:0:0:0:
176,324,53704,6,0,L|264:316,1,75,2|0,0:0|0:0,0:0:0:0:
332,300,54061,2,0,L|244:292,1,75,8|0,0:0|0:0,0:0:0:0:
356,224,54418,2,0,L|196:208,1,150,2|8,0:0|0:0,0:0:0:0:
132,176,54954,1,0,0:0:0:0:
201,129,55132,6,0,P|205:89|205:45,1,75,2|0,0:0|0:0,0:0:0:0:
288,60,55489,2,0,P|284:100|284:144,1,75,8|0,0:0|0:0,0:0:0:0:
364,124,55846,2,0,P|440:132|440:220,1,150,2|8,0:0|0:0,0:0:0:0:
428,272,56382,1,0,0:0:0:0:
428,272,56561,6,0,L|348:268,1,75,2|0,0:0|0:0,0:0:0:0:
432,356,56918,2,0,L|344:364,1,75,8|0,0:0|0:0,0:0:0:0:
276,340,57275,2,0,P|248:312|232:272,1,75,2|0,0:0|0:0,0:0:0:0:
228,196,57632,2,0,P|241:158|271:127,1,75,8|0,0:0|0:0,0:0:0:0:
312,236,57989,6,0,L|160:240,1,150,2|8,0:0|0:0,0:0:0:0:
84,212,58525,2,0,L|88:300,1,75,0|2,0:0|0:0,0:0:0:0:
4,288,58882,2,0,L|0:213,1,75,0|8,0:0|0:0,0:0:0:0:
28,136,59239,1,0,0:0:0:0:
28,136,59418,6,0,P|95:98|163:133,1,150,2|8,0:0|0:0,0:0:0:0:
196,196,59954,1,0,0:0:0:0:
156,268,60132,2,0,L|76:272,1,75,2|0,0:0|0:0,0:0:0:0:
168,356,60489,2,0,L|248:352,1,75,8|0,0:0|0:0,0:0:0:0:
336,264,60846,6,0,P|360:188|308:128,1,150,2|8,0:0|0:0,0:0:0:0:
240,124,61382,2,0,L|160:128,1,75,0|2,0:0|0:0,0:0:0:0:
84,128,61739,1,8,0:0:0:0:
84,128,61829,1,8,0:0:0:0:
84,128,61918,2,0,L|88:176,3,37.5,8|8|8|8,0:0|0:0|0:0|0:0,0:0:0:0:
68,202,62275,6,0,B|56:302|56:302|76:346,1,150,6|8,0:0|0:0,0:0:0:0:
156,324,62811,1,0,0:0:0:0:
228,364,62989,2,0,L|308:356,1,75,2|0,0:0|0:0,0:0:0:0:
304,272,63346,2,0,L|229:279,1,75,8|0,0:0|0:0,0:0:0:0:
144,216,63704,6,0,P|128:144|196:104,1,150,2|8,0:0|0:0,0:0:0:0:
100,112,64239,2,0,B|48:116|48:116|24:108,2,75,0|2|0,0:0|0:0|0:0,0:0:0:0:
176,84,64775,2,0,L|260:92,1,75,8|0,0:0|0:0,0:0:0:0:
328,120,65132,6,0,B|428:108|428:108|476:136,1,150,2|8,0:0|0:0,0:0:0:0:
492,212,65668,1,0,0:0:0:0:
496,128,65846,2,0,L|488:53,2,75,2|0|8,0:0|0:0|0:0,0:0:0:0:
468,204,66382,1,0,0:0:0:0:
388,188,66561,5,2,0:0:0:0:
312,220,66739,2,0,L|316:264,2,37.5,0|2|12,0:0|0:0|0:0,0:0:0:0:
312,220,67275,6,0,P|256:232|192:228,2,112.5,12|8|8,0:0|0:0|0:0,0:0:0:0:
376,164,67989,6,0,P|440:168|452:256,2,150,6|8|2,0:0|0:0|0:0,0:0:0:0:
304,204,68882,1,0,0:0:0:0:
224,184,69061,2,0,P|210:146|204:104,1,75,8|0,0:0|0:0,0:0:0:0:
224,32,69418,6,0,P|164:84|88:72,1,150,2|8,0:0|0:0,0:0:0:0:
28,32,69954,1,0,0:0:0:0:
4,112,70132,2,0,P|8:164|16:192,1,75,2|0,0:0|0:0,0:0:0:0:
76,240,70489,2,0,P|71:277|60:312,1,75,8|0,0:0|0:0,0:0:0:0:
0,256,70846,6,0,L|164:248,1,150,2|8,0:0|0:0,0:0:0:0:
196,180,71382,1,0,0:0:0:0:
236,252,71561,2,0,L|232:332,1,75,2|0,0:0|0:0,0:0:0:0:
308,360,71918,2,0,P|344:344|388:336,1,75,8|0,0:0|0:0,0:0:0:0:
460,332,72275,6,0,P|423:325|388:310,1,75,2|0,0:0|0:0,0:0:0:0:
324,256,72632,2,0,L|332:100,1,150,8|2,0:0|0:0,0:0:0:0:
376,176,73168,1,0,0:0:0:0:
292,176,73346,2,0,B|256:172|256:172|216:156,1,75,8|0,0:0|0:0,0:0:0:0:
204,144,73614,1,8,0:0:0:0:
204,144,73704,6,0,L|128:156,1,75,2|0,0:0|0:0,0:0:0:0:
48,164,74061,2,0,L|124:176,1,75,8|0,0:0|0:0,0:0:0:0:
8,232,74418,2,0,L|160:256,1,150,2|8,0:0|0:0,0:0:0:0:
236,232,74954,1,0,0:0:0:0:
268,308,75132,6,0,P|264:224|284:152,1,150,2|8,0:0|0:0,0:0:0:0:
360,120,75668,1,0,0:0:0:0:
360,120,75846,2,0,L|448:128,1,75,2|0,0:0|0:0,0:0:0:0:
344,16,76204,2,0,P|304:20|264:32,1,75,8|0,0:0|0:0,0:0:0:0:
220,140,76561,6,0,B|227:248|227:248|212:288,1,150,2|8,0:0|0:0,0:0:0:0:
144,332,77096,1,0,0:0:0:0:
92,268,77275,2,0,L|16:276,1,75,2|0,0:0|0:0,0:0:0:0:
28,356,77632,2,0,L|102:348,1,75,8|0,0:0|0:0,0:0:0:0:
180,316,77989,6,0,B|256:324|256:324|328:304,1,150,2|8,0:0|0:0,0:0:0:0:
392,256,78525,2,0,L|444:260,2,37.5,0|8|2,0:0|0:0|0:0,0:0:0:0:
332,200,78882,2,0,L|248:208,1,75,8|8,0:0|0:0,0:0:0:0:
176,188,79239,1,8,0:0:0:0:
176,188,79329,1,8,0:0:0:0:
176,188,79418,6,0,P|132:156|156:60,1,150,6|8,0:0|0:0,0:0:0:0:
76,120,79954,2,0,P|36:116|0:104,1,75,0|2,0:0|0:0,0:0:0:0:
20,24,80311,2,0,P|60:28|96:40,1,75,0|8,0:0|0:0,0:0:0:0:
164,80,80668,1,0,0:0:0:0:
236,39,80846,6,0,P|306:36|344:100,1,150,2|8,0:0|0:0,0:0:0:0:
316,176,81382,1,0,0:0:0:0:
384,224,81561,2,0,B|432:228|432:228|464:216,2,75,2|0|8,0:0|0:0|0:0,0:0:0:0:
308,196,82096,1,0,0:0:0:0:
320,276,82275,6,0,P|244:268|168:288,1,150,2|8,0:0|0:0,0:0:0:0:
108,336,82811,1,0,0:0:0:0:
32,304,82989,2,0,P|20:264|20:232,1,75,4|8,0:3|0:0,0:0:0:0:
24,208,83257,1,8,0:0:0:0:
24,208,83347,1,8,0:0:0:0:
140,232,83525,6,0,P|216:212|216:144,1,150,2|0,0:0|0:0,0:0:0:0:
144,116,84061,1,8,0:0:0:0:
144,116,84418,2,0,L|304:108,1,150,2|4,0:0|0:3,0:0:0:0:
376,128,84954,1,0,0:0:0:0:
376,128,85132,6,0,L|368:24,1,97.4999955368044,6|0,0:0|0:0,0:0:0:0:
456,28,85668,2,0,L|463:125,1,97.4999955368044,2|0,0:0|0:0,0:0:0:0:
320,224,86382,6,0,P|376:216|432:216,1,97.4999955368044,2|0,0:0|0:0,0:0:0:0:
427,303,86918,1,0,0:0:0:0:
427,303,87096,2,0,P|371:311|315:311,1,97.4999955368044,2|0,0:0|0:0,0:0:0:0:
248,280,87632,1,0,0:0:0:0:
248,280,87811,1,0,0:0:0:0:
248,280,87989,6,0,P|248:232|244:168,1,97.4999955368044,2|0,0:0|0:0,0:0:0:0:
192,112,88525,2,0,P|144:104|92:116,1,97.4999955368044,2|0,0:0|0:0,0:0:0:0:
288,68,89239,6,0,P|336:76|388:64,1,97.4999955368044,2|0,0:0|0:0,0:0:0:0:
460,24,89775,1,0,0:0:0:0:
460,24,89954,2,0,L|464:136,1,97.4999955368044,2|0,0:0|0:0,0:0:0:0:
463,121,90846,6,0,P|432:116|388:120,1,63.7500012159348,2|0,0:0|0:0,0:0:0:0:
324,132,91204,2,0,P|297:148|265:179,1,63.7500012159348,2|0,0:0|0:0,0:0:0:0:
228,232,91561,2,0,L|232:300,1,63.7500012159348,2|0,0:0|0:0,0:0:0:0:
156,300,91918,2,0,L|152:236,1,63.7500012159348,2|0,0:0|0:0,0:0:0:0:
104,176,92275,6,0,L|112:112,1,63.7500012159348,2|0,0:0|0:0,0:0:0:0:
36,100,92632,2,0,L|28:164,1,63.7500012159348,2|0,0:0|0:0,0:0:0:0:
4,236,92989,2,0,P|8:276|16:304,1,63.7500012159348,2|0,0:0|0:0,0:0:0:0:
76,344,93346,2,0,L|156:336,1,63.7500012159348,2|0,0:0|0:0,0:0:0:0:
208,308,93704,6,0,B|260:315|260:315|303:303|303:303|369:313,1,150,2|2,0:0|0:0,0:0:0:0:
350,235,94239,2,0,B|297:227|297:227|254:239|254:239|188:229,1,150,0|0,0:0|0:0,0:0:0:0:
132,204,94775,2,0,P|120:168|120:128,1,75,2|2,0:0|0:0,0:0:0:0:
119,131,96025,6,0,P|120:168|112:208,1,75,0|4,0:0|0:3,0:0:0:0:
112,205,96561,6,0,P|168:216|228:192,1,112.500004291535,2|8,0:0|0:0,0:0:0:0:
260,132,97096,1,2,0:0:0:0:
260,132,97275,2,0,P|315:123|366:144,1,112.500004291535,8|8,0:0|0:0,0:0:0:0:
408,212,97811,1,0,0:0:0:0:
408,212,97989,6,0,L|404:280,1,56.2500021457673,8|0,0:0|0:0,0:0:0:0:
484,180,98346,2,0,L|480:123,1,56.2500021457673,8|0,0:0|0:0,0:0:0:0:
432,60,98704,2,0,P|376:48|320:68,1,112.500004291535,8|8,0:0|0:0,0:0:0:0:
260,108,99239,1,0,0:0:0:0:
188,76,99418,6,0,P|180:48|180:20,2,56.2500021457673,10|0|8,0:0|0:0|0:0,0:0:0:0:
252,124,99954,2,0,P|249:153|240:179,1,56.2500021457673,2|8,0:0|0:0,0:0:0:0:
176,224,100311,2,0,L|120:216,1,56.2500021457673,0|8,0:0|0:0,0:0:0:0:
104,292,100668,1,0,0:0:0:0:
104,292,100846,6,0,B|188:304|188:304|228:288,1,112.500004291535,8|8,0:0|0:0,0:0:0:0:
256,228,101382,1,0,0:0:0:0:
256,228,101561,2,0,L|252:104,1,112.500004291535,8|8,0:0|0:0,0:0:0:0:
304,56,102096,1,0,0:0:0:0:
336,128,102275,6,0,P|398:126|448:116,1,112.500004291535,10|8,0:0|0:0,0:0:0:0:
500,176,102811,1,2,0:0:0:0:
500,176,102989,2,0,P|508:220|508:236,1,56.2500021457673,8|0,0:0|0:0,0:0:0:0:
432,220,103346,2,0,P|420:263|413:277,1,56.2500021457673,8|0,0:0|0:0,0:0:0:0:
340,300,103704,6,0,P|280:288|216:288,1,112.500004291535,8|8,0:0|0:0,0:0:0:0:
152,304,104239,1,0,0:0:0:0:
152,304,104418,2,0,B|160:264|160:264|140:232|148:176,1,112.500004291535,8|8,0:0|0:0,0:0:0:0:
184,124,104954,1,0,0:0:0:0:
104,128,105132,6,0,B|72:132|72:132|48:128,2,56.2500021457673,10|0|8,0:0|0:0|0:0,0:0:0:0:
176,96,105668,2,0,B|208:92|208:92|232:96,1,56.2500021457673,2|8,0:0|0:0,0:0:0:0:
276,160,106025,2,0,L|272:216,2,56.2500021457673,0|8|0,0:0|3:2|0:0,0:0:0:0:
340,112,106561,5,2,0:0:0:0:
340,112,107096,1,2,0:0:0:0:
340,112,107632,2,0,L|184:124,1,150,4|6,0:3|0:0,0:0:0:0:
76,332,108346,6,0,P|62:296|55:242,1,75,8|0,0:0|0:0,0:0:0:0:
108,204,108704,2,0,L|257:192,1,150,2|8,0:0|0:0,0:0:0:0:
320,152,109239,1,0,0:0:0:0:
320,152,109418,6,0,L|416:164,1,75,2|0,0:0|0:0,0:0:0:0:
484,92,109775,2,0,L|328:72,2,150,8|2|8,0:0|0:0|0:0,0:0:0:0:
504,164,110668,1,0,0:0:0:0:
504,164,110846,6,0,B|508:208|508:208|500:240,1,75,2|0,0:0|0:0,0:0:0:0:
444,288,111204,1,8,0:0:0:0:
384,244,111382,2,0,P|344:236|304:240,1,75,0|2,0:0|0:0,0:0:0:0:
240,212,111739,2,0,P|205:227|168:232,2,75,0|8|0,0:0|0:0|0:0,0:0:0:0:
300,164,112275,6,0,B|140:156,1,150,2|8,0:0|0:0,0:0:0:0:
80,184,112811,1,0,0:0:0:0:
12,156,112989,2,0,L|8:112,2,37.5,2|0|0,0:0|0:0|0:0,0:0:0:0:
72,200,113346,2,0,L|68:244,2,37.5,8|0|0,0:0|0:0|0:0,0:0:0:0:
128,152,113704,6,0,P|124:112|112:72,1,75,2|0,0:0|0:0,0:0:0:0:
184,52,114061,2,0,P|200:85|221:116,1,75,8|0,0:0|0:0,0:0:0:0:
288,152,114418,2,0,B|392:140|392:140|432:160,1,150,2|8,0:0|0:0,0:0:0:0:
484,216,114954,1,0,0:0:0:0:
412,232,115132,6,0,B|404:284|424:332|424:332|404:312|380:304,1,150,2|8,0:0|0:0,0:0:0:0:
312,284,115668,2,0,P|272:280|228:292,1,75,0|2,0:0|0:0,0:0:0:0:
172,320,116025,2,0,P|135:311|103:292,1,75,0|8,0:0|0:0,0:0:0:0:
60,232,116382,1,0,0:0:0:0:
60,232,116561,6,0,B|65:173|65:173|60:136|60:136|68:76,2,150,2|8|2,0:0|0:0|0:0,0:0:0:0:
92,300,117454,1,0,0:0:0:0:
140,244,117632,2,0,P|176:236|213:240,1,75,8|0,0:0|0:0,0:0:0:0:
292,308,117989,6,0,L|288:396,2,75,6|0|8,0:0|0:0|0:0,0:0:0:0:
356,224,118525,1,0,0:0:0:0:
356,224,118704,2,0,B|408:220|448:244|448:244|460:228|452:184,1,150,6|8,0:0|0:0,0:0:0:0:
420,124,119239,1,0,0:0:0:0:
420,124,119329,1,0,0:0:0:0:
420,124,119418,6,0,P|424:84|440:48,2,75,12|2|2,0:0|0:0|0:0,0:0:0:0:
348,100,119954,2,0,P|268:96|208:128,1,150,8|2,0:0|0:0,0:0:0:0:
144,168,120489,2,0,P|104:164|68:148,2,75,8|2|2,0:0|0:0|0:0,0:0:0:0:
192,224,121025,2,0,P|176:304|104:304,1,150,8|2,0:0|0:0,0:0:0:0:
32,264,121561,5,12,0:0:0:0:
32,264,121918,1,12,0:0:0:0:
32,264,122275,6,0,L|40:112,1,150,12|2,0:0|0:0,0:0:0:0:
100,68,122811,2,0,P|140:68|180:80,1,75,8|2,0:0|0:0,0:0:0:0:
228,132,123168,1,0,0:0:0:0:
300,116,123346,2,0,P|318:83|327:47,2,75,8|2|2,0:0|0:0|0:0,0:0:0:0:
236,156,123882,2,0,P|232:232|276:304,1,150,8|2,0:0|0:0,0:0:0:0:
368,320,124418,5,12,0:0:0:0:
368,320,124775,1,12,0:0:0:0:
368,320,125132,6,0,L|372:220,1,97.4999955368044,6|0,0:0|0:0,0:0:0:0:
412,160,125668,1,2,0:0:0:0:
412,160,125846,2,0,L|404:56,1,97.4999955368044,8|0,0:0|0:0,0:0:0:0:
344,20,126382,1,0,0:0:0:0:
308,84,126561,6,0,L|244:76,1,48.7499977684022,2|8,0:0|0:0,0:0:0:0:
192,48,126918,2,0,L|143:54,1,48.7499977684022,0|2,0:0|0:0,0:0:0:0:
80,92,127275,2,0,P|64:140|88:196,1,97.4999955368044,8|8,0:0|0:0,0:0:0:0:
148,228,127811,1,0,0:0:0:0:
148,228,127989,6,0,L|272:220,1,120,6|8,0:0|0:0,0:0:0:0:
224,312,128525,6,0,L|364:300,1,134.999995880127,6|2,0:0|0:0,0:0:0:0:
428,232,129061,1,8,0:0:0:0:
428,232,129239,6,0,P|432:156|408:80,1,150,6|0,0:0|0:0,0:0:0:0:
304,48,129775,1,8,0:0:0:0:
304,48,130132,5,0,0:0:0:0:
244,116,130311,1,2,0:0:0:0:
156,96,130489,1,4,0:3:0:0:
156,96,130846,6,0,P|84:84|4:84,2,150,6|8|2,0:0|0:0|0:0,0:0:0:0:
220,148,131739,1,0,0:0:0:0:
144,180,131918,2,0,L|152:264,1,75,8|0,0:0|0:0,0:0:0:0:
80,344,132275,6,0,L|68:184,1,150,2|8,0:0|0:0,0:0:0:0:
8,140,132811,1,0,0:0:0:0:
84,108,132989,2,0,P|124:120|164:120,1,75,2|0,0:0|0:0,0:0:0:0:
228,164,133346,2,0,P|198:187|164:202,1,75,8|0,0:0|0:0,0:0:0:0:
268,92,133704,6,0,L|276:256,1,150,2|8,0:0|0:0,0:0:0:0:
308,316,134239,1,0,0:0:0:0:
360,252,134418,2,0,B|424:240|472:268|472:268|464:224,1,150,2|8,0:0|0:0,0:0:0:0:
432,160,134954,1,0,0:0:0:0:
460,84,135132,6,0,L|508:88,2,37.5,2|8|0,0:0|0:0|0:0,0:0:0:0:
388,44,135489,2,0,L|232:52,1,150,8|2,0:0|0:0,0:0:0:0:
164,84,136025,2,0,P|128:76|84:72,1,75,0|8,0:0|0:0,0:0:0:0:
20,116,136382,1,0,0:0:0:0:
20,116,136471,1,8,0:0:0:0:
20,116,136561,6,0,L|28:276,1,150,2|8,0:0|0:0,0:0:0:0:
100,304,137096,1,0,0:0:0:0:
132,228,137275,2,0,L|220:236,1,75,2|0,0:0|0:0,0:0:0:0:
280,272,137632,2,0,P|332:264|364:248,1,75,8|0,0:0|0:0,0:0:0:0:
484,224,137989,6,0,P|449:208|413:202,1,75,2|0,0:0|0:0,0:0:0:0:
336,172,138346,1,8,0:0:0:0:
336,172,138525,2,0,P|299:178|261:176,1,75,0|2,0:0|0:0,0:0:0:0:
220,104,138882,1,0,0:0:0:0:
252,28,139061,2,0,P|288:21|326:23,1,75,8|0,0:0|0:0,0:0:0:0:
440,88,139418,6,0,L|432:252,1,150,2|8,0:0|0:0,0:0:0:0:
376,300,139954,2,0,L|380:376,2,75,0|2|0,0:0|0:0|0:0,0:0:0:0:
316,244,140489,2,0,P|276:240|232:252,1,75,8|0,0:0|0:0,0:0:0:0:
172,292,140846,6,0,P|134:289|99:276,1,75,2|0,0:0|0:0,0:0:0:0:
52,208,141204,1,8,0:0:0:0:
132,196,141382,1,8,0:0:0:0:
132,196,141471,1,8,0:0:0:0:
132,196,141561,2,0,L|136:152,3,37.5,8|8|8|8,0:0|0:0|0:0|0:0,0:0:0:0:
160,140,141918,2,0,L|156:100,3,37.5,8|8|8|8,0:0|0:0|0:0|0:0,0:0:0:0:
128,88,142275,6,0,P|192:52|264:76,1,150,6|8,0:0|0:0,0:0:0:0:
324,128,142811,1,0,0:0:0:0:
400,96,142989,2,0,P|412:56|412:16,2,75,2|0|8,0:0|0:0|0:0,0:0:0:0:
336,148,143525,1,0,0:0:0:0:
424,192,143704,6,0,B|376:188|376:188|324:196|324:196|272:192,1,150,2|8,0:0|0:0,0:0:0:0:
196,168,144239,1,0,0:0:0:0:
120,204,144418,2,0,P|112:168|112:116,1,75,2|0,0:0|0:0,0:0:0:0:
44,80,144775,2,0,P|32:115|27:152,1,75,8|0,0:0|0:0,0:0:0:0:
36,236,145132,6,0,B|44:344|44:344|66:326|88:320,1,150,2|8,0:0|0:0,0:0:0:0:
156,296,145668,2,0,P|192:296|236:308,1,75,0|2,0:0|0:0,0:0:0:0:
308,332,146025,2,0,P|344:321|376:303,1,75,0|8,0:0|0:0,0:0:0:0:
424,236,146382,1,0,0:0:0:0:
352,196,146561,6,0,L|360:108,1,75,2|0,0:0|0:0,0:0:0:0:
358,121,146829,1,0,0:0:0:0:
358,121,146918,1,12,0:0:0:0:
358,121,147275,6,0,P|412:148|480:120,2,112.5,12|8|8,0:0|0:0|0:0,0:0:0:0:
308,56,147989,6,0,B|220:36|220:36|156:52,1,150,6|8,0:0|0:0,0:0:0:0:
88,88,148525,1,0,0:0:0:0:
56,164,148704,2,0,L|68:244,1,75,2|0,0:0|0:0,0:0:0:0:
72,320,149061,2,0,L|88:240,1,75,8|0,0:0|0:0,0:0:0:0:
184,188,149418,6,0,P|240:180|288:264,1,150,2|8,0:0|0:0,0:0:0:0:
248,320,149954,1,0,0:0:0:0:
328,340,150132,2,0,L|412:332,1,75,2|0,0:0|0:0,0:0:0:0:
452,244,150489,2,0,L|360:252,1,75,8|0,0:0|0:0,0:0:0:0:
464,156,150846,6,0,L|308:172,1,150,2|8,0:0|0:0,0:0:0:0:
392,196,151382,1,0,0:0:0:0:
380,116,151561,2,0,P|336:60|264:72,1,150,2|8,0:0|0:0,0:0:0:0:
204,128,152096,1,0,0:0:0:0:
204,128,152275,6,0,L|208:216,1,75,2|0,0:0|0:0,0:0:0:0:
64,212,152632,2,0,L|60:137,1,75,8|0,0:0|0:0,0:0:0:0:
131,94,152989,2,0,L|139:266,2,150,2|8|2,0:0|0:0|0:0,0:0:0:0:
180,28,153882,5,0,0:0:0:0:
212,104,154061,2,0,P|255:89|287:88,1,75,8|0,0:0|0:0,0:0:0:0:
368,100,154418,2,0,P|409:119|436:140,1,75,2|0,0:0|0:0,0:0:0:0:
484,200,154775,2,0,L|480:288,1,75,8|0,0:0|0:0,0:0:0:0:
448,352,155132,6,0,P|424:284|352:284,1,150,2|8,0:0|0:0,0:0:0:0:
280,316,155668,1,0,0:0:0:0:
200,300,155846,2,0,P|184:256|184:220,1,75,2|0,0:0|0:0,0:0:0:0:
140,356,156204,2,0,P|109:320|97:286,1,75,8|0,0:0|0:0,0:0:0:0:
88,212,156561,6,0,B|96:100|96:100|120:116|152:132,1,150,2|8,0:0|0:0,0:0:0:0:
208,136,157096,2,0,P|248:128|288:124,2,75,0|2|0,0:0|0:0|0:0,0:0:0:0:
184,56,157632,2,0,P|222:41|260:30,1,75,8|0,0:0|0:0,0:0:0:0:
332,56,157989,6,0,B|396:60|436:24|436:24|448:76,1,150,2|8,0:0|0:0,0:0:0:0:
472,140,158525,2,0,L|468:224,1,75,0|2,0:0|0:0,0:0:0:0:
404,268,158882,2,0,L|412:360,2,75,0|8|8,0:0|0:0|0:0,0:0:0:0:
388,252,159329,1,8,0:0:0:0:
368,240,159418,6,0,P|288:228|228:264,1,150,6|8,0:0|0:0,0:0:0:0:
212,340,159954,1,0,0:0:0:0:
148,288,160132,2,0,B|140:244|140:244|148:208,1,75,2|0,0:0|0:0,0:0:0:0:
188,144,160489,1,8,0:0:0:0:
188,144,160668,1,0,0:0:0:0:
104,144,160846,6,0,P|64:140|28:128,1,75,2|0,0:0|0:0,0:0:0:0:
0,52,161204,2,0,L|156:40,1,150,8|2,0:0|0:0,0:0:0:0:
228,68,161739,1,0,0:0:0:0:
296,20,161918,2,0,P|307:55|307:103,1,75,8|0,0:0|0:0,0:0:0:0:
332,240,162275,6,0,P|335:202|348:167,1,75,2|0,0:0|0:0,0:0:0:0:
404,108,162632,1,8,0:0:0:0:
404,108,162811,1,0,0:0:0:0:
428,188,162989,1,4,0:3:0:0:
492,136,163168,2,0,L|496:96,2,37.5,0|8|8,0:0|0:0|0:0,0:0:0:0:
440,244,163525,6,0,B|436:308|472:356|472:356|436:348,1,150,2|8,0:0|0:0,0:0:0:0:
360,328,164061,1,8,0:0:0:0:
360,328,164418,2,0,L|320:336,3,37.5,0|0|0|0,0:0|0:0|0:0|0:0,0:0:0:0:
288,340,164775,1,8,0:0:0:0:
288,340,165132,6,0,L|140:320,1,150,4|0,0:0|0:0,0:0:0:0:
88,256,166204,1,0,0:0:0:0:
168,236,166561,2,0,P|152:168|156:88,1,150
224,44,167632,1,0,0:0:0:0:
224,44,167811,1,0,0:0:0:0:
224,44,167989,6,0,L|380:52,1,150,2|0,0:0|0:0,0:0:0:0:
404,128,169061,2,0,L|344:136,2,56.25,0|0|0,0:0|0:0|0:0,0:0:0:0:
440,144,169775,2,0,P|468:212|444:296,1,150
376,316,170846,6,0,B|268:296|268:296|228:316,1,150,2|0,0:0|0:0,0:0:0:0:
156,284,171918,1,0,0:0:0:0:
76,308,172275,2,0,P|48:200|64:160,1,150,2|2,0:0|0:0,0:0:0:0:
128,124,173346,1,0,0:0:0:0:
204,156,173704,6,0,P|220:188|224:236,1,75,2|0,0:0|0:0,0:0:0:0:
190,301,174418,1,0,0:0:0:0:
256,352,174775,1,0,0:0:0:0:
256,352,174954,1,0,0:0:0:0:
256,352,175132,6,0,L|384:344,1,127.50000243187,6|8,0:0|0:0,0:0:0:0:
460,276,175668,2,0,L|324:260,1,127.50000243187,6|2,0:0|0:0,0:0:0:0:
232,244,176204,1,8,0:0:0:0:
232,244,176561,6,0,L|312:236,1,75,6|0,0:0|0:0,0:0:0:0:
357,180,176918,1,8,0:0:0:0:
416,228,177096,2,0,L|412:312,2,75,0|2|0,0:0|0:0|0:0,0:0:0:0:
452,162,177632,2,0,P|448:122|436:82,1,75,8|0,0:0|0:0,0:0:0:0:
372,52,177989,6,0,L|216:60,1,150,2|8,0:0|0:0,0:0:0:0:
155,94,178525,2,0,L|71:82,2,75,0|2|0,0:0|0:0|0:0,0:0:0:0:
217,135,179061,2,0,P|223:170|209:227,1,75,8|0,0:0|0:0,0:0:0:0:
140,280,179418,6,0,P|72:284|48:204,1,150,6|8,0:0|0:0,0:0:0:0:
68,116,179954,2,0,L|240:124,1,150,6|2,0:0|0:0,0:0:0:0:
276,76,180489,1,8,0:0:0:0:
308,176,180668,6,0,B|376:184|420:156|420:156|468:188,1,150,6|2,0:0|0:0,0:0:0:0:
488,238,181204,1,8,0:0:0:0:
433,289,181382,2,0,L|445:345,2,37.5,2|8|8,0:0|0:0|0:0,0:0:0:0:
359,271,181739,1,8,0:0:0:0:
289,298,181918,2,0,L|281:350,3,37.5,2|2|2|2,0:0|0:0|0:0|0:0,0:0:0:0:
261,350,182275,6,0,P|265:270|245:202,1,150,6|8,0:0|0:0,0:0:0:0:
177,234,182811,1,0,0:0:0:0:
177,234,182989,2,0,P|101:218|97:150,1,150,2|8,0:0|0:0,0:0:0:0:
136,92,183525,6,0,L|288:96,1,150,6|2,0:0|0:0,0:0:0:0:
356,128,184061,2,0,P|392:116|432:112,1,75,8|0,0:0|0:0,0:0:0:0:
480,168,184418,2,0,P|472:205|455:241,1,75,2|0,0:0|0:0,0:0:0:0:
384,256,184775,2,0,P|355:230|332:198,1,75,8|0,0:0|0:0,0:0:0:0:
276,152,185132,6,0,P|280:232|256:300,2,150,6|8|2,0:0|0:0|0:0,0:0:0:0:
220,104,186025,1,0,0:0:0:0:
148,128,186204,1,2,0:0:0:0:
84,88,186382,1,8,0:0:0:0:
84,88,187096,5,2,0:0:0:0:
84,88,187186,1,2,0:0:0:0:
84,88,187275,2,0,L|92:148,3,37.5,2|2|2|2,0:0|0:0|0:0|0:0,0:0:0:0:
84,156,187632,2,0,L|92:216,3,37.5,2|2|2|2,0:0|0:0|0:0|0:0,0:0:0:0:
84,224,187989,6,0,B|144:236|192:208|192:208|228:260,1,150,6|8,0:0|0:0,0:0:0:0:
280,276,188525,2,0,P|320:264|352:240,2,75,0|2|0,0:0|0:0|0:0,0:0:0:0:
220,324,189061,2,0,P|254:346|293:356,1,75,8|0,0:0|0:0,0:0:0:0:
312,352,189329,1,0,0:0:0:0:
312,352,189418,6,0,L|396:336,1,75,2|0,0:0|0:0,0:0:0:0:
460,320,189775,2,0,L|376:304,1,75,8|0,0:0|0:0,0:0:0:0:
328,256,190132,1,2,0:0:0:0:
328,256,190311,1,0,0:0:0:0:
356,188,190489,1,8,0:0:0:0:
356,188,190668,1,0,0:0:0:0:
308,132,190846,6,0,P|232:112|184:168,1,150,2|8,0:0|0:0,0:0:0:0:
140,220,191382,1,0,0:0:0:0:
84,172,191561,2,0,L|88:92,1,75,2|0,0:0|0:0,0:0:0:0:
12,92,191918,2,0,L|8:166,1,75,8|0,0:0|0:0,0:0:0:0:
36,236,192275,6,0,B|32:352|32:352|72:372,1,150,2|8,0:0|0:0,0:0:0:0:
132,340,192811,1,0,0:0:0:0:
200,368,192989,2,0,L|252:360,3,37.5,2|0|0|0,0:0|0:0|0:0|0:0,0:0:0:0:
264,336,193346,2,0,L|340:344,1,75,8|0,0:0|0:0,0:0:0:0:
412,332,193704,6,0,P|436:300|444:260,1,75,2|0,0:0|0:0,0:0:0:0:
436,192,194061,2,0,P|414:158|379:137,1,75,8|0,0:0|0:0,0:0:0:0:
312,120,194418,2,0,L|224:128,2,75,2|0|8,0:0|0:0|0:0,0:0:0:0:
368,68,194954,2,0,L|460:76,1,75,0|2,0:0|0:0,0:0:0:0:
324,8,195311,6,0,L|168:24,1,150
112,64,195846,2,0,P|68:60|32:44,2,75,2|0|8,0:0|0:0|0:0,0:0:0:0:
184,44,196382,1,0,0:0:0:0:
244,88,196561,6,0,P|256:120|256:172,1,75,2|0,0:0|0:0,0:0:0:0:
240,232,196918,2,0,P|225:263|189:299,1,75,8|0,0:0|0:0,0:0:0:0:
124,304,197275,2,0,L|80:296,2,37.5,2|0|0,0:0|0:0|0:0,0:0:0:0:
196,324,197632,2,0,L|272:320,1,75,8|0,0:0|0:0,0:0:0:0:
368,280,197989,6,0,B|428:276|468:300|468:300|512:272,1,150,6|8,0:0|0:0,0:0:0:0:
496,172,198525,2,0,P|444:140|400:216,1,150,6|2,0:0|0:0,0:0:0:0:
372,128,199061,1,8,0:0:0:0:
312,172,199239,1,8,0:0:0:0:
312,172,199329,1,8,0:0:0:0:
312,172,199418,6,0,P|236:184|156:160,1,150,6|8,0:0|0:0,0:0:0:0:
112,116,199954,1,0,0:0:0:0:
48,156,200132,2,0,P|40:192|48:244,2,75,2|0|8,0:0|0:0|0:0,0:0:0:0:
96,100,200668,1,0,0:0:0:0:
36,56,200846,6,0,B|91:62|91:62|128:56|128:56|191:64,1,150,2|8,0:0|0:0,0:0:0:0:
256,88,201382,2,0,L|344:80,1,75,0|2,0:0|0:0,0:0:0:0:
196,136,201739,1,0,0:0:0:0:
264,164,201918,2,0,L|256:248,1,75,8|0,0:0|0:0,0:0:0:0:
312,292,202275,6,0,P|347:280|384:280,1,75,2|0,0:0|0:0,0:0:0:0:
460,288,202632,2,0,P|420:277|387:254,1,75,8|0,0:0|0:0,0:0:0:0:
348,196,202989,1,2,0:0:0:0:
372,124,203168,1,0,0:0:0:0:
340,56,203346,1,8,0:0:0:0:
268,40,203525,6,0,L|180:48,1,75,0|2,0:0|0:0,0:0:0:0:
124,80,203882,2,0,L|40:72,2,75,0|8|0,0:0|0:0|0:0,0:0:0:0:
184,128,204418,1,2,0:0:0:0:
184,128,204596,1,0,0:0:0:0:
116,156,204775,2,0,P|115:196|122:240,1,75,8|0,0:0|0:0,0:0:0:0:
176,284,205132,6,0,P|212:272|272:276,1,75,2|0,0:0|0:0,0:0:0:0:
320,244,205489,2,0,P|354:258|391:262,1,75,8|0,0:0|0:0,0:0:0:0:
456,188,205846,2,0,L|464:84,1,75,2|0,0:0|0:0,0:0:0:0:
388,96,206204,2,0,L|380:184,1,75,8|0,0:0|0:0,0:0:0:0:
256,152,206561,6,0,L|252:92,2,50,2|0|0,0:0|0:0|0:0,0:0:0:0:
224,192,206918,2,0,L|220:252,2,50,8|0|0,0:0|0:0|0:0,0:0:0:0:
180,168,207275,2,0,P|144:164|100:156,1,75,2|0,0:0|0:0,0:0:0:0:
32,232,207632,2,0,P|68:236|112:244,1,75,8|0,0:0|0:0,0:0:0:0:
176,272,207989,6,0,L|172:344,2,50,2|0|0,0:0|0:0|0:0,0:0:0:0:
192,224,208346,2,0,P|240:204|332:240,1,150,8|4,0:0|0:3,0:0:0:0:
396,296,208882,2,0,L|444:288,2,37.5,0|8|8,0:0|0:0|0:0,0:0:0:0:
332,360,209239,5,8,0:0:0:0:
260,304,209596,1,8,0:0:0:0:
188,356,209954,1,8,0:0:0:0:
168,132,210489,5,10,0:0:0:0:
256,192,210846,12,6,213704,0:0:0:0:
416,288,225132,6,0,L|420:156,1,112.500004291535,6|0,0:0|0:0,0:0:0:0:
372,120,225668,2,0,P|296:96|224:168,1,168.750006437302
220,220,226382,1,0,0:0:0:0:
220,220,226561,6,0,P|168:232|104:212,1,112.500004291535,6|0,0:0|0:0,0:0:0:0:
68,160,227096,1,0,0:0:0:0:
68,160,227275,2,0,L|72:96,1,56.2500021457673
12,212,227632,2,0,P|12:240|24:276,1,56.2500021457673
80,312,227989,6,0,P|148:300|216:312,1,127.50000243187,6|0,0:0|0:0,0:0:0:0:
276,340,228525,1,0,0:0:0:0:
276,340,228704,2,0,P|308:284|292:224,1,127.50000243187
228,188,229239,1,0,0:0:0:0:
292,148,229418,6,0,P|344:156|376:156,1,63.7500012159348,0|8,0:0|0:3,0:0:0:0:
424,124,229775,2,0,L|428:92,1,31.8750006079674,2|2,0:0|0:0,0:0:0:0:
476,188,230043,1,2,0:0:0:0:
460,212,230132,2,0,L|468:312,1,95.6250018239022,2|2,0:0|0:0,0:0:0:0:
448,328,230489,2,0,L|400:324,3,31.8750006079674,2|2|2|2,0:0|0:0|0:0|0:0,0:0:0:0:
384,292,230846,6,0,P|312:268|244:316,1,150,6|8,0:0|0:0,0:0:0:0:
180,360,231382,1,0,0:0:0:0:
100,320,231561,2,0,P|84:277|84:237,1,75,2|0,0:0|0:0,0:0:0:0:
136,176,231918,2,0,L|220:184,1,75,8|0,0:0|0:0,0:0:0:0:
100,96,232275,6,0,L|252:112,1,150,2|8,0:0|0:0,0:0:0:0:
336,84,232811,2,0,P|360:44|368:12,2,75,0|2|0,0:0|0:0|0:0,0:0:0:0:
268,144,233346,2,0,P|275:190|289:219,1,75,8|0,0:0|0:0,0:0:0:0:
368,260,233704,6,0,B|468:244|468:244|516:268,2,150,2|8|2,0:0|0:0|0:0,0:0:0:0:
288,300,234596,1,0,0:0:0:0:
208,260,234775,2,0,P|196:220|196:168,1,75,8|0,0:0|0:0,0:0:0:0:
236,108,235132,6,0,P|164:144|96:132,1,150,2|8,0:0|0:0,0:0:0:0:
20,88,235668,2,0,L|24:40,2,37.5,0|8|2,0:0|0:0|0:0,0:0:0:0:
4,176,236025,1,0,0:0:0:0:
4,176,236204,2,0,L|12:264,1,75,8|0,0:0|0:0,0:0:0:0:
32,272,236471,1,0,0:0:0:0:
32,272,236561,6,0,B|64:272|88:252|88:252|120:288|200:284,1,150,6|8,0:0|0:0,0:0:0:0:
256,264,237096,1,0,0:0:0:0:
336,304,237275,2,0,P|348:264|348:224,1,75,2|0,0:0|0:0,0:0:0:0:
440,220,237632,2,0,P|423:181|397:151,1,75,8|0,0:0|0:0,0:0:0:0:
264,96,237989,6,0,B|380:88|380:88|348:52,1,150,2|8,0:0|0:0,0:0:0:0:
276,8,238525,2,0,L|200:14,1,75,0|2,0:0|0:0,0:0:0:0:
124,64,238882,1,0,0:0:0:0:
40,28,239061,2,0,P|27:73|27:109,1,75,8|0,0:0|0:0,0:0:0:0:
72,220,239418,6,0,P|120:276|204:232,1,150,2|8,0:0|0:0,0:0:0:0:
248,192,239954,1,0,0:0:0:0:
248,192,240132,2,0,L|328:200,1,75,2|0,0:0|0:0,0:0:0:0:
404,240,240489,2,0,L|488:228,1,75,8|0,0:0|0:0,0:0:0:0:
500,316,240846,6,0,L|425:326,1,75,2|8,0:0|0:0,0:0:0:0:
336,332,241204,1,10,0:0:0:0:
336,332,241293,2,0,P|288:316|260:292,1,75,8|8,0:0|0:0,0:0:0:0:
256,280,241561,2,0,L|264:112,1,150,8|2,0:0|0:0,0:0:0:0:
196,72,242096,1,8,0:0:0:0:
196,72,242186,1,8,0:0:0:0:
196,72,242275,6,0,P|124:64|88:128,1,150,6|8,0:0|0:0,0:0:0:0:
84,212,242811,1,0,0:0:0:0:
84,212,242989,2,0,L|96:304,1,75,2|0,0:0|0:0,0:0:0:0:
176,324,243346,1,8,0:0:0:0:
260,288,243525,1,0,0:0:0:0:
340,328,243704,6,0,P|400:320|396:224,1,150,2|8,0:0|0:0,0:0:0:0:
344,184,244239,1,0,0:0:0:0:
260,212,244418,2,0,P|252:172|256:132,1,75,2|0,0:0|0:0,0:0:0:0:
216,56,244775,2,0,P|181:40|144:35,1,75,8|0,0:0|0:0,0:0:0:0:
68,84,245132,6,0,L|236:76,1,150,2|8,0:0|0:0,0:0:0:0:
300,40,245668,1,0,0:0:0:0:
376,88,245846,2,0,L|372:176,2,75,2|0|8,0:0|0:0|0:0,0:0:0:0:
460,12,246382,6,0,L|452:176,1,150,6|2,0:0|0:0,0:0:0:0:
444,276,246918,1,8,0:0:0:0:
444,276,247275,2,0,B|368:260|368:260|296:276,1,150,12|8,0:0|0:0,0:0:0:0:
297,275,247989,5,8,0:0:0:0:
297,275,248168,1,2,0:0:0:0:
216,240,248346,2,0,P|200:200|200:156,1,75,8|2,0:0|0:0,0:0:0:0:
272,92,248704,2,0,L|356:100,1,75,8|2,0:0|0:0,0:0:0:0:
424,28,249061,2,0,L|349:20,1,75,8|2,0:0|0:0,0:0:0:0:
236,24,249418,5,8,0:0:0:0:
236,24,249596,1,2,0:0:0:0:
164,88,249775,1,8,0:0:0:0:
104,12,249954,1,2,0:0:0:0:
24,64,250132,2,0,P|16:108|24:144,1,75,8|2,0:0|0:0,0:0:0:0:
104,176,250489,2,0,P|109:212|101:249,1,75,8|2,0:0|0:0,0:0:0:0:
8,300,250846,6,0,P|88:292|172:316,1,150,6|8,0:0|0:0,0:0:0:0:
244,288,251382,1,0,0:0:0:0:
204,208,251561,2,0,L|208:152,3,37.5,4|2|2|8,0:3|0:0|0:0|0:0,0:0:0:0:
212,132,251918,1,8,0:0:0:0:
288,60,252096,6,0,P|368:60|416:120,1,150,6|0,0:0|0:0,0:0:0:0:
436,212,252632,1,8,0:0:0:0:
436,212,254329,6,0,L|440:68,1,134.999995880127,0|0,0:0|0:0,0:0:0:0:
424,60,254954,6,0,P|343:40|300:101,1,150,6|0,0:0|0:0,0:0:0:0:
280,156,255489,1,8,0:0:0:0:
204,148,255668,2,0,P|165:130|137:99,1,75,0|2,0:0|0:0,0:0:0:0:
136,32,256025,2,0,P|133:74|113:111,1,75,0|8,0:0|0:0,0:0:0:0:
64,152,256382,1,0,0:0:0:0:
64,152,256561,6,0,P|60:232|140:256,1,150,2|8,0:0|0:0,0:0:0:0:
188,248,257096,2,0,B|232:240|232:240|276:252,1,75,0|2,0:0|0:0,0:0:0:0:
324,312,257454,1,0,0:0:0:0:
324,312,257543,1,0,0:0:0:0:
324,312,257632,2,0,L|320:352,3,37.5,8|0|0|0,0:0|0:0|0:0|0:0,0:0:0:0:
352,340,257989,6,0,P|344:264|352:180,1,150,2|8,0:0|0:0,0:0:0:0:
412,148,258525,2,0,L|488:156,1,75,0|2,0:0|0:0,0:0:0:0:
376,76,258882,2,0,L|276:88,1,75,0|8,0:0|0:0,0:0:0:0:
244,136,259239,1,0,0:0:0:0:
208,68,259418,6,0,B|204:116|204:116|212:144|212:144|208:224,1,150,2|12,0:0|0:0,0:0:0:0:
344,280,260132,2,0,B|412:288|412:288|456:272,2,112.5,12|8|12,0:0|0:0|0:0,0:0:0:0:
288,228,260846,6,0,P|252:236|212:260,1,75,6|0,0:0|0:0,0:0:0:0:
160,300,261204,2,0,P|168:220|128:164,1,150,8|2,0:0|0:0,0:0:0:0:
64,132,261739,1,0,0:0:0:0:
128,92,261918,2,0,P|168:89|207:79,1,75,8|0,0:0|0:0,0:0:0:0:
268,44,262275,6,0,P|305:45|342:52,1,75,2|0,0:0|0:0,0:0:0:0:
408,88,262632,2,0,L|400:248,2,150,8|2|8,0:0|0:0|0:0,0:0:0:0:
444,156,263525,1,0,0:0:0:0:
368,160,263704,6,0,B|324:156|324:156|288:140,1,75,2|0,0:0|0:0,0:0:0:0:
228,112,264061,2,0,B|197:115|197:115|157:133,1,75,8|0,0:0|0:0,0:0:0:0:
112,192,264418,2,0,L|120:280,2,75,2|0|8,0:0|0:0|0:0,0:0:0:0:
48,156,264954,1,0,0:0:0:0:
32,84,265132,5,6,0:0:0:0:
92,36,265311,1,0,0:0:0:0:
164,52,265489,1,8,0:0:0:0:
196,120,265668,2,0,B|192:228|192:228|212:216|248:208,1,150,4|8,0:0|0:0,0:0:0:0:
252,212,266114,1,8,0:0:0:0:
252,212,266204,1,8,0:0:0:0:
324,236,266382,1,0,0:0:0:0:
396,220,266561,6,0,P|440:160|392:100,1,150,6|8,0:0|0:0,0:0:0:0:
336,76,267096,2,0,L|248:84,1,75,0|2,0:0|0:0,0:0:0:0:
192,112,267454,2,0,L|100:100,2,75,0|8|0,0:0|0:0|0:0,0:0:0:0:
240,196,267989,6,0,L|80:176,1,150,2|8,0:0|0:0,0:0:0:0:
20,204,268525,2,0,P|12:244|20:296,1,75,0|2,0:0|0:0,0:0:0:0:
80,336,268882,1,0,0:0:0:0:
80,336,268971,1,0,0:0:0:0:
80,336,269061,2,0,L|124:332,3,37.5,8|0|0|0,0:0|0:0|0:0|0:0,0:0:0:0:
132,312,269418,6,0,P|196:356|276:324,1,150,2|8,0:0|0:0,0:0:0:0:
316,288,269954,2,0,L|308:200,1,75,0|2,0:0|0:0,0:0:0:0:
248,168,270311,2,0,P|248:128|256:88,1,75,0|8,0:0|0:0,0:0:0:0:
320,60,270668,1,0,0:0:0:0:
328,136,270846,6,0,L|168:124,1,150,2|12,0:0|0:0,0:0:0:0:
52,208,271561,2,0,P|48:268|80:328,2,112.5,12|8|12,0:0|0:0|0:0,0:0:0:0:
108,156,272275,6,0,L|184:164,1,75,6|0,0:0|0:0,0:0:0:0:
244,208,272632,2,0,L|328:196,1,75,8|0,0:0|0:0,0:0:0:0:
388,220,272989,2,0,P|416:296|368:348,2,150,2|8|2,0:0|0:0|0:0,0:0:0:0:
324,180,273882,5,0,0:0:0:0:
388,144,274061,2,0,P|436:152|472:152,1,75,8|0,0:0|0:0,0:0:0:0:
484,152,274329,1,8,0:0:0:0:
484,152,274418,1,2,0:0:0:0:
476,76,274596,2,0,P|428:68|392:68,1,75,0|8,0:0|0:0,0:0:0:0:
329,91,274954,1,0,0:0:0:0:
272,44,275132,6,0,P|208:48|200:128,1,150,2|8,0:0|0:0,0:0:0:0:
224,192,275668,1,0,0:0:0:0:
224,192,275846,2,0,L|144:200,1,75,2|0,0:0|0:0,0:0:0:0:
156,276,276204,2,0,L|230:268,1,75,8|0,0:0|0:0,0:0:0:0:
120,356,276561,6,0,L|272:340,1,150,6|8,0:0|0:0,0:0:0:0:
344,248,277096,2,0,P|392:240|416:328,1,150,6|2,0:0|0:0,0:0:0:0:
340,376,277632,1,8,0:0:0:0:
340,376,277989,6,0,L|332:264,1,112.500004291535,2|0,0:0|0:0,0:0:0:0:
272,212,278544,2,0,P|212:208|176:252,1,112.500004291535,2|0,0:0|0:0,0:0:0:0:
178,243,279285,6,0,B|172:204|172:204|176:172|176:172|168:112,1,112.500004291535,2|0,0:0|0:0,0:0:0:0:
108,84,279840,1,0,0:0:0:0:
164,28,280026,2,0,P|220:12|276:36,1,112.500004291535,2|0,0:0|0:0,0:0:0:0:
320,92,280581,1,0,0:0:0:0:
320,92,280951,6,0,L|316:164,2,56.2500021457673,2|0|0,0:0|0:0|0:0,0:0:0:0:
396,72,281506,2,0,L|388:192,1,112.500004291535,2|0,0:0|0:0,0:0:0:0:
388,184,282062,1,0,0:0:0:0:
324,228,282248,6,0,L|336:348,2,112.500004291535,2|0|2,0:0|0:0|0:0,0:0:0:0:
324,228,283359,2,0,P|288:244|264:248,1,56.2500021457673
96,224,283914,6,0,P|148:196|212:200,1,112.500004291535,2|0,0:0|0:0,0:0:0:0:
272,164,284470,2,0,B|280:104|280:104|268:52,1,112.500004291535,2|0,0:0|0:0,0:0:0:0:
268,53,285211,6,0,P|312:64|384:48,1,112.500004291535,2|0,0:0|0:0,0:0:0:0:
448,16,285766,1,0,0:0:0:0:
448,16,285951,2,0,L|452:140,1,112.500004291535,2|0,0:0|0:0,0:0:0:0:
456,208,286507,1,0,0:0:0:0:
456,208,286877,6,0,L|392:200,2,56.2500021457673,2|0|0,0:0|0:0|0:0,0:0:0:0:
484,284,287433,2,0,L|360:296,1,112.500004291535,2|0,0:0|0:0,0:0:0:0:
296,280,287989,1,0,0:0:0:0:
228,320,288174,6,0,P|208:264|212:208,1,112.500004291535,2|0,0:0|0:0,0:0:0:0:
160,152,288729,2,0,P|123:154|92:164,1,56.2500021457673,0|2,0:0|0:0,0:0:0:0:
256,192,289285,12,0,292989,0:0:0:0:
